Вопрос - ответ (читать внимательно 1-е сообщение)

Модератор: Союз Риперов

Re: Вопрос - ответ (читать внимательно 1-е сообщение)

Сообщение tucha_73 » 18 сен 2018, 19:05

Перехожу на скачивание Ворониных, и каждый раз пишет, "Запрошенной темы не существует", почему так? На последней странице несколько раз спрашивали про подобную ошибку, но ни на один вопрос ответа нет. :(

tucha_73
Новичок
Новичок
 
Раздал: 1.02 ТБ
Скачал: 83.81 ГБ
Ратио: 16.675
Сообщения: 5
Зарегистрирован: 27 окт 2016, 15:32
Карма: 0

Re: Вопрос - ответ (читать внимательно 1-е сообщение)

Сообщение tucha_73 » 18 сен 2018, 19:09

О, появились!

tucha_73
Новичок
Новичок
 
Раздал: 1.02 ТБ
Скачал: 83.81 ГБ
Ратио: 16.675
Сообщения: 5
Зарегистрирован: 27 окт 2016, 15:32
Карма: 0

Re: Вопрос - ответ (читать внимательно 1-е сообщение)

Сообщение alex.cupr » 13 дек 2018, 20:17

Здравствуйте ! Вот уже несколько дней не могу скачать любой торрент с первой станицы ( т.е. расположенный выше кнопки ), да и сама кнопка " Спасибо" не работает .
Аватара пользователя
alex.cupr
Новичок
Новичок
 
Раздал: 25.69 ГБ
Скачал: 156.48 ГБ
Ратио: 0.176
Сообщения: 2
Зарегистрирован: 10 июн 2015, 13:35
Откуда: Беларусь
Карма: 0

Re: Вопрос - ответ (читать внимательно 1-е сообщение)

Сообщение Otkritka » 24 фев 2019, 16:21

Здравствуйте уважаемые, помогите разобраться с форматом HEVC, помогите с дальнейшем выбором для скачек фильмов в этом формате и просмотре на китайских TV.
Например эти: не показывают картинку идёт только звук.
Код: Выделить всё
General
Unique ID                   : 28590696757589023494321201536898160503 (0x15825E2ECD2C59C427590D0C0C77D777)
Complete name               : D:\ВИДЕО\ФИЛЬМЫ\BOGEMSKAYA RAPSODIYA.mkv
Format                      : Matroska
Format version              : Version 4
File size                   : 2.27 GiB
Duration                    : 2 h 14 min
Overall bit rate            : 2 417 kb/s
Encoded date                : UTC 2019-02-13 18:07:53
Writing application         : mkvmerge v31.0.0 ('Dolores In A Shoestand') 32-bit
Writing library             : libebml v1.3.6 + libmatroska v1.4.9

Video
ID                          : 1
Format                      : HEVC
Format/Info                 : High Efficiency Video Coding
Format profile              : Main 10@L4@Main
Codec ID                    : V_MPEGH/ISO/HEVC
Duration                    : 2 h 14 min
Bit rate                    : 1 967 kb/s
Width                       : 1 920 pixels
Height                      : 808 pixels
Display aspect ratio        : 2.40:1
Frame rate mode             : Constant
Frame rate                  : 23.976 (24000/1001) FPS
Color space                 : YUV
Chroma subsampling          : 4:2:0
Bit depth                   : 10 bits
Bits/(Pixel*Frame)          : 0.053
Stream size                 : 1.85 GiB (81%)
Default                     : Yes
Forced                      : No

Audio
ID                          : 2
Format                      : AC-3
Format/Info                 : Audio Coding 3
Commercial name             : Dolby Digital
Codec ID                    : A_AC3
Duration                    : 2 h 14 min
Bit rate mode               : Constant
Bit rate                    : 448 kb/s
Channel(s)                  : 6 channels
Channel layout              : L R C LFE Ls Rs
Sampling rate               : 48.0 kHz
Frame rate                  : 31.250 FPS (1536 SPF)
Bit depth                   : 16 bits
Compression mode            : Lossy
Stream size                 : 431 MiB (19%)
Title                       : Dub | DD 5.1 @ 448 kbps - Blu-ray CEE
Language                    : Russian
Service kind                : Complete Main
Default                     : Yes
Forced                      : No

Код: Выделить всё
General
Unique ID                   : 237036508677712192032556025123676675968 (0xB253922CE51507F0DCD8D2CBA370DF80)
Complete name               : D:\ВИДЕО\ФИЛЬМЫ\HUNTER KILLER.mkv
Format                      : Matroska
Format version              : Version 4
File size                   : 2.16 GiB
Duration                    : 2 h 1 min
Overall bit rate            : 2 544 kb/s
Encoded date                : UTC 2019-01-27 17:00:44
Writing application         : mkvmerge v30.1.0 ('Forever And More') 32-bit
Writing library             : libebml v1.3.6 + libmatroska v1.4.9

Video
ID                          : 1
Format                      : HEVC
Format/Info                 : High Efficiency Video Coding
Format profile              : Main 10@L4@Main
Codec ID                    : V_MPEGH/ISO/HEVC
Duration                    : 2 h 1 min
Bit rate                    : 2 159 kb/s
Width                       : 1 920 pixels
Height                      : 808 pixels
Display aspect ratio        : 2.40:1
Frame rate mode             : Constant
Frame rate                  : 23.976 (24000/1001) FPS
Color space                 : YUV
Chroma subsampling          : 4:2:0
Bit depth                   : 10 bits
Bits/(Pixel*Frame)          : 0.058
Stream size                 : 1.84 GiB (85%)
Default                     : Yes
Forced                      : No

Audio
ID                          : 2
Format                      : AC-3
Format/Info                 : Audio Coding 3
Commercial name             : Dolby Digital
Codec ID                    : A_AC3
Duration                    : 2 h 1 min
Bit rate mode               : Constant
Bit rate                    : 384 kb/s
Channel(s)                  : 6 channels
Channel layout              : L R C LFE Ls Rs
Sampling rate               : 48.0 kHz
Frame rate                  : 31.250 FPS (1536 SPF)
Bit depth                   : 16 bits
Compression mode            : Lossy
Stream size                 : 334 MiB (15%)
Title                       : alltor
Service kind                : Complete Main
Default                     : Yes
Forced                      : No

А эти: идут нормально.
Код: Выделить всё
General
Unique ID                   : 66179402747785580985534546916201789988 (0x31C9B078F00ACCBC70CF9F7C2B40FA24)
Complete name               : D:\ВИДЕО\ФИЛЬМЫ\DEVUSHKA KOTORAYA ZASTRYALA V PAUTINE.mkv
Format                      : Matroska
Format version              : Version 4
File size                   : 1.85 GiB
Duration                    : 1 h 55 min
Overall bit rate            : 2 296 kb/s
Encoded date                : UTC 2019-02-13 18:10:40
Writing application         : mkvmerge v31.0.0 ('Dolores In A Shoestand') 32-bit
Writing library             : libebml v1.3.6 + libmatroska v1.4.9

Video
ID                          : 1
Format                      : HEVC
Format/Info                 : High Efficiency Video Coding
Format profile              : Main 10@L4@Main
Codec ID                    : V_MPEGH/ISO/HEVC
Duration                    : 1 h 55 min
Bit rate                    : 1 911 kb/s
Width                       : 1 920 pixels
Height                      : 808 pixels
Display aspect ratio        : 2.40:1
Frame rate mode             : Constant
Frame rate                  : 23.976 (24000/1001) FPS
Color space                 : YUV
Chroma subsampling          : 4:2:0
Bit depth                   : 10 bits
Bits/(Pixel*Frame)          : 0.051
Stream size                 : 1.54 GiB (83%)
Default                     : Yes
Forced                      : No

Audio
ID                          : 2
Format                      : AC-3
Format/Info                 : Audio Coding 3
Commercial name             : Dolby Digital
Codec ID                    : A_AC3
Duration                    : 1 h 55 min
Bit rate mode               : Constant
Bit rate                    : 384 kb/s
Channel(s)                  : 6 channels
Channel layout              : L R C LFE Ls Rs
Sampling rate               : 48.0 kHz
Frame rate                  : 31.250 FPS (1536 SPF)
Bit depth                   : 16 bits
Compression mode            : Lossy
Stream size                 : 317 MiB (17%)
Title                       : Дублированный
Language                    : Russian
Service kind                : Complete Main
Default                     : Yes
Forced                      : Yes

Код: Выделить всё
General
Unique ID                   : 287648742001766834901955393154717628575 (0xD86721F004E94F7FD6E66A68B5FCB89F)
Complete name               : D:\ВИДЕО\ФИЛЬМЫ\OVERLORD.mkv
Format                      : Matroska
Format version              : Version 4
File size                   : 1.29 GiB
Duration                    : 1 h 49 min
Overall bit rate            : 1 681 kb/s
Encoded date                : UTC 2019-02-12 13:44:15
Writing application         : mkvmerge v31.0.0 ('Dolores In A Shoestand') 32-bit
Writing library             : libebml v1.3.6 + libmatroska v1.4.9

Video
ID                          : 1
Format                      : HEVC
Format/Info                 : High Efficiency Video Coding
Format profile              : Main@L4@Main
Codec ID                    : V_MPEGH/ISO/HEVC
Duration                    : 1 h 49 min
Bit rate                    : 1 040 kb/s
Width                       : 1 920 pixels
Height                      : 800 pixels
Display aspect ratio        : 2.40:1
Frame rate mode             : Constant
Frame rate                  : 23.976 (24000/1001) FPS
Color space                 : YUV
Chroma subsampling          : 4:2:0
Bit depth                   : 8 bits
Bits/(Pixel*Frame)          : 0.028
Stream size                 : 816 MiB (62%)
Language                    : English
Default                     : Yes
Forced                      : No
Color range                 : Limited

Audio
ID                          : 2
Format                      : AC-3
Format/Info                 : Audio Coding 3
Commercial name             : Dolby Digital
Codec ID                    : A_AC3
Duration                    : 1 h 49 min
Bit rate mode               : Constant
Bit rate                    : 640 kb/s
Channel(s)                  : 6 channels
Channel layout              : L R C LFE Ls Rs
Sampling rate               : 48.0 kHz
Frame rate                  : 31.250 FPS (1536 SPF)
Bit depth                   : 16 bits
Compression mode            : Lossy
Delay relative to video     : -148 ms
Stream size                 : 502 MiB (38%)
Title                       : Dub [License] alltor
Language                    : Russian
Service kind                : Complete Main
Default                     : Yes
Forced                      : Yes

На какие строки в Media Info надо ориентироватся что бы зря не качать и точно знать что TV его проиграет.

Otkritka
Новичок
Новичок
 
Раздал: 23.03 ГБ
Скачал: 9.99 ГБ
Ратио: 2.369
Сообщения: 1
Зарегистрирован: 14 апр 2016, 03:15
Карма: 0

Пред.

Вернуться в Вопросы по трекеру и форуму



Кто сейчас на конференции

Сейчас этот форум просматривают: нет зарегистрированных пользователей

Ресурс не предоставляет электронные версии произведений, а занимается лишь коллекционированием и каталогизацией ссылок, присылаемых и публикуемых на форуме нашими читателями. Если вы являетесь правообладателем какого-либо представленного материала и не желаете чтобы ссылка на него находилась в нашем каталоге, свяжитесь с нами и мы незамедлительно удалим её. Файлы для обмена на трекере предоставлены пользователями сайта, и администрация не несёт ответственности за их содержание. Просьба не заливать файлы, защищенные авторскими правами, а также файлы нелегального содержания!