Фильмы Pokemon [1997-2010, Комедия, HWP] - Скачать торрент бесплатно

Полнометражные Аниме и все что с ним связано, вы можете скачать торрент -файлом в этом разделе.

Модераторы: Модераторы Сериалы, мультсериалы, Союз Риперов

Полнометражные Аниме и все что с ним связано, вы можете скачать торрент -файлом в этом разделе.
Поделиться ВКонтакте Поделиться Facebook Поделиться Twitter Поделиться Mail.RU
АвторСообщение
Djanik
Аватара пользователя
Инженер
Инженер
 
Сообщения: 73
Зарегистрирован: 28 ноя 2011, 01:10
Карма: 4

Сообщение Djanik » 15 май 2012, 14:47

Фильмы Pokemon [1997-2010, Комедия, HWP] - Скачать торрент

Название: Фильмы Pokemon

Дата выхода: 1997-2010
Страна: Япония
Студия:
Жанр: Комедия
Тип аниме: Movie
Продолжительность: 01:30:00
Перевод: Любительский (одноголосый)
Субтитры: отсутствуют
Тип релиза: Без Хардсаба
Описание: 14 фильмов по сериалу Pokemon
Дополнительно: Качал с разных источников, так что получилось то, что получилось

1 сезон аниме: post142187.html#p142187

ПЕРЕКАЧАЙТЕ ТОРЕНТ ФАЙЛ
Качество: HWP
Формат файла: FLV
Видео кодек: Flash Video
Аудио кодек: MP3
Видео: Flash Video 1 320x240
Аудио: MPEG Audio Layer 3 22050Hz stereo 8kbps
MediaInfo:
General
Complete name : Фильмы Pokemon\фильм 3 Pokemon Заклятие Аноунов.flv
Format : Flash Video
File size : 176 MiB
Duration : 1h 10mn
Overall bit rate : 349 Kbps
Writing application : В Кадре.ру
Tagging application : Yet Another Metadata Injector for FLV - Version 1.2-OA-modified
title : Покемоны фильм 3
author : Али Bo}I{gb
created_at : 22 October 2008

Video
Format : H.263
Duration : 1h 10mn
Bit rate : 245 Kbps
Width : 320 pixels
Height : 240 pixels
Display aspect ratio : 4:3
Frame rate : 25.000 fps
Bits/(Pixel*Frame) : 0.128
Stream size : 128 MiB (72%)

Audio
Format : MPEG Audio
Format version : Version 2
Format profile : Layer 3
Format_Settings_Mode : Joint stereo / MS Stereo
Duration : 1h 10mn
Bit rate mode : Variable
Bit rate : 88.6 Kbps
Channel(s) : 2 channels
Sampling rate : 22.05 KHz
Resolution : 16 bits
Stream size : 47.5 MiB (27%)

Последний раз редактировалось Djanik 16 май 2012, 13:25, всего редактировалось 7 раз(а).
Как качать, Как раздавать - Правила и инструкции
Торрент16 май 2012, 13:24 [ 16 май 2012, 13:24 ]

СКАЧАТЬ с просмотром рекламы
Статус-
.torrent скачан10 раз
Размер7.48 ГБ (8 031 049 555)
10 Мбит/с


Djanik

Инженер

Аватара пользователя
 

Сообщения: 73

Зарегистрирован: 28 ноя 2011, 01:10

Карма: 4

Сообщение Djanik» 15 май 2012, 14:48

0-) даст Бог вечером будут полных 2 сезона сериала 0-)

раздача начнётся примерно в 21-00 по москве
10 Мбит/с


13napas

Созерцатель

 

Сообщения: 3

Зарегистрирован: 10 ноя 2011, 15:42

Карма: 0

Сообщение 13napas» 15 май 2012, 16:20

Как только не стыдно выкладывать в таком отвратительном качестве..

Djanik

Инженер

Аватара пользователя
 

Сообщения: 73

Зарегистрирован: 28 ноя 2011, 01:10

Карма: 4

Сообщение Djanik» 15 май 2012, 20:31

ну если модеры скажут удалить-удалю :-[
10 Мбит/с


sailgar

Созерцатель

 

Сообщения: 2

Зарегистрирован: 29 авг 2011, 11:56

Карма: 0

Сообщение sailgar» 16 май 2012, 18:55

выложи все сезоны.

Djanik

Инженер

Аватара пользователя
 

Сообщения: 73

Зарегистрирован: 28 ноя 2011, 01:10

Карма: 4

Сообщение Djanik» 16 май 2012, 23:09

sailgar писал(а):выложи все сезоны.

есть сериал покемоны-выложил, есть так же Pokemon Advantage, осталось 3 сезон так сказать скачать )) :-)
10 Мбит/с



Вернуться в Полнометражные Аниме



Кто сейчас на конференции

Сейчас этот форум просматривают: нет зарегистрированных пользователей

Ресурс не предоставляет электронные версии произведений, а занимается лишь коллекционированием и каталогизацией ссылок, присылаемых и публикуемых на форуме нашими читателями. Если вы являетесь правообладателем какого-либо представленного материала и не желаете чтобы ссылка на него находилась в нашем каталоге, свяжитесь с нами и мы незамедлительно удалим её. Файлы для обмена на трекере предоставлены пользователями сайта, и администрация не несёт ответственности за их содержание. Просьба не заливать файлы, защищенные авторскими правами, а также файлы нелегального содержания!