Такое кино [05/07/2019, ТВ-Шоу, WEBRip 720p] - Скачать торрент бесплатно

Модераторы: Кандидат в Союз Риперов, Модераторы ТВ-Шоу, документальные, спорт, Союз Риперов

Поделиться ВКонтакте Поделиться Facebook Поделиться Twitter Поделиться Mail.RU
АвторСообщение
Лютобор

Новичок
Новичок
 
Раздал: 58.2 ГБ
Скачал: 17.69 ГБ
Ратио: 4.052
Сообщения: 29
Зарегистрирован: 27 окт 2014, 21:08
Карма: 12

Сообщение Лютобор » 11 июл 2019, 21:27

Такое кино [05/07/2019, ТВ-Шоу, WEBRip 720p] - Скачать торрент

Название: Такое кино
Страна: Россия
Жанр: ТВ-Шоу
Продолжительность: 00:22:16
Выпуск: 274
Дата выхода: 05/07/2019
Ведущие: Андрей Родной и Полина Максимова

Описание: Программа о новинках и новостях из мира кинематографа!

Качество: WEBRip 720p
Формат файла: MP4
Видео: MPEG4 Video (H264) 1280x720 25fps 2965kbps
Аудио: AAC 44100Hz stereo 128kbps

Сэмпл

Код: Выделить всё
General
Complete name                  : C:\Users\Администратор\Downloads\Такое кино. Выпуск 274 (05.07.2019).mp4
Format                         : MPEG-4
Format profile                 : Base Media
Codec ID                       : isom
File size                      : 493 MiB
Duration                       : 22mn 15s
Overall bit rate               : 3 097 Kbps
Encoded date                   : UTC 2019-07-10 17:25:56
Tagged date                    : UTC 2019-07-10 17:25:56

Video
ID                             : 1
Format                         : AVC
Format/Info                    : Advanced Video Codec
Format profile                 : High@L3.1
Format settings, CABAC         : Yes
Format settings, ReFrames      : 1 frame
Codec ID                       : avc1
Codec ID/Info                  : Advanced Video Coding
Duration                       : 22mn 15s
Bit rate                       : 2 966 Kbps
Width                          : 1 280 pixels
Height                         : 720 pixels
Display aspect ratio           : 16:9
Frame rate mode                : Constant
Frame rate                     : 25.000 fps
Standard                       : Component
Color space                    : YUV
Chroma subsampling             : 4:2:0
Bit depth                      : 8 bits
Scan type                      : Progressive
Bits/(Pixel*Frame)             : 0.129
Stream size                    : 472 MiB (96%)
Tagged date                    : UTC 2019-07-10 17:26:19

Audio
ID                             : 2
Format                         : AAC
Format/Info                    : Advanced Audio Codec
Format profile                 : LC
Codec ID                       : 40
Duration                       : 22mn 15s
Bit rate mode                  : Constant
Bit rate                       : 128 Kbps
Channel count                  : 2 channels
Channel positions              : Front: L R
Sampling rate                  : 44.1 KHz
Compression mode               : Lossy
Stream size                    : 20.4 MiB (4%)

Последний раз редактировалось Лютобор 12 июл 2019, 00:48, всего редактировалось 1 раз.
Как качать, Как раздавать - Правила и инструкции
Торрент11 июл 2019, 21:27 [ 11 июл 2019, 21:27 ]

СКАЧАТЬ с просмотром рекламы
СтатусПроверен Zakol
.torrent скачан49 раз
Размер493.06 МБ (517 006 439)

Лютобор


Новичок
Новичок
 

Сообщения: 29

Зарегистрирован: 27 окт 2014, 21:08

Карма: 12

Сообщение Лютобор» 11 июл 2019, 22:16

Следующий выпуск будет, скорее всего, в выходные.


Вернуться в ТВ-Шоу и развлекательные передачи



Кто сейчас на конференции

Сейчас этот форум просматривают: Kommy3107

Ресурс не предоставляет электронные версии произведений, а занимается лишь коллекционированием и каталогизацией ссылок, присылаемых и публикуемых на форуме нашими читателями. Если вы являетесь правообладателем какого-либо представленного материала и не желаете чтобы ссылка на него находилась в нашем каталоге, свяжитесь с нами и мы незамедлительно удалим её. Файлы для обмена на трекере предоставлены пользователями сайта, и администрация не несёт ответственности за их содержание. Просьба не заливать файлы, защищенные авторскими правами, а также файлы нелегального содержания!