300 спартанцев / The 300 Spartans [1962, драма, приключения, военный, история, BDRip 1080р] D, Р - Скачать торрент бесплатно

Модераторы: Модераторы Фильмы, мультфильмы, Союз Риперов

Поделиться ВКонтакте Поделиться Facebook Поделиться Twitter Поделиться Mail.RU
АвторСообщение
Download more
Аватара пользователя
Модератор Фильмов
Модератор Фильмов
 
Раздал: 30.59 ГБ
Скачал: 137.28 ГБ
Ратио: 0.263
Сообщения: 527
Зарегистрирован: 19 ноя 2016, 16:36
Откуда: г. Астана, Казахстан
Награды: 6
За 100 сообщений (1) За 500 сообщений (1) 250 релизов (1) За 2000 полученных спасибо (1) 30 рипов (1) 200 кармы (1)
Карма: 313
-2--2-

Сообщение Download more » 30 янв 2018, 19:04

300 спартанцев / The 300 Spartans [1962, драма, приключения, военный, история, BDRip 1080р] D, Р - Скачать торрент

Название: 300 спартанцев
Оригинальное название: /The 300 Spartans
Год выхода: 1962
Жанр: драма, приключения, военный, история
Режиссер: Рудольф Мате
В ролях: :Ричард Иган, Ральф Ричардсон, Дайэн Бэйкер, Барри Коу, Дэвид Фаррар, Доналд Хьюстон, Анна Синодину, Кирон Мур, Джон Кроуфорд, Роберт Браун

О фильме: 480 год до нашей эры. Многотысячное войско персов подошло к границам Греции, навстречу захватчикам вышел небольшой отряд воинов из Спарты, во главе с царем Леонидом.

Царь Персии Ксеркс предложил спартанцам сложить оружие, но герои решили: «Вместе победить или вместе умереть!»

Четыре дня и четыре ночи шло сражение, cамая лучшая гвардия — «Бессмертные», были пущены Ксерксом в бой и погибли под мечами трехсот спартанцев.



Выпущено: США
Продолжительность: 01:53:47
Озвучивание: Профессиональный (полное дублирование), Профессиональный (многоголосый закадровый)
Субтитры: UTF-8 русские, английские

Файл
Формат: MKV
Качество: BDRip 1080р
Видео: 1920x816, MPEG4/ISO/AVC, High@L4.1, 23,976 (24000/1001) кадра/сек, ~3500 Кбит/сек
Аудио: 48,0 КГц, AC3 Dolby Digital, 2 канала, 192 Кбит/сек Профессиональный (дублированный) Советский + вставки MVO на вырезаные эпизоды
Аудио: 48,0 КГц, AC3 Dolby Digital, 3/2 (L,C,R,l,r) + LFE ch, 448 kbps Профессиональный (многоголосый закадровый) 20 век Фокс | Blu-ray CEE
Аудио: 48,0 КГц, AC3 Dolby Digital, 3/2 (L,C,R,l,r) + LFE ch, 448 kbps Оригинальная аудиодорожка: английский
Видео
Идентификатор : 1
Формат : AVC
Формат/Информация : Advanced Video Codec
Профиль формата : High@L4.1
Настройки формата : CABAC / 4 Ref Frames
Параметр CABAC формата : Да
Параметр RefFrames формата : 4 кадра
Идентификатор кодека : V_MPEG4/ISO/AVC
Продолжительность : 1 ч. 53 м.
Максимальный битрейт : 62,5 Мбит/сек
Вид битрейта : Переменный
Переменный битрейт : 5500 Кбит/сек | 2500 Кбит/сек | 3500 Кбит/сек
Битрейт : 3500 Кбит/сек
Ширина : 1920 пикселей
Высота : 816 пикселей
Соотношение сторон : 2,35:1
Режим частоты кадров : Постоянный
Частота кадров : 23,976 (23976/1000) кадра/сек
Цветовое пространство : YUV
Субдискретизация насыщенности : 4:2:0
Битовая глубина : 8 бит
Тип развёртки : Прогрессивная
Бит/(Пиксели*Кадры) : 0.067
Размер потока : 1,99 Гбайт (70%)
Заголовок : Исходник: Blu-ray Disc | Автор рипа: Есмуханов Данияр Исламбекович | daniyar.esmuhanov
Библиотека кодирования : x264 core 148 r2597M e86f3a1
Настройки программы : cabac=1 / ref=4 / deblock=1:-1:-1 / analyse=0x3:0x113 / me=umh / subme=9 / psy=1 / psy_rd=1.00:0.15 / mixed_ref=1 / me_range=24 / chroma_me=1 / trellis=2 / 8x8dct=1 / cqm=0 / deadzone=21,11 / fast_pskip=1 / chroma_qp_offset=-3 / threads=32 / lookahead_threads=4 / sliced_threads=0 / nr=0 / decimate=1 / interlaced=0 / bluray_compat=0 / constrained_intra=0 / bframes=3 / b_pyramid=2 / b_adapt=2 / b_bias=0 / direct=3 / weightb=1 / open_gop=0 / weightp=2 / keyint=250 / keyint_min=25 / scenecut=40 / intra_refresh=0 / rc_lookahead=50 / rc=2pass / mbtree=1 / bitrate=3500 / ratetol=1.0 / qcomp=0.60 / qpmin=0 / qpmax=69 / qpstep=4 / cplxblur=20.0 / qblur=0.5 / vbv_maxrate=31250 / vbv_bufsize=31250 / nal_hrd=none / filler=0 / ip_ratio=1.40 / aq=3:1.00
Язык : English
Default : Да
Forced : Да

Аудио #1
Идентификатор : 2
Формат : AC-3
Формат/Информация : Audio Coding 3
Параметр Endianness формата : Big
Идентификатор кодека : A_AC3
Продолжительность : 1 ч. 53 м.
Вид битрейта : Постоянный
Битрейт : 192 Кбит/сек
Каналы : 2 канала
Расположение каналов : Front: L R
Частота : 48,0 КГц
Частота кадров : 31,250 кадров/сек (1536 SPF)
Битовая глубина : 16 бит
Метод сжатия : С потерями
Размер потока : 156 Мбайт (5%)
Заголовок : Профессиональный (дублированный) Советский + вставки MVO на вырезаные эпизоды
Язык : Russian
ServiceKind/String : Complete Main
Default : Да
Forced : Да

Аудио #2
Идентификатор : 3
Формат : AC-3
Формат/Информация : Audio Coding 3
Параметр Endianness формата : Big
Идентификатор кодека : A_AC3
Продолжительность : 1 ч. 53 м.
Вид битрейта : Постоянный
Битрейт : 448 Кбит/сек
Каналы : 6 каналов
Расположение каналов : Front: L C R, Side: L R, LFE
Частота : 48,0 КГц
Частота кадров : 31,250 кадров/сек (1536 SPF)
Битовая глубина : 16 бит
Метод сжатия : С потерями
Размер потока : 365 Мбайт (12%)
Заголовок : Профессиональный (многоголосый закадровый) 20 век Фокс | Blu-ray CEE
Язык : Russian
ServiceKind/String : Complete Main
Default : Нет
Forced : Нет

Аудио #3
Идентификатор : 4
Формат : AC-3
Формат/Информация : Audio Coding 3
Параметр Endianness формата : Big
Идентификатор кодека : A_AC3
Продолжительность : 1 ч. 53 м.
Вид битрейта : Постоянный
Битрейт : 448 Кбит/сек
Каналы : 6 каналов
Расположение каналов : Front: L C R, Side: L R, LFE
Частота : 48,0 КГц
Частота кадров : 31,250 кадров/сек (1536 SPF)
Битовая глубина : 16 бит
Метод сжатия : С потерями
Размер потока : 365 Мбайт (12%)
Язык : English
ServiceKind/String : Complete Main
Default : Нет
Forced : Нет

Текст #1
Идентификатор : 5
Формат : UTF-8
Идентификатор кодека : S_TEXT/UTF8
Идентификатор кодека/Информация : UTF-8 Plain Text
Продолжительность : 1 ч. 53 м.
Битрейт : 89 бит/сек
ElementCount : 1081
Размер потока : 74,2 Кбайт (0%)
Язык : Russian
Default : Нет
Forced : Нет

Текст #2
Идентификатор : 6
Формат : UTF-8
Идентификатор кодека : S_TEXT/UTF8
Идентификатор кодека/Информация : UTF-8 Plain Text
Продолжительность : 1 ч. 52 м.
Битрейт : 55 бит/сек
ElementCount : 1060
Размер потока : 45,5 Кбайт (0%)
Язык : English
Default : Нет
Forced : Нет














Rip by Есмуханов Данияр Исламбекович | daniyar.esmuhanov
Как качать, Как раздавать - Правила и инструкции
Торрент30 янв 2018, 19:04 [ 30 янв 2018, 19:04 ]

СКАЧАТЬ с просмотром рекламы
СтатусПроверен
.torrent скачан207 раз
Размер2.85 ГБ (3 063 352 969)

Скорость отдачи 100 кБ/с, стою на раздаче до появления 5-10 сидов.
Основа философии BitTorrent - "Скачал сам?! Дай скачать другим, не уходи с раздачи!!!".


bmira

Новичок
Новичок
 

Сообщения: 20

Зарегистрирован: 09 дек 2013, 21:24

Карма: -8

Сообщение bmira» 30 янв 2018, 19:41

Спасибо!Шикарный фильм.Не знаю,как он будет смотреться сейчас,но в свое время он произвел сильнейшее впечатление. Современным фильмам до него как до Луны пешком.

leonidg52

Аватара пользователя
Опытный пользователь
Опытный пользователь
 

Сообщения: 111

Зарегистрирован: 21 апр 2012, 22:03

Награды: 1
За 100 сообщений (1)
Карма: 16

Сообщение leonidg52» 31 янв 2018, 02:02

Отличный фильм! Ремейк 2006 года не идёт ни в какое сравнение с фильмом 1962 г.


Вернуться в Зарубежные фильмы до 2000го года...



Кто сейчас на конференции

Сейчас этот форум просматривают: нет зарегистрированных пользователей

Ресурс не предоставляет электронные версии произведений, а занимается лишь коллекционированием и каталогизацией ссылок, присылаемых и публикуемых на форуме нашими читателями. Если вы являетесь правообладателем какого-либо представленного материала и не желаете чтобы ссылка на него находилась в нашем каталоге, свяжитесь с нами и мы незамедлительно удалим её. Файлы для обмена на трекере предоставлены пользователями сайта, и администрация не несёт ответственности за их содержание. Просьба не заливать файлы, защищенные авторскими правами, а также файлы нелегального содержания!