Жена астронавта / The Astronaut's Wife [1999, фантастика, триллер, драма, BDRip 1080р] D, Р - Скачать торрент бесплатно

Модераторы: Модераторы Фильмы, мультфильмы, Союз Риперов

Поделиться ВКонтакте Поделиться Facebook Поделиться Twitter Поделиться Mail.RU
АвторСообщение
Download more
Аватара пользователя
Модератор Фильмов
Модератор Фильмов
 
Раздал: 30.59 ГБ
Скачал: 137.28 ГБ
Ратио: 0.263
Сообщения: 527
Зарегистрирован: 19 ноя 2016, 16:36
Откуда: г. Астана, Казахстан
Награды: 6
За 100 сообщений (1) За 500 сообщений (1) 250 релизов (1) За 2000 полученных спасибо (1) 30 рипов (1) 200 кармы (1)
Карма: 313
-2--2-

Сообщение Download more » 11 фев 2018, 17:17

Жена астронавта / The Astronaut's Wife [1999, фантастика, триллер, драма, BDRip 1080р] D, Р - Скачать торрент

Название: Жена астронавта
Оригинальное название: /The Astronaut's Wife
Год выхода: 1999
Жанр: фантастика, триллер, драма
Режиссер: Рэнд Рэвич
В ролях: :Джонни Депп, Шарлиз Терон, Джо Мортон, Клеа Дюваль, Донна Мерфи, Ник Кассаветис, Саманта Эггар, Гэри Граббс, Блэр Браун, Том Нунен

О фильме: Находясь в открытом космосе, астронавт Спенсер Армакост на несколько минут потерял связь с Землей. Но все обошлось, и экипажу удалось вернуться назад.

Но вскоре Джиллиан, жена Спенсера, начинает подозревать, что ее муж стал другим. И если прежде она тревожилась за его жизнь, то теперь стала бояться за свою.



Выпущено: США
Продолжительность: 01:49:09
Озвучивание: Профессиональный (полное дублирование), Профессиональный (многоголосый закадровый)
Субтитры: UTF-8 русские, английские

Файл
Формат: MKV
Качество: BDRip 1080р
Видео: 1920x1080, MPEG4/AVC, High@L4, 23,976 (24000/1001) кадра/сек, ~3872 Кбит/сек
Аудио: 48,0 КГц, AC3 Dolby Digital, 3/2 (L,C,R,l,r) + LFE ch, 448 kbps Профессиональный (полное дублирование) West Video | Blu-ray CEE
Аудио: 48,0 КГц, AC3 Dolby Digital, 3/2 (L,C,R,l,r) + LFE ch, 448 kbps Профессиональный (многоголосый закадровый) CP Digital
Аудио: 48,0 КГц, AC3 Dolby Digital, 2 канала, 192 Кбит/сек Профессиональный (многоголосый закадровый) SDI Media
Аудио: 48,0 КГц, AC3 Dolby Digital, 3/2 (L,C,R,l,r) + LFE ch, 448 kbps Оригинальная аудиодорожка: английский
Общее
Уникальный идентификатор : 184554127634750741571869181635487996659 (0x8AD7D50302F6C55E9810C9E963BA1AF3)
Полное имя : D:\Данияр\Раздача\The Astronaut's Wife.daniyar.esmuhanov\Жена астронавта (фантастика, триллер, драма) 1999.mkv
Формат : Matroska
Версия формата : Version 4 / Version 2
Размер файла : 2,60 Гбайт
Продолжительность : 1 ч. 49 м.
Название фильма : Исходник: Blu-ray Disc | Автор рипа: Есмуханов Данияр Исламбекович | daniyar.esmuhanov
Программа кодирования : mkvmerge v8.3.0 ('Over the Horizon') 64bit
Библиотека кодирования : libebml v1.3.1 + libmatroska v1.4.2

Видео
Идентификатор : 1
Формат : AVC
Формат/Информация : Advanced Video Codec
Профиль формата : High@L4
Настройки формата : CABAC / 4 Ref Frames
Параметр CABAC формата : Да
Параметр RefFrames формата : 4 кадра
Идентификатор кодека : V_MPEG4/ISO/AVC
Продолжительность : 1 ч. 49 м.
Максимальный битрейт : 62,5 Мбит/сек
Вид битрейта : Переменный
Переменный битрейт : 5872 Кбит/сек | 1872 Кбит/сек | 3872 Кбит/сек
Битрейт : 3872 Кбит/сек
Ширина : 1920 пикселей
Высота : 1080 пикселей
Соотношение сторон : 16:9
Режим частоты кадров : Постоянный
Частота кадров : 23,976 (24000/1001) кадра/сек
Цветовое пространство : YUV
Субдискретизация насыщенности : 4:2:0
Битовая глубина : 8 бит
Тип развёртки : Прогрессивная
Бит/(Пиксели*Кадры) : 0.038
Размер потока : 1,43 Гбайт (55%)
Заголовок : Исходник: Blu-ray Disc | Автор рипа: Есмуханов Данияр Исламбекович | daniyar.esmuhanov
Библиотека кодирования : x264 core 125 r2200 999b753
Настройки программы : cabac=1 / ref=3 / deblock=1:0:0 / analyse=0x3:0x113 / me=hex / subme=7 / psy=1 / psy_rd=1.00:0.00 / mixed_ref=1 / me_range=16 / chroma_me=1 / trellis=1 / 8x8dct=1 / cqm=0 / deadzone=21,11 / fast_pskip=1 / chroma_qp_offset=-2 / threads=12 / lookahead_threads=2 / sliced_threads=0 / nr=0 / decimate=1 / interlaced=0 / bluray_compat=0 / constrained_intra=0 / bframes=3 / b_pyramid=2 / b_adapt=1 / b_bias=0 / direct=1 / weightb=1 / open_gop=0 / weightp=2 / keyint=240 / keyint_min=23 / scenecut=40 / intra_refresh=0 / rc_lookahead=40 / rc=2pass / mbtree=1 / bitrate=3872 / ratetol=1.0 / qcomp=0.60 / qpmin=10 / qpmax=51 / qpstep=4 / cplxblur=20.0 / qblur=0.5 / ip_ratio=1.40 / aq=1:1.00
Язык : English
Default : Да
Forced : Да

Аудио #1
Идентификатор : 2
Формат : AC-3
Формат/Информация : Audio Coding 3
Параметр Endianness формата : Big
Идентификатор кодека : A_AC3
Продолжительность : 1 ч. 49 м.
Вид битрейта : Постоянный
Битрейт : 448 Кбит/сек
Каналы : 6 каналов
Расположение каналов : Front: L C R, Side: L R, LFE
Частота : 48,0 КГц
Частота кадров : 31,250 кадров/сек (1536 SPF)
Битовая глубина : 16 бит
Метод сжатия : С потерями
Размер потока : 350 Мбайт (13%)
Заголовок : Профессиональный (полное дублирование) West Video | Blu-ray CEE
Язык : Russian
ServiceKind/String : Complete Main
Default : Да
Forced : Да

Аудио #2
Идентификатор : 3
Формат : AC-3
Формат/Информация : Audio Coding 3
Параметр Endianness формата : Big
Идентификатор кодека : A_AC3
Продолжительность : 1 ч. 49 м.
Вид битрейта : Постоянный
Битрейт : 448 Кбит/сек
Каналы : 6 каналов
Расположение каналов : Front: L C R, Side: L R, LFE
Частота : 48,0 КГц
Частота кадров : 31,250 кадров/сек (1536 SPF)
Битовая глубина : 16 бит
Метод сжатия : С потерями
Размер потока : 350 Мбайт (13%)
Заголовок : Профессиональный (многоголосый закадровый) CP Digital
Язык : Russian
ServiceKind/String : Complete Main
Default : Нет
Forced : Нет

Аудио #3
Идентификатор : 4
Формат : AC-3
Формат/Информация : Audio Coding 3
Параметр Endianness формата : Big
Идентификатор кодека : A_AC3
Продолжительность : 1 ч. 49 м.
Вид битрейта : Постоянный
Битрейт : 192 Кбит/сек
Каналы : 2 канала
Расположение каналов : Front: L R
Частота : 48,0 КГц
Частота кадров : 31,250 кадров/сек (1536 SPF)
Битовая глубина : 16 бит
Метод сжатия : С потерями
Размер потока : 150 Мбайт (6%)
Заголовок : Профессиональный (многоголосый закадровый) SDI Media
Язык : Russian
ServiceKind/String : Complete Main
Default : Нет
Forced : Нет

Аудио #4
Идентификатор : 5
Формат : AC-3
Формат/Информация : Audio Coding 3
Параметр Endianness формата : Big
Идентификатор кодека : A_AC3
Продолжительность : 1 ч. 49 м.
Вид битрейта : Постоянный
Битрейт : 448 Кбит/сек
Каналы : 6 каналов
Расположение каналов : Front: L C R, Side: L R, LFE
Частота : 48,0 КГц
Частота кадров : 31,250 кадров/сек (1536 SPF)
Битовая глубина : 16 бит
Метод сжатия : С потерями
Размер потока : 350 Мбайт (13%)
Язык : English
ServiceKind/String : Complete Main
Default : Нет
Forced : Нет

Текст #1
Идентификатор : 6
Формат : UTF-8
Идентификатор кодека : S_TEXT/UTF8
Идентификатор кодека/Информация : UTF-8 Plain Text
Продолжительность : 1 ч. 42 м.
Битрейт : 69 бит/сек
ElementCount : 1000
Размер потока : 52,2 Кбайт (0%)
Язык : Russian
Default : Нет
Forced : Нет

Текст #2
Идентификатор : 7
Формат : UTF-8
Идентификатор кодека : S_TEXT/UTF8
Идентификатор кодека/Информация : UTF-8 Plain Text
Продолжительность : 1 ч. 41 м.
Битрейт : 51 бит/сек
ElementCount : 1268
Размер потока : 38,1 Кбайт (0%)
Язык : English
Default : Нет
Forced : Нет

Меню
00:00:00.000 : en:00:00:00.000
00:04:23.513 : en:00:04:23.513
00:08:36.307 : en:00:08:36.307
00:12:30.750 : en:00:12:30.750
00:16:50.009 : en:00:16:50.009
00:21:50.434 : en:00:21:50.434
00:25:10.509 : en:00:25:10.509
00:32:56.599 : en:00:32:56.599
00:35:46.644 : en:00:35:46.644
00:38:42.194 : en:00:38:42.194
00:42:10.527 : en:00:42:10.527
00:50:05.585 : en:00:50:05.585
00:59:01.412 : en:00:59:01.412
01:02:08.433 : en:01:02:08.433
01:17:23.847 : en:01:17:23.847
01:22:10.926 : en:01:22:10.926
01:28:05.530 : en:01:28:05.530
01:34:47.681 : en:01:34:47.681
01:41:06.477 : en:01:41:06.477







Rip by Есмуханов Данияр Исламбекович | daniyar.esmuhanov
Как качать, Как раздавать - Правила и инструкции
Торрент11 фев 2018, 17:19 [ 11 фев 2018, 17:19 ]

СКАЧАТЬ с просмотром рекламы
СтатусПроверен Download more
.torrent скачан24 раз
Размер2.6 ГБ (2 790 973 621)

Скорость отдачи 100 кБ/с, стою на раздаче до появления 5-10 сидов.
Основа философии BitTorrent - "Скачал сам?! Дай скачать другим, не уходи с раздачи!!!".


Вернуться в Зарубежные фильмы до 2000го года...



Кто сейчас на конференции

Сейчас этот форум просматривают: нет зарегистрированных пользователей

Ресурс не предоставляет электронные версии произведений, а занимается лишь коллекционированием и каталогизацией ссылок, присылаемых и публикуемых на форуме нашими читателями. Если вы являетесь правообладателем какого-либо представленного материала и не желаете чтобы ссылка на него находилась в нашем каталоге, свяжитесь с нами и мы незамедлительно удалим её. Файлы для обмена на трекере предоставлены пользователями сайта, и администрация не несёт ответственности за их содержание. Просьба не заливать файлы, защищенные авторскими правами, а также файлы нелегального содержания!