Луи, король - дитя / Louis, enfant roi [1993, Драма, военный, биография, история, WEB-DL 720p | ГТРК "Культура"] - Скачать торрент бесплатно

Модераторы: Модераторы Фильмы, мультфильмы, Союз Риперов

Поделиться ВКонтакте Поделиться Facebook Поделиться Twitter Поделиться Mail.RU
АвторСообщение
vamo
Аватара пользователя
Модератор Фильмов
Модератор Фильмов
 
Раздал: 439.24 ТБ
Скачал: 52.89 ТБ
Ратио: 88.752
Сообщения: 3080
Зарегистрирован: 06 май 2012, 09:02
Награды: 25
За 100 сообщений (1) За 500 сообщений (1) За 1000 сообщений (1) За 1500 сообщений (1) За 2000 сообщений (1) 5 Тб отданного (1) 10 Тб отданного (1) 15 Тб отданного (1) 20 Тб отданного (1) 30 Тб отданного (1) 10 Тб скаченного (1) 15 Тб скаченного (1) 20 Тб скаченного (1) 30 Тб скаченного (1) 50 Тб скаченного (1) 250 релизов (1) 500 релизов (1) За 2000 полученных спасибо (1) За 4000 полученных спасибо (1) За 8000 полученных спасибо (1) За 10000 полученных спасибо (1) За 15000 полученных спасибо (1) 200 кармы (1) 500 кармы (1) 1000 кармы (1)

Сообщение vamo » 27 янв 2022, 06:15

Луи, король - дитя / Louis, enfant roi [1993, Драма, военный, биография, история, WEB-DL 720p | ГТРК "Культура"] - Скачать торрент

Информация о фильме
Название: Луи, король - дитя
Оригинальное название: Louis, enfant roi
Год выхода: 1993
Жанр: Драма, военный, биография, история
Режиссер: Роже Планшон

В ролях: Кармен Маура, Максим Мэншен, Паоло Грациози, Жослин Киврен, Эрве Брио, Бриджитт Катийон, Ирина Далле, Серж Дюпер, Изабелль Желина, Мишель Ларок…

О фильме: История любви и ненависти, верности и предательства, войны и примирения. На период взросления юного короля Людовика XIV пришлись непростые времена для Франции - делами заправляли его мать Анна Австрийская и кардинал Мазарини. С раннего детства молодому «Королю-Солнце» пришлось проявлять свои лучшие качества - хитроумие, расчетливость и отвагу.



Выпущено: Франция / Avanti Films S.A., Canal+ [fr], Centre National de la Cinématographie (CNC) и др.
Продолжительность: 02:42:24
Перевод: Профессиональный (многоголосый закадровый) ГТРК "Культура"

Файл
Качество: WEB-DL 720p
Формат: MKV
Видео: MPEG-4 AVC/H.264, 3231 Кбит/сек, 1280x536
Аудио #1: Русский: AC3, 2 ch, 192 Кбит/сек
Аудио #2: Французский: AC3, 2 ch, 192 Кбит/сек
Субтитры: нет

Общее
Уникальный идентификатор : 33682455652125246489186300620487070202 (0x195701474AF7268F594F68EE4A5511FA)
Полное имя : F:\1.ФИЛЬМЫ\01. ФИЛЬМЫ\Луи, король-дитя Louis, enfant roi (1993)\Lui, korol - ditya Louis, enfant roi (1993) WEB-DL 720p.mkv
Формат : Matroska
Версия формата : Version 4
Размер файла : 4,03 Гбайт
Продолжительность : 2 ч. 42 м.
Режим общего битрейта : Переменный
Общий поток : 3 553 Кбит/сек
Дата кодирования : UTC 2022-01-26 20:32:39
Программа кодирования : mkvmerge v64.0.0 ('Willows') 64-bit
Библиотека кодирования : libebml v1.4.2 + libmatroska v1.6.4

Видео
Идентификатор : 1
Формат : AVC
Формат/Информация : Advanced Video Codec
Профиль формата : High@L4.1
Настройки формата : CABAC / 2 Ref Frames
Параметр CABAC формата : Да
Параметр RefFrames формата : 2 кадра
Идентификатор кодека : V_MPEG4/ISO/AVC
Продолжительность : 2 ч. 42 м.
Вид битрейта : Переменный
Битрейт : 3 231 Кбит/сек
Максимальный битрейт : 9 660 Кбит/сек
Ширина : 1 280 пикселей
Высота : 536 пикселей
Соотношение сторон : 2,40:1
Режим частоты кадров : Постоянный
Частота кадров : 24,000 кадра/сек
Цветовое пространство : YUV
Субдискретизация насыщенности : 4:2:0
Битовая глубина : 8 бит
Тип развёртки : Прогрессивная
Бит/(Пиксели*Кадры) : 0.196
Размер потока : 3,66 Гбайт (91%)
Заголовок : France (Avanti Films S.A., Canal+ [fr], Center National de la Cinematographie (CNC), etc.)
Язык : French
Default : Да
Forced : Нет
Цветовой диапазон : Limited
Основные цвета : BT.709
Характеристики трансфера : BT.709
Коэффициенты матрицы : BT.709

Аудио #1
Идентификатор : 2
Формат : AC-3
Формат/Информация : Audio Coding 3
Коммерческое название : Dolby Digital
Идентификатор кодека : A_AC3
Продолжительность : 2 ч. 42 м.
Вид битрейта : Постоянный
Битрейт : 192 Кбит/сек
Каналы : 2 канала
Channel layout : L R
Частота : 48,0 КГц
Частота кадров : 31,250 кадров/сек (1536 SPF)
Метод сжатия : С потерями
Размер потока : 223 Мбайт (5%)
Заголовок : MVO (GTRK "Culture")
Язык : Russian
Service kind : Complete Main
Default : Да
Forced : Нет

Аудио #2
Идентификатор : 3
Формат : AAC LC
Формат/Информация : Advanced Audio Codec Low Complexity
Идентификатор кодека : A_AAC-2
Продолжительность : 2 ч. 42 м.
Битрейт : 128 Кбит/сек
Каналы : 2 канала
Channel layout : L R
Частота : 48,0 КГц
Частота кадров : 46,875 кадров/сек (1024 SPF)
Метод сжатия : С потерями
Размер потока : 149 Мбайт (4%)
Заголовок : Original (French)
Язык : French
Default : Нет
Forced : Нет



Как качать, Как раздавать - Правила и инструкции
Торрент27 янв 2022, 06:15 [ 27 янв 2022, 06:15 ]

СКАЧАТЬ с просмотром рекламы
СтатусПроверен
.torrent скачан0 раз
Размер4.03 ГБ (4 327 034 309)

Вернуться в Зарубежные фильмы до 2000го года...

Кто сейчас на конференции

Сейчас этот форум просматривают: нет зарегистрированных пользователей

Ресурс не предоставляет электронные версии произведений, а занимается лишь коллекционированием и каталогизацией ссылок, присылаемых и публикуемых на форуме нашими читателями. Если вы являетесь правообладателем какого-либо представленного материала и не желаете чтобы ссылка на него находилась в нашем каталоге, свяжитесь с нами и мы незамедлительно удалим её. Файлы для обмена на трекере предоставлены пользователями сайта, и администрация не несёт ответственности за их содержание. Просьба не заливать файлы, защищенные авторскими правами, а также файлы нелегального содержания!