Нечего терять / Nothing to Lose [1997, боевик, комедия, криминал, приключения, BDRip 1080р] - Скачать торрент бесплатно

Модераторы: Модераторы Фильмы, мультфильмы, Союз Риперов

Поделиться ВКонтакте Поделиться Facebook Поделиться Twitter Поделиться Mail.RU
АвторСообщение
Download more
Аватара пользователя
Модератор Фильмов
Модератор Фильмов
 
Раздал: 57.33 ТБ
Скачал: 19.23 ТБ
Ратио: 496.888
Сообщения: 942
Зарегистрирован: 19 ноя 2016, 16:36
Откуда: г. Астана, Казахстан Рипер: daniyar.esmuhanov Есмуханов Данияр Исламбекович
Награды: 18
За 100 сообщений (1) За 500 сообщений (1) 5 Тб отданного (1) 10 Тб отданного (1) 15 Тб отданного (1) 20 Тб отданного (1) 30 Тб отданного (1) 10 Тб скаченного (1) 250 релизов (1) 500 релизов (1) За 2000 полученных спасибо (1) За 4000 полученных спасибо (1) 30 рипов (1) 50 рипов (1) 200 кармы (1) 500 кармы (1) 1000 кармы (1) Халява №3 (1)
Карма: 1127
-2--2--2--2--2--2-

Сообщение Download more » 10 авг 2018, 20:38

Нечего терять / Nothing to Lose [1997, боевик, комедия, криминал, приключения, BDRip 1080р] - Скачать торрент

Название: Нечего терять
Оригинальное название: Nothing to Lose
Год выхода: 1997
Жанр: боевик, комедия, криминал, приключения
Режиссер: Стив Одекерк
В ролях: Мартин Лоуренс, Тим Роббинс, Джон К. МакГинли, Джанкарло Эспозито, Келли Престон, Майкл МакКин, Ребекка Гэйхарт, Сьюзэн Барнс, Ирма П. Холл, Самариа Грэхэм

О фильме: Рекламный агент Ник Бим, которому нечего терять… кроме своей обожаемой жены, застает ее в постели с собственным начальником. Доведенный до отчаяния, он садится в машину и уезжает куда глаза глядят.

Но неприятности для него только начинаются, ведь в этот момент другой неудачник выходит на большую дорогу в поисках жертвы. А на горизонте как раз показался автомобиль Ника.



Выпущено: США
Продолжительность: 01:37:58
Озвучивание: Профессиональный (полное дублирование), Профессиональный (многоголосый закадровый), Авторский (одноголосый закадровый)
Субтитры: русские, английские

Rip by Есмуханов Данияр Исламбекович | daniyar.esmuhanov

Файл
Формат: MKV
Качество: BDRip 1080р
Видео:1916x1076, MPEG4/AVC, High@L5, 23,976 (24000/1001) кадра/сек, ~3971 Кбит/сек
Аудио:48,0 КГц, AC3 Dolby Digital, 3/2 (L,C,R,l,r) + LFE ch, 448 kbps Авторский (одноголосый закадровый) В.Котов
Аудио:48,0 КГц, AC3, 2 ch, 192 kbps Профессиональный (полное дублирование) VHS-Кинотеатральный дубляж Нева 1
Аудио:48,0 КГц, AC3, 2 ch, 192 kbps Профессиональный (многоголосый закадровый) СТС
Аудио:48,0 КГц, AC3 Dolby Digital, 3/2 (L,C,R,l,r) + LFE ch, 448 kbps Оригинальная аудиодорожка: английский
Общее
Уникальный идентификатор : 220290308640687493548896951957362160478 (0xA5BA5EC4924367FCA4C9F68DAA59B35E)
Полное имя : D:\Данияр\Раздача\Nothing to Lose.daniyar.esmuhanov\Нечего терять (боевик, комедия, криминал, приключения) 1997.mkv
Формат : Matroska
Версия формата : Version 4 / Version 2
Размер файла : 2,23 Гбайт
Продолжительность : 1 ч. 37 м.
Название фильма : Исходник: Blu-ray Disc | Автор рипа: Есмуханов Данияр Исламбекович | daniyar.esmuhanov
Программа кодирования : mkvmerge v8.3.0 ('Over the Horizon') 64bit
Библиотека кодирования : libebml v1.3.1 + libmatroska v1.4.2

Видео
Идентификатор : 1
Формат : AVC
Формат/Информация : Advanced Video Codec
Профиль формата : High@L5
Настройки формата : CABAC / 5 Ref Frames
Параметр CABAC формата : Да
Параметр RefFrames формата : 5 кадров
Идентификатор кодека : V_MPEG4/ISO/AVC
Продолжительность : 1 ч. 37 м.
Вид битрейта : Переменный
Переменный битрейт : 62,5 Мбит/сек | 1971 Кбит/сек | 3971 Кбит/сек
Битрейт : 3971 Кбит/сек
Ширина : 1916 пикселей
Высота : 1076 пикселей
Соотношение сторон : 16:9
Режим частоты кадров : Постоянный
Частота кадров : 23,976 (24000/1001) кадра/сек
Цветовое пространство : YUV
Субдискретизация насыщенности : 4:2:0
Битовая глубина : 8 бит
Тип развёртки : Прогрессивная
Бит/(Пиксели*Кадры) : 0.040
Размер потока : 1,35 Гбайт (61%)
Заголовок : Исходник: Blu-ray Disc | Автор рипа: Есмуханов Данияр Исламбекович | daniyar.esmuhanov
Библиотека кодирования : x264 core 142 r2431 ac76440
Настройки программы : cabac=1 / ref=5 / deblock=1:0:0 / analyse=0x3:0x113 / me=umh / subme=7 / psy=1 / psy_rd=1.00:0.00 / mixed_ref=1 / me_range=16 / chroma_me=1 / trellis=1 / 8x8dct=1 / cqm=0 / deadzone=21,11 / fast_pskip=1 / chroma_qp_offset=-2 / threads=36 / lookahead_threads=6 / sliced_threads=0 / nr=0 / decimate=1 / interlaced=0 / bluray_compat=0 / constrained_intra=0 / bframes=3 / b_pyramid=2 / b_adapt=1 / b_bias=0 / direct=3 / weightb=1 / open_gop=0 / weightp=2 / keyint=240 / keyint_min=23 / scenecut=40 / intra_refresh=0 / rc_lookahead=40 / rc=2pass / mbtree=1 / bitrate=3971 / ratetol=1.0 / qcomp=0.60 / qpmin=10 / qpmax=51 / qpstep=4 / cplxblur=20.0 / qblur=0.5 / ip_ratio=1.40 / aq=2:1.00
Язык : English
Default : Да
Forced : Да

Аудио #1
Идентификатор : 2
Формат : AC-3
Формат/Информация : Audio Coding 3
Идентификатор кодека : A_AC3
Продолжительность : 1 ч. 37 м.
Вид битрейта : Постоянный
Битрейт : 448 Кбит/сек
Каналы : 6 каналов
Расположение каналов : Front: L C R, Side: L R, LFE
Частота : 48,0 КГц
Частота кадров : 31,250 кадров/сек (1536 SPF)
Битовая глубина : 16 бит
Метод сжатия : С потерями
Размер потока : 314 Мбайт (14%)
Заголовок : Авторский (одноголосый закадровый) В.Котов
Язык : Russian
ServiceKind/String : Complete Main
Default : Да
Forced : Да

Аудио #2
Идентификатор : 3
Формат : AC-3
Формат/Информация : Audio Coding 3
Идентификатор кодека : A_AC3
Продолжительность : 1 ч. 37 м.
Вид битрейта : Постоянный
Битрейт : 192 Кбит/сек
Каналы : 2 канала
Расположение каналов : Front: L R
Частота : 48,0 КГц
Частота кадров : 31,250 кадров/сек (1536 SPF)
Битовая глубина : 16 бит
Метод сжатия : С потерями
Размер потока : 135 Мбайт (6%)
Заголовок : Профессиональный (полное дублирование) VHS-Кинотеатральный дубляж Нева 1
Язык : Russian
ServiceKind/String : Complete Main
Default : Нет
Forced : Нет

Аудио #3
Идентификатор : 4
Формат : AC-3
Формат/Информация : Audio Coding 3
Идентификатор кодека : A_AC3
Продолжительность : 1 ч. 37 м.
Вид битрейта : Постоянный
Битрейт : 192 Кбит/сек
Каналы : 2 канала
Расположение каналов : Front: L R
Частота : 48,0 КГц
Частота кадров : 31,250 кадров/сек (1536 SPF)
Битовая глубина : 16 бит
Метод сжатия : С потерями
Размер потока : 135 Мбайт (6%)
Заголовок : Профессиональный (многоголосый закадровый) СТС
Язык : Russian
ServiceKind/String : Complete Main
Default : Нет
Forced : Нет

Аудио #4
Идентификатор : 5
Формат : AC-3
Формат/Информация : Audio Coding 3
Идентификатор кодека : A_AC3
Продолжительность : 1 ч. 37 м.
Вид битрейта : Постоянный
Битрейт : 448 Кбит/сек
Каналы : 6 каналов
Расположение каналов : Front: L C R, Side: L R, LFE
Частота : 48,0 КГц
Частота кадров : 31,250 кадров/сек (1536 SPF)
Битовая глубина : 16 бит
Метод сжатия : С потерями
Размер потока : 314 Мбайт (14%)
Язык : English
ServiceKind/String : Complete Main
Default : Нет
Forced : Нет

Текст #1
Идентификатор : 6
Формат : UTF-8
Идентификатор кодека : S_TEXT/UTF8
Идентификатор кодека/Информация : UTF-8 Plain Text
Продолжительность : 1 ч. 37 м.
Битрейт : 76 бит/сек
ElementCount : 997
Размер потока : 54,9 Кбайт (0%)
Язык : Russian
Default : Нет
Forced : Нет

Текст #2
Идентификатор : 7
Формат : UTF-8
Идентификатор кодека : S_TEXT/UTF8
Идентификатор кодека/Информация : UTF-8 Plain Text
Продолжительность : 1 ч. 36 м.
Битрейт : 68 бит/сек
ElementCount : 1201
Размер потока : 48,5 Кбайт (0%)
Язык : English
Default : Нет
Forced : Нет





Как качать, Как раздавать - Правила и инструкции
Торрент10 авг 2018, 20:38 [ 10 авг 2018, 20:38 ]

СКАЧАТЬ с просмотром рекламы
СтатусПроверен Download more
.torrent скачан214 раз
Размер2.23 ГБ (2 390 778 148)

Скачал сам?! Дай скачать другим, не уходи с раздачи!!!

Вернуться в Зарубежные фильмы до 2000го года...



Кто сейчас на конференции

Сейчас этот форум просматривают: нет зарегистрированных пользователей

Ресурс не предоставляет электронные версии произведений, а занимается лишь коллекционированием и каталогизацией ссылок, присылаемых и публикуемых на форуме нашими читателями. Если вы являетесь правообладателем какого-либо представленного материала и не желаете чтобы ссылка на него находилась в нашем каталоге, свяжитесь с нами и мы незамедлительно удалим её. Файлы для обмена на трекере предоставлены пользователями сайта, и администрация не несёт ответственности за их содержание. Просьба не заливать файлы, защищенные авторскими правами, а также файлы нелегального содержания!