Полицейская академия 6: Город в осаде / Police Academy 6: City Under Siege [1989, комедия, криминал, BDRip 1080р] | D, Р, Р2 - Скачать торрент бесплатно

Модераторы: Модераторы Фильмы, мультфильмы, Союз Риперов

Поделиться ВКонтакте Поделиться Facebook Поделиться Twitter Поделиться Mail.RU
АвторСообщение
Download more
Аватара пользователя
Модератор Фильмов
Модератор Фильмов
 
Раздал: 40.01 ТБ
Скачал: 14.38 ТБ
Ратио: 288.188
Сообщения: 773
Зарегистрирован: 19 ноя 2016, 16:36
Откуда: г. Астана, Казахстан Encoded by daniyar.esmuhanov
Награды: 15
За 100 сообщений (1) За 500 сообщений (1) 5 Тб отданного (1) 10 Тб отданного (1) 15 Тб отданного (1) 20 Тб отданного (1) 30 Тб отданного (1) 250 релизов (1) За 2000 полученных спасибо (1) За 4000 полученных спасибо (1) 30 рипов (1) 50 рипов (1) 200 кармы (1) 500 кармы (1) Халява №3 (1)
Карма: 810
-2--2--2--2--2-

Сообщение Download more » 12 июл 2018, 20:54

Полицейская академия 6: Город в осаде / Police Academy 6: City Under Siege [1989, комедия, криминал, BDRip 1080р] | D, Р, Р2 - Скачать торрент

Название: Полицейская академия 6: Город в осаде
Оригинальное название: Police Academy 6: City Under Siege
Год выхода: 1989
Жанр: комедия, криминал
Режиссер: Питер Бонерз
В ролях: Бубба Смит, Дэвид Граф, Майкл Уинслоу, Лесли Истербрук, Мэрион Рэмси, Лэнс Кинси, Мэтт МакКой, Брюс Малер, Дж. У. Бейли, Джордж Гейнс

О фильме: Вспышка криминальной активности под кодовым названием «Операция Хаос» может потребовать занавеса для ничего не подозревающего города. Лучшие полицейские специалисты из знаменитой Полицейской Академии взялись за дело.



Выпущено: США
Продолжительность: 01:23:55
Озвучивание: Профессиональный (полное дублирование), Профессиональный (многоголосый закадровый), Профессиональный (двухголосый закадровый)
Субтитры: английские

Rip by Есмуханов Данияр Исламбекович | daniyar.esmuhanov

Файл
Формат: MKV
Качество: BDRip 1080р
Видео: 1920x1072, MPEG4/AVC, High@L4.1, 23,976 (24000/1001) кадра/сек, ~3050 Кбит/сек
Аудио:48,0 КГц, AC3, 2 ch, 192 kbps Профессиональный (полное дублирование) Варус Видео
Аудио:48,0 КГц, AC3, 2 ch, 192 kbps Профессиональный (двухголосый закадровый) НТВ
Аудио:48,0 КГц, AC3, 2 ch, 192 kbps Профессиональный (многоголосый закадровый) Карусель
Аудио:48,0 КГц, AC3, 2 ch, 192 kbps Профессиональный (многоголосый закадровый) Лазер Видео | VHS
Аудио:48,0 КГц, AC3, 2 ch, 192 kbps Оригинальная аудиодорожка: английский
Общее
Уникальный идентификатор : 210987072007438010421458258714277678505 (0x9EBAA1C9D1CA54F59BB4D3D82F738DA9)
Полное имя : D:\Данияр\Раздача\Police Academy 6 City Under Siege.daniyar.esmuhanov\Полицейская академия 6 Город в осаде (комедия, криминал) 1989.mkv
Формат : Matroska
Версия формата : Version 4 / Version 2
Размер файла : 1,77 Гбайт
Продолжительность : 1 ч. 23 м.
Название фильма : Исходник: Blu-ray Disc | Автор рипа: Есмуханов Данияр Исламбекович | daniyar.esmuhanov
Программа кодирования : mkvmerge v8.3.0 ('Over the Horizon') 64bit
Библиотека кодирования : libebml v1.3.1 + libmatroska v1.4.2

Видео
Идентификатор : 1
Формат : AVC
Формат/Информация : Advanced Video Codec
Профиль формата : High@L4.1
Настройки формата : CABAC / 4 Ref Frames
Параметр CABAC формата : Да
Параметр RefFrames формата : 4 кадра
Идентификатор кодека : V_MPEG4/ISO/AVC
Продолжительность : 1 ч. 23 м.
Вид битрейта : Переменный
Переменный битрейт : 62,5 Мбит/сек | 2050 Кбит/сек | 3050 Кбит/сек
Битрейт : 3050 Кбит/сек
Ширина : 1920 пикселей
Высота : 1072 пикселя
Соотношение сторон : 16:9
Режим частоты кадров : Постоянный
Частота кадров : 23,976 кадра/сек
Цветовое пространство : YUV
Субдискретизация насыщенности : 4:2:0
Битовая глубина : 8 бит
Тип развёртки : Прогрессивная
Бит/(Пиксели*Кадры) : 0.042
Размер потока : 1,20 Гбайт (68%)
Заголовок : Исходник: Blu-ray Disc | Автор рипа: Есмуханов Данияр Исламбекович | daniyar.esmuhanov
Библиотека кодирования : x264 core 148
Настройки программы : cabac=1 / ref=4 / deblock=1:-1:-1 / analyse=0x3:0x133 / me=umh / subme=9 / psy=1 / psy_rd=1.00:0.15 / mixed_ref=1 / me_range=24 / chroma_me=1 / trellis=2 / 8x8dct=1 / cqm=0 / deadzone=21,11 / fast_pskip=0 / chroma_qp_offset=-3 / threads=12 / lookahead_threads=1 / sliced_threads=0 / nr=0 / decimate=1 / interlaced=0 / bluray_compat=0 / constrained_intra=0 / bframes=3 / b_pyramid=2 / b_adapt=2 / b_bias=0 / direct=3 / weightb=1 / open_gop=0 / weightp=2 / keyint=250 / keyint_min=23 / scenecut=40 / intra_refresh=0 / rc_lookahead=60 / rc=2pass / mbtree=1 / bitrate=3050 / ratetol=1.0 / qcomp=0.60 / qpmin=0 / qpmax=69 / qpstep=4 / cplxblur=20.0 / qblur=0.5 / vbv_maxrate=31250 / vbv_bufsize=31250 / nal_hrd=none / filler=0 / ip_ratio=1.40 / aq=1:1.00
Язык : English
Default : Да
Forced : Да

Аудио #1
Идентификатор : 2
Формат : AC-3
Формат/Информация : Audio Coding 3
Идентификатор кодека : A_AC3
Продолжительность : 1 ч. 23 м.
Вид битрейта : Постоянный
Битрейт : 192 Кбит/сек
Каналы : 2 канала
Расположение каналов : Front: L R
Частота : 48,0 КГц
Частота кадров : 31,250 кадров/сек (1536 SPF)
Битовая глубина : 16 бит
Метод сжатия : С потерями
Размер потока : 115 Мбайт (6%)
Заголовок : Профессиональный (полное дублирование) Варус Видео
Язык : Russian
ServiceKind/String : Complete Main
Default : Да
Forced : Да

Аудио #2
Идентификатор : 3
Формат : AC-3
Формат/Информация : Audio Coding 3
Идентификатор кодека : A_AC3
Продолжительность : 1 ч. 23 м.
Вид битрейта : Постоянный
Битрейт : 192 Кбит/сек
Каналы : 2 канала
Расположение каналов : Front: L R
Частота : 48,0 КГц
Частота кадров : 31,250 кадров/сек (1536 SPF)
Битовая глубина : 16 бит
Метод сжатия : С потерями
Размер потока : 115 Мбайт (6%)
Заголовок : Профессиональный (двухголосый закадровый) НТВ
Язык : Russian
ServiceKind/String : Complete Main
Default : Нет
Forced : Нет

Аудио #3
Идентификатор : 4
Формат : AC-3
Формат/Информация : Audio Coding 3
Идентификатор кодека : A_AC3
Продолжительность : 1 ч. 23 м.
Вид битрейта : Постоянный
Битрейт : 192 Кбит/сек
Каналы : 2 канала
Расположение каналов : Front: L R
Частота : 48,0 КГц
Частота кадров : 31,250 кадров/сек (1536 SPF)
Битовая глубина : 16 бит
Метод сжатия : С потерями
Размер потока : 115 Мбайт (6%)
Заголовок : Профессиональный (многоголосый закадровый) Карусель
Язык : Russian
ServiceKind/String : Complete Main
Default : Нет
Forced : Нет

Аудио #4
Идентификатор : 5
Формат : AC-3
Формат/Информация : Audio Coding 3
Идентификатор кодека : A_AC3
Продолжительность : 1 ч. 23 м.
Вид битрейта : Постоянный
Битрейт : 192 Кбит/сек
Каналы : 2 канала
Расположение каналов : Front: L R
Частота : 48,0 КГц
Частота кадров : 31,250 кадров/сек (1536 SPF)
Битовая глубина : 16 бит
Метод сжатия : С потерями
Размер потока : 115 Мбайт (6%)
Заголовок : Профессиональный (многоголосый закадровый) Лазер Видео | VHS
Язык : Russian
ServiceKind/String : Complete Main
Default : Нет
Forced : Нет

Аудио #5
Идентификатор : 6
Формат : AC-3
Формат/Информация : Audio Coding 3
Идентификатор кодека : A_AC3
Продолжительность : 1 ч. 23 м.
Вид битрейта : Постоянный
Битрейт : 192 Кбит/сек
Каналы : 2 канала
Расположение каналов : Front: L R
Частота : 48,0 КГц
Частота кадров : 31,250 кадров/сек (1536 SPF)
Битовая глубина : 16 бит
Метод сжатия : С потерями
Размер потока : 115 Мбайт (6%)
Язык : English
ServiceKind/String : Complete Main
Default : Нет
Forced : Нет

Текст
Идентификатор : 7
Формат : UTF-8
Идентификатор кодека : S_TEXT/UTF8
Идентификатор кодека/Информация : UTF-8 Plain Text
Продолжительность : 1 ч. 20 м.
Битрейт : 52 бит/сек
ElementCount : 881
Размер потока : 30,9 Кбайт (0%)
Язык : English
Default : Нет
Forced : Нет





Как качать, Как раздавать - Правила и инструкции
Торрент12 июл 2018, 20:54 [ 12 июл 2018, 20:54 ]

СКАЧАТЬ с просмотром рекламы
СтатусПроверен Download more
.torrent скачан147 раз
Размер1.77 ГБ (1 895 912 839)
Раздаю свой рипы со скоростью отдачи 100 кБ/с - Скачал сам?! Дай скачать другим, не уходи с раздачи!!!

"Не уходи со злостью на душе, не отворачивайся с ненавистью в сердце".

Вернуться в Зарубежные фильмы до 2000го года...



Кто сейчас на конференции

Сейчас этот форум просматривают: нет зарегистрированных пользователей

Ресурс не предоставляет электронные версии произведений, а занимается лишь коллекционированием и каталогизацией ссылок, присылаемых и публикуемых на форуме нашими читателями. Если вы являетесь правообладателем какого-либо представленного материала и не желаете чтобы ссылка на него находилась в нашем каталоге, свяжитесь с нами и мы незамедлительно удалим её. Файлы для обмена на трекере предоставлены пользователями сайта, и администрация не несёт ответственности за их содержание. Просьба не заливать файлы, защищенные авторскими правами, а также файлы нелегального содержания!