Шоугелз / Showgirls [1995, драма BDRip 1080р] D, Р - Скачать торрент бесплатно

Модераторы: Модераторы Фильмы, мультфильмы, Союз Риперов

Поделиться ВКонтакте Поделиться Facebook Поделиться Twitter Поделиться Mail.RU
АвторСообщение
Download more
Аватара пользователя
Модератор Фильмов
Модератор Фильмов
 
Раздал: 11.23 ТБ
Скачал: 5.46 ТБ
Ратио: 36.685
Сообщения: 511
Зарегистрирован: 19 ноя 2016, 16:36
Откуда: г. Астана, Казахстан Encoded by daniyar.esmuhanov
Награды: 8
За 100 сообщений (1) За 500 сообщений (1) 5 Тб отданного (1) 250 релизов (1) За 2000 полученных спасибо (1) 30 рипов (1) 200 кармы (1) Халява №3 (1)
Карма: 448
-2--2--2-

Сообщение Download more » 08 фев 2018, 20:11

Шоугелз / Showgirls [1995, драма BDRip 1080р] D, Р - Скачать торрент

Название: Шоугелз
Оригинальное название: Showgirls
Год выхода: 1995
Жанр: драма
Режиссер: Пол Верховен
В ролях: :Элизабет Беркли, Кайл МакЛаклэн, Джина Гершон, Гленн Пламмер, Роберт Дави, Алан Рэчинс, Джина Равера, Лин Туччи, Грег Трэвис, Эл Рушио, Патрик Бристоу, Уильям Шокли, Мишель Джонстон, Рина Риффел, Мелисса Уильямс, Мелинда Сонгер, Джек МакГи, Бобби Филлипс, Данте МакКарти

О фильме: Молодая длинноногая танцовщица Номи отчаянно пытается добиться успеха в Лас-Вегасе и проникнуть в блистающий мир ярких огней, блеска и света шоу — сцены. Чтобы удержаться «на плаву», она соглашается на единственно возможную работу — стриптиз, пока ей не удается вытянуть свой счастливый билет — познакомиться с королевой сцены Лас-Вегаса Кристал.

Используя свое влияние, Кристал устраивает Номи в свое шоу и вводит ее в истинный мир шоу-бизнеса Лас-Вегаса — мир случая, предательства и интриг, в котором сексуальность можно использовать как власть.



Выпущено: Франция, США
Продолжительность: 02:11:22
Озвучивание: Профессиональный (полное дублирование), Профессиональный (многоголосый закадровый)
Субтитры: UTF-8 русские, английские

Файл
Формат: MKV
Качество: BDRip 1080р
Видео: 1920x784, MPEG4-AVC, High@L4.1, 23,976 (24000/1001) кадра/сек, ~3028 Кбит/сек
Аудио: 48,0 КГц, AC3 Dolby Digital, 2 канала, 192 Кбит/сек Профессиональный (полное дублирование) Нева 1 | Екатеринбург Арт | VHS
Аудио: 48,0 КГц, AC3 Dolby Digital, 3/2 (L,C,R,l,r) + LFE ch, 448 kbps Профессиональный (полное дублирование) Нева 1 | Екатеринбург Арт | VHS
Аудио: 48,0 КГц, AC3 Dolby Digital, 3/2 (L,C,R,l,r) + LFE ch, 448 kbps Профессиональный (многоголосый закадровый) CP-Digita l Лазер Видео
Аудио: 48,0 КГц, AC3 Dolby Digital, 3/2 (L,C,R,l,r) + LFE ch, 448 kbps Профессиональный (многоголосый закадровый) Black Street Records
Аудио: 48,0 КГц, AC3 Dolby Digital, 2 канала, 192 Кбит/сек Профессиональный (многоголосый закадровый) СТС
Аудио: 48,0 КГц, AC3 Dolby Digital, 3/2 (L,C,R,l,r) + LFE ch, 448 kbps Оригинальная аудиодорожка: английский
Общее
Уникальный идентификатор : 188229915001523424605766020791201816166 (0x8D9BC35234547AC2A073CFCEC179DE66)
Полное имя : D:\Данияр\Раздача\Showgirls.daniyar.esmuhanov\Шоугелз (драма) 1995.mkv
Формат : Matroska
Версия формата : Version 4 / Version 2
Размер файла : 3,86 Гбайт
Продолжительность : 2 ч. 11 м.
Название фильма : Исходник: Blu-ray Disc | Автор рипа: Есмуханов Данияр Исламбекович | daniyar.esmuhanov
Программа кодирования : mkvmerge v8.3.0 ('Over the Horizon') 64bit
Библиотека кодирования : libebml v1.3.1 + libmatroska v1.4.2

Видео
Идентификатор : 1
Формат : AVC
Формат/Информация : Advanced Video Codec
Профиль формата : High@L4.1
Настройки формата : CABAC / 4 Ref Frames
Параметр CABAC формата : Да
Параметр RefFrames формата : 4 кадра
Идентификатор кодека : V_MPEG4/ISO/AVC
Продолжительность : 2 ч. 11 м.
Максимальный битрейт : 62,5 Мбит/сек
Вид битрейта : Переменный
Переменный битрейт : 5028 Кбит/сек | 2028 Кбит/сек | 3028 Кбит/сек
Битрейт : 3028 Кбит/сек
Ширина : 1904 пикселя
Высота : 784 пикселя
Соотношение сторон : 2,40:1
Режим частоты кадров : Постоянный
Частота кадров : 23,976 (24000/1001) кадра/сек
Частота кадров в оригинале : 23,976 (23976/1000) кадра/сек
Цветовое пространство : YUV
Субдискретизация насыщенности : 4:2:0
Битовая глубина : 8 бит
Тип развёртки : Прогрессивная
Бит/(Пиксели*Кадры) : 0.057
Размер потока : 1,86 Гбайт (48%)
Заголовок : Исходник: Blu-ray Disc | Автор рипа: Есмуханов Данияр Исламбекович | daniyar.esmuhanov
Библиотека кодирования : x264 core 135 r2 f0c1c53
Настройки программы : cabac=1 / ref=4 / deblock=1:-1:-1 / analyse=0x3:0x133 / me=umh / subme=9 / psy=1 / psy_rd=1.00:0.15 / mixed_ref=1 / me_range=24 / chroma_me=1 / trellis=2 / 8x8dct=1 / cqm=0 / deadzone=21,11 / fast_pskip=0 / chroma_qp_offset=-3 / threads=18 / lookahead_threads=1 / sliced_threads=0 / nr=0 / decimate=1 / interlaced=0 / bluray_compat=0 / constrained_intra=0 / bframes=3 / b_pyramid=2 / b_adapt=2 / b_bias=0 / direct=3 / weightb=1 / open_gop=0 / weightp=2 / keyint=250 / keyint_min=23 / scenecut=40 / intra_refresh=0 / rc_lookahead=60 / rc=2pass / mbtree=1 / bitrate=3028 / ratetol=1.0 / qcomp=0.60 / qpmin=0 / qpmax=69 / qpstep=4 / cplxblur=20.0 / qblur=0.5 / vbv_maxrate=31250 / vbv_bufsize=31250 / nal_hrd=none / ip_ratio=1.40 / aq=1:1.00
Язык : English
Default : Да
Forced : Да
Цветовой диапазон : Limited
Основные цвета : BT.709
Коэффициенты матрицы : BT.709

Аудио #1
Идентификатор : 2
Формат : AC-3
Формат/Информация : Audio Coding 3
Параметр Endianness формата : Big
Идентификатор кодека : A_AC3
Продолжительность : 2 ч. 11 м.
Вид битрейта : Постоянный
Битрейт : 192 Кбит/сек
Каналы : 2 канала
Расположение каналов : Front: L R
Частота : 48,0 КГц
Частота кадров : 31,250 кадров/сек (1536 SPF)
Битовая глубина : 16 бит
Метод сжатия : С потерями
Размер потока : 180 Мбайт (5%)
Заголовок : Профессиональный (полное дублирование) Нева 1 | Екатеринбург Арт | VHS
Язык : Russian
ServiceKind/String : Complete Main
Default : Да
Forced : Да

Аудио #2
Идентификатор : 3
Формат : AC-3
Формат/Информация : Audio Coding 3
Параметр Endianness формата : Big
Идентификатор кодека : A_AC3
Продолжительность : 2 ч. 11 м.
Вид битрейта : Постоянный
Битрейт : 448 Кбит/сек
Каналы : 6 каналов
Расположение каналов : Front: L C R, Side: L R, LFE
Частота : 48,0 КГц
Частота кадров : 31,250 кадров/сек (1536 SPF)
Битовая глубина : 16 бит
Метод сжатия : С потерями
Размер потока : 421 Мбайт (11%)
Заголовок : Профессиональный (полное дублирование) Нева 1 | Екатеринбург Арт | VHS
Язык : Russian
ServiceKind/String : Complete Main
Default : Нет
Forced : Нет

Аудио #3
Идентификатор : 4
Формат : AC-3
Формат/Информация : Audio Coding 3
Параметр Endianness формата : Big
Идентификатор кодека : A_AC3
Продолжительность : 2 ч. 11 м.
Вид битрейта : Постоянный
Битрейт : 448 Кбит/сек
Каналы : 6 каналов
Расположение каналов : Front: L C R, Side: L R, LFE
Частота : 48,0 КГц
Частота кадров : 31,250 кадров/сек (1536 SPF)
Битовая глубина : 16 бит
Метод сжатия : С потерями
Размер потока : 421 Мбайт (11%)
Заголовок : Профессиональный (многоголосый закадровый) CP-Digita l Лазер Видео
Язык : Russian
ServiceKind/String : Complete Main
Default : Нет
Forced : Нет

Аудио #4
Идентификатор : 5
Формат : AC-3
Формат/Информация : Audio Coding 3
Параметр Endianness формата : Big
Идентификатор кодека : A_AC3
Продолжительность : 2 ч. 11 м.
Вид битрейта : Постоянный
Битрейт : 448 Кбит/сек
Каналы : 6 каналов
Расположение каналов : Front: L C R, Side: L R, LFE
Частота : 48,0 КГц
Частота кадров : 31,250 кадров/сек (1536 SPF)
Битовая глубина : 16 бит
Метод сжатия : С потерями
Размер потока : 421 Мбайт (11%)
Заголовок : Профессиональный (многоголосый закадровый) Black Street Records
Язык : Russian
ServiceKind/String : Complete Main
Default : Нет
Forced : Нет

Аудио #5
Идентификатор : 6
Формат : AC-3
Формат/Информация : Audio Coding 3
Параметр Endianness формата : Big
Идентификатор кодека : A_AC3
Продолжительность : 2 ч. 11 м.
Вид битрейта : Постоянный
Битрейт : 192 Кбит/сек
Каналы : 2 канала
Расположение каналов : Front: L R
Частота : 48,0 КГц
Частота кадров : 31,250 кадров/сек (1536 SPF)
Битовая глубина : 16 бит
Метод сжатия : С потерями
Размер потока : 180 Мбайт (5%)
Заголовок : Профессиональный (многоголосый закадровый) СТС
Язык : Russian
ServiceKind/String : Complete Main
Default : Нет
Forced : Нет

Аудио #6
Идентификатор : 7
Формат : AC-3
Формат/Информация : Audio Coding 3
Параметр Endianness формата : Big
Идентификатор кодека : A_AC3
Продолжительность : 2 ч. 11 м.
Вид битрейта : Постоянный
Битрейт : 448 Кбит/сек
Каналы : 6 каналов
Расположение каналов : Front: L C R, Side: L R, LFE
Частота : 48,0 КГц
Частота кадров : 31,250 кадров/сек (1536 SPF)
Битовая глубина : 16 бит
Метод сжатия : С потерями
Размер потока : 421 Мбайт (11%)
Язык : English
ServiceKind/String : Complete Main
Default : Нет
Forced : Нет

Текст #1
Идентификатор : 8
Формат : UTF-8
Идентификатор кодека : S_TEXT/UTF8
Идентификатор кодека/Информация : UTF-8 Plain Text
Продолжительность : 2 ч. 1 м.
Битрейт : 75 бит/сек
ElementCount : 1399
Размер потока : 67,2 Кбайт (0%)
Язык : Russian
Default : Нет
Forced : Нет

Текст #2
Идентификатор : 9
Формат : UTF-8
Идентификатор кодека : S_TEXT/UTF8
Идентификатор кодека/Информация : UTF-8 Plain Text
Продолжительность : 2 ч. 10 м.
Битрейт : 47 бит/сек
ElementCount : 2026
Размер потока : 45,6 Кбайт (0%)
Язык : English
Default : Нет
Forced : Нет

Меню
00:00:00.000 : en:Title / Switchblade Nomi
00:03:20.450 : en:Friend of Faux
00:08:11.741 : en:It's the Show, Girl!
00:12:20.657 : en:Cristal Magic
00:16:04.547 : en:She Can Dance
00:19:43.182 : en:Cheetah's House Rules
00:22:43.487 : en:Is It Dancing?
00:26:14.907 : en:Lap Dancer's Delight
00:34:09.839 : en:The Dress She Wants
00:36:09.584 : en:Stardust Material
00:38:00.445 : en:Audition: Impossible
00:43:55.842 : en:Training Ground
00:49:31.510 : en:Movin' on up
00:53:04.264 : en:"It's a Ver-Sayce"
00:56:31.972 : en:Practice Run
00:58:26.002 : en:For the Very First Time
01:02:43.593 : en:Discarded
01:04:48.968 : en:A New Start
01:11:37.835 : en:Boat Convention
01:18:16.191 : en:Tough Break No. 1
01:23:07.608 : en:Pool Daze
01:29:28.280 : en:"Nomi's Got Heat"
01:31:26.564 : en:James' Show
01:37:24.297 : en:Easy Come, Easy Go
01:38:49.006 : en:Tough Break No. 2
01:42:37.735 : en:A Start Is Born
01:45:35.120 : en:Sad, Mad Molly
01:46:59.788 : en:Goddess, Star & Groupie
01:52:38.377 : en:Polly's Rap Sheet
01:55:46.815 : en:Payback
01:58:49.456 : en:Nicely Settled
02:03:39.412 : en:End Credits







Rip by Есмуханов Данияр Исламбекович | daniyar.esmuhanov
Как качать, Как раздавать - Правила и инструкции
Торрент08 фев 2018, 20:11 [ 08 фев 2018, 20:11 ]

СКАЧАТЬ с просмотром рекламы
СтатусПроверен
.torrent скачан14 раз
Размер3.86 ГБ (4 145 068 903)
Раздаю свой рипы со скоростью отдачи 100 кБ/с - Скачал сам?! Дай скачать другим, не уходи с раздачи!!!


Morriott

Аватара пользователя
Опытный пользователь
Опытный пользователь
  Предупреждений: 2

Сообщения: 135

Зарегистрирован: 19 сен 2017, 16:01

Откуда: БАЛАХА

Награды: 1
За 100 сообщений (1)

Забанен: Бессрочно

Карма: 2

Сообщение Morriott» 08 фев 2018, 21:36

Спасибо,пересмотрю,хорошее кинче!
Когда я подумал,что достиг самого дна - снизу постучали.


Вернуться в Зарубежные фильмы до 2000го года...



Кто сейчас на конференции

Сейчас этот форум просматривают: нет зарегистрированных пользователей

Ресурс не предоставляет электронные версии произведений, а занимается лишь коллекционированием и каталогизацией ссылок, присылаемых и публикуемых на форуме нашими читателями. Если вы являетесь правообладателем какого-либо представленного материала и не желаете чтобы ссылка на него находилась в нашем каталоге, свяжитесь с нами и мы незамедлительно удалим её. Файлы для обмена на трекере предоставлены пользователями сайта, и администрация не несёт ответственности за их содержание. Просьба не заливать файлы, защищенные авторскими правами, а также файлы нелегального содержания!