Спартак / Spartacus [1960, драма, приключения, военный, биография, история, BDRip 1080р] D, Р, Р2 - Скачать торрент бесплатно

Модераторы: Модераторы Фильмы, мультфильмы, Союз Риперов

Поделиться ВКонтакте Поделиться Facebook Поделиться Twitter Поделиться Mail.RU
АвторСообщение
Download more
Аватара пользователя
Модератор Фильмов
Модератор Фильмов
 
Раздал: 31.9 ТБ
Скачал: 12.23 ТБ
Ратио: 206.124
Сообщения: 696
Зарегистрирован: 19 ноя 2016, 16:36
Откуда: г. Астана, Казахстан Encoded by daniyar.esmuhanov
Награды: 15
За 100 сообщений (1) За 500 сообщений (1) 5 Тб отданного (1) 10 Тб отданного (1) 15 Тб отданного (1) 20 Тб отданного (1) 30 Тб отданного (1) 250 релизов (1) За 2000 полученных спасибо (1) За 4000 полученных спасибо (1) 30 рипов (1) 50 рипов (1) 200 кармы (1) 500 кармы (1) Халява №3 (1)
Карма: 725
-2--2--2--2-

Сообщение Download more » 31 янв 2018, 22:45

Спартак / Spartacus [1960, драма, приключения, военный, биография, история, BDRip 1080р] D, Р, Р2 - Скачать торрент

Название: Спартак
Оригинальное название: /Spartacus
Год выхода: 1960
Жанр: драма, приключения, военный, биография, история
Режиссер: Стэнли Кубрик
В ролях: :Кирк Дуглас, Лоуренс Оливье, Джин Симмонс, Чарльз Лотон, Питер Устинов, Джон Гэвин, Нина Фош, Джон Айрленд, Херберт Лом, Джон Долл

О фильме: История гладиатора Спартака, его возлюбленной Варинии и честолюбивого римского полководца Красса. Непреодолимая тяга к свободе заставляет Спартака поднять легендарное восстание рабов, ставшее важнейшей вехой мировой истории.



Выпущено: США
Продолжительность: 03:16:43
Озвучивание: Профессиональный (полное дублирование), Профессиональный (многоголосый закадровый), Профессиональный (двухголосый закадровый)
Субтитры: UTF-8 русские, английские

Файл
Формат: MKV
Качество: BDRip 1080р
Видео: 1920x864, MPEG4/ISO/AVC, High@L4.1, 23,976 (24000/1001) кадра/сек, ~3050 Кбит/сек
Аудио: 48,0 КГц, AC3 Dolby Digital, 2 канала, 192 Кбит/сек Профессиональный (дублированный) Советский + вставки MVO на вырезаные эпизоды
Аудио: 48,0 КГц, AC3 Dolby Digital, 3/2 (L,C,R,l,r) + LFE ch, 448 kbps Профессиональный (многоголосый закадровый) DVD
Аудио: 48,0 КГц, AC3 Dolby Digital, 3/2 (L,C,R,l,r) + LFE ch, 448 kbps Профессиональный (двухголосый закадровый) Петр Гланц и Инна Королева
Аудио: 48,0 КГц, AC3 Dolby Digital, 3/2 (L,C,R,l,r) + LFE ch, 448 kbps Оригинальная аудиодорожка: английский
Видео
Идентификатор : 1
Формат : AVC
Формат/Информация : Advanced Video Codec
Профиль формата : High@L4.1
Настройки формата : CABAC / 4 Ref Frames
Параметр CABAC формата : Да
Параметр RefFrames формата : 4 кадра
Идентификатор кодека : V_MPEG4/ISO/AVC
Продолжительность : 3 ч. 16 м.
Максимальный битрейт : 62,5 Мбит/сек
Вид битрейта : Переменный
Переменный битрейт : 5824 Кбит/сек | 2050 Кбит/сек | 3050 Кбит/сек
Битрейт : 3050 Кбит/сек
Ширина : 1920 пикселей
Высота : 864 пикселя
Соотношение сторон : 2,222
Режим частоты кадров : Постоянный
Частота кадров : 23,976 (24000/1001) кадра/сек
Цветовое пространство : YUV
Субдискретизация насыщенности : 4:2:0
Битовая глубина : 8 бит
Тип развёртки : Прогрессивная
Бит/(Пиксели*Кадры) : 0.052
Размер потока : 2,82 Гбайт (57%)
Заголовок : Исходник: Blu-ray Disc | Автор рипа: Есмуханов Данияр Исламбекович | daniyar.esmuhanov
Библиотека кодирования : x264 core 148
Настройки программы : cabac=1 / ref=4 / deblock=1:-1:-1 / analyse=0x3:0x133 / me=umh / subme=9 / psy=1 / psy_rd=1.00:0.15 / mixed_ref=1 / me_range=24 / chroma_me=1 / trellis=2 / 8x8dct=1 / cqm=0 / deadzone=21,11 / fast_pskip=0 / chroma_qp_offset=-3 / threads=12 / lookahead_threads=1 / sliced_threads=0 / nr=0 / decimate=1 / interlaced=0 / bluray_compat=0 / constrained_intra=0 / bframes=3 / b_pyramid=2 / b_adapt=2 / b_bias=0 / direct=3 / weightb=1 / open_gop=0 / weightp=2 / keyint=250 / keyint_min=23 / scenecut=40 / intra_refresh=0 / rc_lookahead=60 / rc=2pass / mbtree=1 / bitrate=3050 / ratetol=1.0 / qcomp=0.60 / qpmin=0 / qpmax=69 / qpstep=4 / cplxblur=20.0 / qblur=0.5 / vbv_maxrate=31250 / vbv_bufsize=31250 / nal_hrd=none / filler=0 / ip_ratio=1.40 / aq=1:1.00
Язык : English
Default : Да
Forced : Да

Аудио #1
Идентификатор : 2
Формат : AC-3
Формат/Информация : Audio Coding 3
Параметр Endianness формата : Big
Идентификатор кодека : A_AC3
Продолжительность : 3 ч. 16 м.
Вид битрейта : Постоянный
Битрейт : 192 Кбит/сек
Каналы : 2 канала
Расположение каналов : Front: L R
Частота : 48,0 КГц
Частота кадров : 31,250 кадров/сек (1536 SPF)
Битовая глубина : 16 бит
Метод сжатия : С потерями
Размер потока : 270 Мбайт (5%)
Заголовок : Профессиональный (дублированный) Советский + вставки MVO на вырезаные эпизоды
Язык : Russian
ServiceKind/String : Complete Main
Default : Да
Forced : Да

Аудио #2
Идентификатор : 3
Формат : AC-3
Формат/Информация : Audio Coding 3
Параметр Endianness формата : Big
Идентификатор кодека : A_AC3
Продолжительность : 3 ч. 16 м.
Вид битрейта : Постоянный
Битрейт : 448 Кбит/сек
Каналы : 6 каналов
Расположение каналов : Front: L C R, Side: L R, LFE
Частота : 48,0 КГц
Частота кадров : 31,250 кадров/сек (1536 SPF)
Битовая глубина : 16 бит
Метод сжатия : С потерями
Размер потока : 630 Мбайт (12%)
Заголовок : Профессиональный (многоголосый закадровый) DVD
Язык : Russian
ServiceKind/String : Complete Main
Default : Нет
Forced : Нет

Аудио #3
Идентификатор : 4
Формат : AC-3
Формат/Информация : Audio Coding 3
Параметр Endianness формата : Big
Идентификатор кодека : A_AC3
Продолжительность : 3 ч. 16 м.
Вид битрейта : Постоянный
Битрейт : 448 Кбит/сек
Каналы : 6 каналов
Расположение каналов : Front: L C R, Side: L R, LFE
Частота : 48,0 КГц
Частота кадров : 31,250 кадров/сек (1536 SPF)
Битовая глубина : 16 бит
Метод сжатия : С потерями
Размер потока : 630 Мбайт (12%)
Заголовок : Профессиональный (двухголосый закадровый) Петр Гланц и Инна Королева
Язык : Russian
ServiceKind/String : Complete Main
Default : Нет
Forced : Нет

Аудио #4
Идентификатор : 5
Формат : AC-3
Формат/Информация : Audio Coding 3
Параметр Endianness формата : Big
Идентификатор кодека : A_AC3
Продолжительность : 3 ч. 16 м.
Вид битрейта : Постоянный
Битрейт : 448 Кбит/сек
Каналы : 6 каналов
Расположение каналов : Front: L C R, Side: L R, LFE
Частота : 48,0 КГц
Частота кадров : 31,250 кадров/сек (1536 SPF)
Битовая глубина : 16 бит
Метод сжатия : С потерями
Размер потока : 630 Мбайт (12%)
Язык : English
ServiceKind/String : Complete Main
Default : Нет
Forced : Нет

Текст #1
Идентификатор : 6
Формат : UTF-8
Идентификатор кодека : S_TEXT/UTF8
Идентификатор кодека/Информация : UTF-8 Plain Text
Продолжительность : 3 ч. 13 м.
Битрейт : 70 бит/сек
ElementCount : 1808
Размер потока : 99,2 Кбайт (0%)
Язык : Russian
Default : Нет
Forced : Нет

Текст #2
Идентификатор : 7
Формат : UTF-8
Идентификатор кодека : S_TEXT/UTF8
Идентификатор кодека/Информация : UTF-8 Plain Text
Продолжительность : 3 ч. 5 м.
Битрейт : 46 бит/сек
ElementCount : 1805
Размер потока : 63,8 Кбайт (0%)
Язык : English
Default : Нет
Forced : Нет

Меню
00:00:00.000 : en:Chapter 01
00:07:44.547 : en:Chapter 02
00:14:04.969 : en:Chapter 03
00:19:04.935 : en:Chapter 04
00:31:55.872 : en:Chapter 05
00:43:12.840 : en:Chapter 06
00:53:02.971 : en:Chapter 07
01:01:46.661 : en:Chapter 08
01:20:17.979 : en:Chapter 09
01:41:46.391 : en:Chapter 10
01:47:55.343 : en:Chapter 11
01:58:17.757 : en:Chapter 12
02:10:43.293 : en:Chapter 13
02:30:01.993 : en:Chapter 14
03:00:56.345 : en:Chapter 15
03:10:08.897 : en:Chapter 16

















Rip by Есмуханов Данияр Исламбекович | daniyar.esmuhanov
Как качать, Как раздавать - Правила и инструкции
Торрент31 янв 2018, 22:45 [ 31 янв 2018, 22:45 ]

СКАЧАТЬ с просмотром рекламы
СтатусПроверен
.torrent скачан13 раз
Размер4.93 ГБ (5 293 445 121)
Раздаю свой рипы со скоростью отдачи 100 кБ/с - Скачал сам?! Дай скачать другим, не уходи с раздачи!!!


leonidg52

Аватара пользователя
Опытный пользователь
Опытный пользователь
 

Сообщения: 118

Зарегистрирован: 21 апр 2012, 22:03

Награды: 1
За 100 сообщений (1)
Карма: 21

Сообщение leonidg52» 01 фев 2018, 01:56

Сильный фильм! Кирк Дуглас хорошо раскрыл образ Спартака.


Вернуться в Зарубежные фильмы до 2000го года...



Кто сейчас на конференции

Сейчас этот форум просматривают: нет зарегистрированных пользователей

Ресурс не предоставляет электронные версии произведений, а занимается лишь коллекционированием и каталогизацией ссылок, присылаемых и публикуемых на форуме нашими читателями. Если вы являетесь правообладателем какого-либо представленного материала и не желаете чтобы ссылка на него находилась в нашем каталоге, свяжитесь с нами и мы незамедлительно удалим её. Файлы для обмена на трекере предоставлены пользователями сайта, и администрация не несёт ответственности за их содержание. Просьба не заливать файлы, защищенные авторскими правами, а также файлы нелегального содержания!