Дивергент / Divergent [2014-2016,фантастика, боевик, триллер, детектив, приключения, BDRip 1080р] D | Трилогия - Скачать торрент бесплатно

Модераторы: Модераторы Фильмы, мультфильмы, Союз Риперов

Поделиться ВКонтакте Поделиться Facebook Поделиться Twitter Поделиться Mail.RU
АвторСообщение
Download more
Аватара пользователя
Модератор Фильмов
Модератор Фильмов
 
Раздал: 24.07 ТБ
Скачал: 9.8 ТБ
Ратио: 139.312
Сообщения: 633
Зарегистрирован: 19 ноя 2016, 16:36
Откуда: г. Астана, Казахстан Encoded by daniyar.esmuhanov
Награды: 14
За 100 сообщений (1) За 500 сообщений (1) 5 Тб отданного (1) 10 Тб отданного (1) 15 Тб отданного (1) 20 Тб отданного (1) 250 релизов (1) За 2000 полученных спасибо (1) За 4000 полученных спасибо (1) 30 рипов (1) 50 рипов (1) 200 кармы (1) 500 кармы (1) Халява №3 (1)
Карма: 608
-2--2--2--2-

Сообщение Download more » 02 мар 2018, 20:44

Дивергент / Divergent [2014-2016,фантастика, боевик, триллер, детектив, приключения, BDRip 1080р] D | Трилогия - Скачать торрент

Название: Дивергент
Оригинальное название: /Divergent
Год выхода: 2014
Жанр: фантастика, детектив, приключения
Режиссер: Нил Бёргер
В ролях: : Шейлин Вудли, Тео Джеймс, Джай Кортни, Кейт Уинслет, Зои Кравиц, Майлз Теллер, Эшли Джадд, Тони Голдуин, Мэгги Кью, Рэй Стивенсон
О фильме: В антиутопическом Чикаго будущего существует общество, члены которого придумали способ избегать конфликтов и поддерживать вокруг незыблемый порядок. Каждый человек по достижении 16 лет должен определить, к чему лежит его душа, и в зависимости от своих личностных качеств присоединиться к одной из пяти фракций — Искренность, Бесстрашие, Эрудиция, Дружелюбие или Отречение.

Для того, чтобы и не ошибиться с фракцией, накануне церемонии выбора подростки проходят специальное тестирование. Юная Беатрис оказывается угрозой для всей сложившейся системы, когда тесты выявляют в ней дивергента — человека, которого невозможно однозначно определить в одну из фракций. Способные мыслить независимо и не питающие особого уважения к правительству, дивергенты одним своим существованием дискредитируют принципы, на которых строится общество. И теперь Беатрис — одна из таких людей, живущих вне закона и борющихся с системой, которая намерена любой ценой от них избавиться.



Выпущено: США
Продолжительность: 02:19:40
Озвучивание: Профессиональный (полное дублирование)
Субтитры: русские, английские

Файл
Формат: MKV
Качество: BDRip 1080р
Видео: 1920x800, MPEG4/AVC, High@L4.1, 23,976 (24000/1001) кадра/сек, ~3012 Кбит/сек
Аудио: 48,0 КГц, AC3 Dolby Digital, 3/2 (L,C,R,l,r) + LFE ch, 448 kbps Профессиональный (полное дублирование) Blu-ray CEE
Аудио: 48,0 КГц, AC3 Dolby Digital, 3/2 (L,C,R,l,r) + LFE ch, 448 kbps Оригинальная аудиодорожка: английский
Общее
Уникальный идентификатор : 200040923609009946640317837429402282878 (0x967E7B01456E43639B9CA4ABBA18AB7E)
Полное имя : D:\Данияр\Раздача\Divergent Collection.daniyar.esmuhanov\Дивергент (фантастика, боевик, триллер, приключения) 2014.mkv
Формат : Matroska
Версия формата : Version 4 / Version 2
Размер файла : 2,84 Гбайт
Продолжительность : 2 ч. 19 м.
Название фильма : Исходник: Blu-ray Disc | Автор рипа: Есмуханов Данияр Исламбекович | daniyar.esmuhanov
Программа кодирования : mkvmerge v8.3.0 ('Over the Horizon') 64bit
Библиотека кодирования : libebml v1.3.1 + libmatroska v1.4.2

Видео
Идентификатор : 1
Формат : AVC
Формат/Информация : Advanced Video Codec
Профиль формата : High@L4.1
Настройки формата : CABAC / 4 Ref Frames
Параметр CABAC формата : Да
Параметр RefFrames формата : 4 кадра
Идентификатор кодека : V_MPEG4/ISO/AVC
Продолжительность : 2 ч. 19 м.
Максимальный битрейт : 62,5 Мбит/сек
Вид битрейта : Переменный
Переменный битрейт : 5012 Кбит/сек | 2012 Кбит/сек | 3012 Кбит/сек
Битрейт : 3012 Кбит/сек
Ширина : 1920 пикселей
Высота : 800 пикселей
Соотношение сторон : 2,40:1
Режим частоты кадров : Постоянный
Частота кадров : 23,976 (24000/1001) кадра/сек
Частота кадров в оригинале : 23,976 (23976/1000) кадра/сек
Цветовое пространство : YUV
Субдискретизация насыщенности : 4:2:0
Битовая глубина : 8 бит
Тип развёртки : Прогрессивная
Бит/(Пиксели*Кадры) : 0.055
Размер потока : 1,96 Гбайт (69%)
Заголовок : Исходник: Blu-ray Disc | Автор рипа: Есмуханов Данияр Исламбекович | daniyar.esmuhanov
Библиотека кодирования : x264 core 142 r2409 d6b4e63
Настройки программы : cabac=1 / ref=4 / deblock=1:-1:-1 / analyse=0x3:0x133 / me=umh / subme=9 / psy=1 / psy_rd=1.00:0.15 / mixed_ref=1 / me_range=24 / chroma_me=1 / trellis=2 / 8x8dct=1 / cqm=0 / deadzone=21,11 / fast_pskip=0 / chroma_qp_offset=-3 / threads=60 / lookahead_threads=5 / sliced_threads=0 / nr=0 / decimate=1 / interlaced=0 / bluray_compat=0 / constrained_intra=0 / bframes=3 / b_pyramid=2 / b_adapt=2 / b_bias=0 / direct=3 / weightb=1 / open_gop=0 / weightp=2 / keyint=250 / keyint_min=23 / scenecut=40 / intra_refresh=0 / rc_lookahead=60 / rc=2pass / mbtree=1 / bitrate=3012 / ratetol=1.0 / qcomp=0.60 / qpmin=0 / qpmax=69 / qpstep=4 / cplxblur=20.0 / qblur=0.5 / vbv_maxrate=31250 / vbv_bufsize=31250 / nal_hrd=none / filler=0 / ip_ratio=1.40 / aq=1:1.00
Язык : English
Default : Да
Forced : Да
Цветовой диапазон : Limited
Основные цвета : BT.709
Коэффициенты матрицы : BT.709

Аудио #1
Идентификатор : 2
Формат : AC-3
Формат/Информация : Audio Coding 3
Параметр Endianness формата : Big
Идентификатор кодека : A_AC3
Продолжительность : 2 ч. 19 м.
Вид битрейта : Постоянный
Битрейт : 448 Кбит/сек
Каналы : 6 каналов
Расположение каналов : Front: L C R, Side: L R, LFE
Частота : 48,0 КГц
Частота кадров : 31,250 кадров/сек (1536 SPF)
Битовая глубина : 16 бит
Метод сжатия : С потерями
Размер потока : 448 Мбайт (15%)
Заголовок : Профессиональный (полное дублирование) Blu-ray CEE
Язык : Russian
ServiceKind/String : Complete Main
Default : Да
Forced : Да

Аудио #2
Идентификатор : 3
Формат : AC-3
Формат/Информация : Audio Coding 3
Параметр Endianness формата : Big
Идентификатор кодека : A_AC3
Продолжительность : 2 ч. 19 м.
Вид битрейта : Постоянный
Битрейт : 448 Кбит/сек
Каналы : 6 каналов
Расположение каналов : Front: L C R, Side: L R, LFE
Частота : 48,0 КГц
Частота кадров : 31,250 кадров/сек (1536 SPF)
Битовая глубина : 16 бит
Метод сжатия : С потерями
Размер потока : 448 Мбайт (15%)
Язык : English
ServiceKind/String : Complete Main
Default : Нет
Forced : Нет

Текст #1
Идентификатор : 4
Формат : UTF-8
Идентификатор кодека : S_TEXT/UTF8
Идентификатор кодека/Информация : UTF-8 Plain Text
Продолжительность : 2 ч. 11 м.
Битрейт : 63 бит/сек
ElementCount : 1260
Размер потока : 60,8 Кбайт (0%)
Язык : Russian
Default : Нет
Forced : Нет

Текст #2
Идентификатор : 5
Формат : UTF-8
Идентификатор кодека : S_TEXT/UTF8
Идентификатор кодека/Информация : UTF-8 Plain Text
Продолжительность : 2 ч. 9 м.
Битрейт : 38 бит/сек
ElementCount : 1397
Размер потока : 36,0 Кбайт (0%)
Язык : English
Default : Нет
Forced : Нет

Текст #3
Идентификатор : 6
Формат : UTF-8
Идентификатор кодека : S_TEXT/UTF8
Идентификатор кодека/Информация : UTF-8 Plain Text
Продолжительность : 2 ч. 9 м.
Битрейт : 44 бит/сек
ElementCount : 1572
Размер потока : 41,9 Кбайт (0%)
Язык : English
Default : Нет
Forced : Нет

Текст #4
Идентификатор : 7
Формат : UTF-8
Идентификатор кодека : S_TEXT/UTF8
Идентификатор кодека/Информация : UTF-8 Plain Text
Продолжительность : 2 ч. 9 м.
Битрейт : 59 бит/сек
ElementCount : 1650
Размер потока : 56,3 Кбайт (0%)
Язык : English
Default : Нет
Forced : Нет

Меню
00:00:00.000 : en:(01)00:00:00:000
00:07:57.475 : en:(02)00:07:57:475
00:15:29.595 : en:(03)00:15:29:595
00:23:31.034 : en:(04)00:23:31:034
00:33:56.616 : en:(05)00:33:56:616
00:38:52.954 : en:(06)00:38:52:954
00:44:24.327 : en:(07)00:44:24:327
00:53:37.505 : en:(08)00:53:37:505
01:00:02.681 : en:(09)01:00:02:681
01:06:32.070 : en:(10)01:06:32:070
01:13:19.603 : en:(11)01:13:19:603
01:20:08.136 : en:(12)01:20:08:136
01:28:41.439 : en:(13)01:28:41:439
01:35:54.957 : en:(14)01:35:54:957
01:46:19.372 : en:(15)01:46:19:372
01:57:54.692 : en:(16)01:57:54:692
02:19:40.163 : en:(17)02:19:40:163






Название: Дивергент, глава 2: Инсургент
Оригинальное название: /Insurgent
Год выхода: 2015
Жанр: фантастика, триллер, детектив, приключения
Режиссер: Роберт Швентке
В ролях: :Шейлин Вудли, Тео Джеймс, Кейт Уинслет, Джай Кортни, Энсел Элгорт, Майлз Теллер, Зои Кравиц, Мекхай Файфер, Наоми Уоттс, Октавия Спенсер
О фильме: В новой главе антиутопии об обществе, где все расставлено по полочкам, а любая индивидуальность подлежит искоренению, Трис должна найти способ борьбы со страшной системой, уничтожающей ее близких. Кто из них на очереди? Она узнает все больше страшных подробностей, стоящих за кажущимся порядком, и уже не может не видеть, что в ее мире пора что-то менять. Но главное в этой борьбе — справиться с расколом, который враг порождает в ее собственной душе.



Выпущено: США
Продолжительность: 01:59:00
Озвучивание: Профессиональный (полное дублирование)
Субтитры: русские, английские

Файл
Формат: MKV
Качество: BDRip 1080р
Видео: 1920x1080, MPEG4/AVC, High@L4.1, 23,976 (24000/1001) кадра/сек, ~3115 Кбит/сек
Аудио: 48,0 КГц, AC3 Dolby Digital, 3/2 (L,C,R,l,r) + LFE ch, 448 kbps Профессиональный (полное дублирование) Blu-ray CEE
Аудио: 48,0 КГц, AC3 Dolby Digital, 3/2 (L,C,R,l,r) + LFE ch, 448 kbps Оригинальная аудиодорожка: английский
Общее
Уникальный идентификатор : 219702083785834105647616670762204069165 (0xA549150B1B96DD70AD1794F783E6FD2D)
Полное имя : D:\Данияр\Раздача\Divergent Collection.daniyar.esmuhanov\Дивергент, глава 2 Инсургент (фантастика, триллер, приключения) 2015.mkv
Формат : Matroska
Версия формата : Version 4 / Version 2
Размер файла : 2,51 Гбайт
Продолжительность : 1 ч. 59 м.
Название фильма : Исходник: Blu-ray Disc | Автор рипа: Есмуханов Данияр Исламбекович | daniyar.esmuhanov
Программа кодирования : mkvmerge v8.3.0 ('Over the Horizon') 64bit
Библиотека кодирования : libebml v1.3.1 + libmatroska v1.4.2

Видео
Идентификатор : 1
Формат : AVC
Формат/Информация : Advanced Video Codec
Профиль формата : High@L4.1
Настройки формата : CABAC / 4 Ref Frames
Параметр CABAC формата : Да
Параметр RefFrames формата : 4 кадра
Идентификатор кодека : V_MPEG4/ISO/AVC
Продолжительность : 1 ч. 59 м.
Максимальный битрейт : 62,5 Мбит/сек
Вид битрейта : Переменный
Переменный битрейт : 5115 Кбит/сек | 2115 Кбит/сек | 3115 Кбит/сек
Битрейт : 3115 Кбит/сек
Ширина : 1920 пикселей
Высота : 1080 пикселей
Соотношение сторон : 16:9
Режим частоты кадров : Постоянный
Частота кадров : 23,976 (24000/1001) кадра/сек
Частота кадров в оригинале : 23,976 (23976/1000) кадра/сек
Цветовое пространство : YUV
Субдискретизация насыщенности : 4:2:0
Битовая глубина : 8 бит
Тип развёртки : Прогрессивная
Бит/(Пиксели*Кадры) : 0.043
Размер потока : 1,76 Гбайт (70%)
Заголовок : Исходник: Blu-ray Disc | Автор рипа: Есмуханов Данияр Исламбекович | daniyar.esmuhanov
Библиотека кодирования : x264 core 123 r2189 35cf912
Настройки программы : cabac=1 / ref=4 / deblock=1:-1:-1 / analyse=0x3:0x133 / me=umh / subme=9 / psy=1 / psy_rd=1.00:0.15 / mixed_ref=1 / me_range=24 / chroma_me=1 / trellis=2 / 8x8dct=1 / cqm=0 / deadzone=21,11 / fast_pskip=0 / chroma_qp_offset=-3 / threads=48 / sliced_threads=0 / nr=0 / decimate=1 / interlaced=0 / bluray_compat=0 / constrained_intra=0 / bframes=3 / b_pyramid=2 / b_adapt=2 / b_bias=0 / direct=3 / weightb=1 / open_gop=0 / weightp=2 / keyint=250 / keyint_min=23 / scenecut=40 / intra_refresh=0 / rc_lookahead=60 / rc=2pass / mbtree=1 / bitrate=3115 / ratetol=1.0 / qcomp=0.60 / qpmin=0 / qpmax=69 / qpstep=4 / cplxblur=20.0 / qblur=0.5 / vbv_maxrate=31250 / vbv_bufsize=31250 / nal_hrd=none / ip_ratio=1.40 / aq=1:1.00
Язык : English
Default : Да
Forced : Да
Цветовой диапазон : Limited
Основные цвета : BT.709
Коэффициенты матрицы : BT.709

Аудио #1
Идентификатор : 2
Формат : AC-3
Формат/Информация : Audio Coding 3
Параметр Endianness формата : Big
Идентификатор кодека : A_AC3
Продолжительность : 1 ч. 59 м.
Вид битрейта : Постоянный
Битрейт : 448 Кбит/сек
Каналы : 6 каналов
Расположение каналов : Front: L C R, Side: L R, LFE
Частота : 48,0 КГц
Частота кадров : 31,250 кадров/сек (1536 SPF)
Битовая глубина : 16 бит
Метод сжатия : С потерями
Размер потока : 381 Мбайт (15%)
Заголовок : Профессиональный (полное дублирование) Blu-ray CEE
Язык : Russian
ServiceKind/String : Complete Main
Default : Да
Forced : Да

Аудио #2
Идентификатор : 3
Формат : AC-3
Формат/Информация : Audio Coding 3
Параметр Endianness формата : Big
Идентификатор кодека : A_AC3
Продолжительность : 1 ч. 58 м.
Вид битрейта : Постоянный
Битрейт : 448 Кбит/сек
Каналы : 6 каналов
Расположение каналов : Front: L C R, Side: L R, LFE
Частота : 48,0 КГц
Частота кадров : 31,250 кадров/сек (1536 SPF)
Битовая глубина : 16 бит
Метод сжатия : С потерями
Размер потока : 381 Мбайт (15%)
Язык : English
ServiceKind/String : Complete Main
Default : Нет
Forced : Нет

Текст #1
Идентификатор : 4
Формат : UTF-8
Идентификатор кодека : S_TEXT/UTF8
Идентификатор кодека/Информация : UTF-8 Plain Text
Продолжительность : 1 ч. 47 м.
Битрейт : 76 бит/сек
ElementCount : 968
Размер потока : 60,1 Кбайт (0%)
Язык : Russian
Default : Нет
Forced : Нет

Текст #2
Идентификатор : 5
Формат : UTF-8
Идентификатор кодека : S_TEXT/UTF8
Идентификатор кодека/Информация : UTF-8 Plain Text
Продолжительность : 1 ч. 47 м.
Битрейт : 77 бит/сек
ElementCount : 1033
Размер потока : 60,7 Кбайт (0%)
Язык : Russian
Default : Нет
Forced : Нет

Текст #3
Идентификатор : 6
Формат : UTF-8
Идентификатор кодека : S_TEXT/UTF8
Идентификатор кодека/Информация : UTF-8 Plain Text
Продолжительность : 1 ч. 47 м.
Битрейт : 44 бит/сек
ElementCount : 1180
Размер потока : 35,2 Кбайт (0%)
Язык : English
Default : Нет
Forced : Нет

Текст #4
Идентификатор : 7
Формат : UTF-8
Идентификатор кодека : S_TEXT/UTF8
Идентификатор кодека/Информация : UTF-8 Plain Text
Продолжительность : 1 ч. 47 м.
Битрейт : 49 бит/сек
ElementCount : 1398
Размер потока : 38,9 Кбайт (0%)
Язык : English
Default : Нет
Forced : Нет

Текст #5
Идентификатор : 8
Формат : UTF-8
Идентификатор кодека : S_TEXT/UTF8
Идентификатор кодека/Информация : UTF-8 Plain Text
Продолжительность : 1 ч. 47 м.
Битрейт : 59 бит/сек
ElementCount : 1382
Размер потока : 47,1 Кбайт (0%)
Язык : English
Default : Нет
Forced : Нет

Меню
00:00:00.000 : en:(01)00:00:00:000
00:06:11.286 : en:(02)00:06:11:286
00:13:35.397 : en:(03)00:13:35:397
00:19:35.007 : en:(04)00:19:35:007
00:26:39.431 : en:(05)00:26:39:431
00:34:23.059 : en:(06)00:34:23:059
00:41:13.846 : en:(07)00:41:13:846
00:46:34.708 : en:(08)00:46:34:708
00:53:10.103 : en:(09)00:53:10:103
00:59:30.358 : en:(10)00:59:30:358
01:05:59.663 : en:(11)01:05:59:663
01:13:34.908 : en:(12)01:13:34:908
01:22:57.930 : en:(13)01:22:57:930
01:32:04.935 : en:(14)01:32:04:935
01:39:09.359 : en:(15)01:39:09:359
01:46:38.641 : en:(16)01:46:38:641
01:59:00.131 : en:(17)01:59:00:131






Название: Дивергент, глава 3: За стеной
Оригинальное название: /Allegiant
Год выхода: 2016
Жанр: фантастика, боевик, триллер, детектив, приключения
Режиссер: Роберт Швентке
В ролях: : Тео Джеймс, Шэйлин Вудли, Энсел Эльгорт, Зои Кравец, Джефф Дэниэлс, Билл Скарсгард, Наоми Уоттс, Майлз Теллер, Мэгги Кью, Джонни Уэстон, Надя Хилкер, Кейнан Лонсдейл
О фильме: Трис и Фор впервые покидают город и своих близких и оказываются в опасном мире за стеной, отделяющей Чикаго, где им открывается шокирующая правда.

Они должны быстро разобраться, кому можно доверять, так как битва, разгорающаяся за стенами города, угрожает всему человечеству. Чтобы выжить, Трис придется сделать непростой выбор между мужеством, верностью, любовью и необходимостью идти на жертвы.



Выпущено: США
Продолжительность: 02:00:33
Озвучивание: Профессиональный (полное дублирование)
Субтитры: английские

Файл
Формат: MKV
Качество: BDRip 1080р
Видео: 1920x800, MPEG4/AVC, High@L4.1, 23,976 (24000/1001) кадра/сек, ~3050 Кбит/сек
Аудио: 48,0 КГц, AC3 Dolby Digital, 3/2 (L,C,R,l,r) + LFE ch, 448 kbps Профессиональный (полное дублирование) Blu-ray CEE
Аудио: 48,0 КГц, AC3 Dolby Digital, 3/2 (L,C,R,l,r) + LFE ch, 448 kbps Оригинальная аудиодорожка: английский
Общее
Уникальный идентификатор : 174573652184329901908951535171773499034 (0x8355A994A34D34BE87AB82D869A9869A)
Полное имя : D:\Данияр\Раздача\Divergent Collection.daniyar.esmuhanov\Дивергент, глава 3 За стеной (фантастика, боевик, триллер, детектив, приключения) 2016.mkv
Формат : Matroska
Версия формата : Version 4 / Version 2
Размер файла : 2,48 Гбайт
Продолжительность : 2 ч. 0 м.
Название фильма : Исходник: Blu-ray Disc | Автор рипа: Есмуханов Данияр Исламбекович | daniyar.esmuhanov
Программа кодирования : mkvmerge v8.3.0 ('Over the Horizon') 64bit
Библиотека кодирования : libebml v1.3.1 + libmatroska v1.4.2

Видео
Идентификатор : 1
Формат : AVC
Формат/Информация : Advanced Video Codec
Профиль формата : High@L4.1
Настройки формата : CABAC / 4 Ref Frames
Параметр CABAC формата : Да
Параметр RefFrames формата : 4 кадра
Идентификатор кодека : V_MPEG4/ISO/AVC
Продолжительность : 2 ч. 0 м.
Максимальный битрейт : 62,5 Мбит/сек
Вид битрейта : Переменный
Переменный битрейт : 5050 Кбит/сек | 2050 Кбит/сек | 3050 Кбит/сек
Битрейт : 3050 Кбит/сек
Ширина : 1920 пикселей
Высота : 800 пикселей
Соотношение сторон : 2,40:1
Режим частоты кадров : Постоянный
Частота кадров : 23,976 кадра/сек
Цветовое пространство : YUV
Субдискретизация насыщенности : 4:2:0
Битовая глубина : 8 бит
Тип развёртки : Прогрессивная
Бит/(Пиксели*Кадры) : 0.056
Размер потока : 1,73 Гбайт (70%)
Заголовок : Исходник: Blu-ray Disc | Автор рипа: Есмуханов Данияр Исламбекович | daniyar.esmuhanov
Библиотека кодирования : x264 core 148
Настройки программы : cabac=1 / ref=4 / deblock=1:-1:-1 / analyse=0x3:0x133 / me=umh / subme=9 / psy=1 / psy_rd=1.00:0.15 / mixed_ref=1 / me_range=24 / chroma_me=1 / trellis=2 / 8x8dct=1 / cqm=0 / deadzone=21,11 / fast_pskip=0 / chroma_qp_offset=-3 / threads=12 / lookahead_threads=1 / sliced_threads=0 / nr=0 / decimate=1 / interlaced=0 / bluray_compat=0 / constrained_intra=0 / bframes=3 / b_pyramid=2 / b_adapt=2 / b_bias=0 / direct=3 / weightb=1 / open_gop=0 / weightp=2 / keyint=250 / keyint_min=23 / scenecut=40 / intra_refresh=0 / rc_lookahead=60 / rc=2pass / mbtree=1 / bitrate=3050 / ratetol=1.0 / qcomp=0.60 / qpmin=0 / qpmax=69 / qpstep=4 / cplxblur=20.0 / qblur=0.5 / vbv_maxrate=31250 / vbv_bufsize=31250 / nal_hrd=none / filler=0 / ip_ratio=1.40 / aq=1:1.00
Язык : English
Default : Да
Forced : Да

Аудио #1
Идентификатор : 2
Формат : AC-3
Формат/Информация : Audio Coding 3
Параметр Endianness формата : Big
Идентификатор кодека : A_AC3
Продолжительность : 2 ч. 0 м.
Вид битрейта : Постоянный
Битрейт : 448 Кбит/сек
Каналы : 6 каналов
Расположение каналов : Front: L C R, Side: L R, LFE
Частота : 48,0 КГц
Частота кадров : 31,250 кадров/сек (1536 SPF)
Битовая глубина : 16 бит
Метод сжатия : С потерями
Размер потока : 386 Мбайт (15%)
Заголовок : Профессиональный (полное дублирование) Blu-ray CEE
Язык : Russian
ServiceKind/String : Complete Main
Default : Да
Forced : Да

Аудио #2
Идентификатор : 3
Формат : AC-3
Формат/Информация : Audio Coding 3
Параметр Endianness формата : Big
Идентификатор кодека : A_AC3
Продолжительность : 2 ч. 0 м.
Вид битрейта : Постоянный
Битрейт : 448 Кбит/сек
Каналы : 6 каналов
Расположение каналов : Front: L C R, Side: L R, LFE
Частота : 48,0 КГц
Частота кадров : 31,250 кадров/сек (1536 SPF)
Битовая глубина : 16 бит
Метод сжатия : С потерями
Размер потока : 386 Мбайт (15%)
Язык : English
ServiceKind/String : Complete Main
Default : Нет
Forced : Нет

Текст #1
Идентификатор : 4
Формат : UTF-8
Идентификатор кодека : S_TEXT/UTF8
Идентификатор кодека/Информация : UTF-8 Plain Text
Продолжительность : 1 ч. 48 м.
Битрейт : 46 бит/сек
ElementCount : 1179
Размер потока : 37,4 Кбайт (0%)
Язык : English
Default : Нет
Forced : Нет

Текст #2
Идентификатор : 5
Формат : UTF-8
Идентификатор кодека : S_TEXT/UTF8
Идентификатор кодека/Информация : UTF-8 Plain Text
Продолжительность : 1 ч. 49 м.
Битрейт : 52 бит/сек
ElementCount : 1313
Размер потока : 41,7 Кбайт (0%)
Язык : English
Default : Нет
Forced : Нет

Текст #3
Идентификатор : 6
Формат : UTF-8
Идентификатор кодека : S_TEXT/UTF8
Идентификатор кодека/Информация : UTF-8 Plain Text
Продолжительность : 1 ч. 49 м.
Битрейт : 65 бит/сек
ElementCount : 1313
Размер потока : 51,9 Кбайт (0%)
Язык : English
Default : Нет
Forced : Нет

Меню
00:00:00.000 : :(01)00:00:00:000
00:09:46.335 : :(02)00:09:46:335
00:16:54.303 : :(03)00:16:54:303
00:25:52.092 : :(04)00:25:52:092
00:32:45.212 : :(05)00:32:45:212
00:37:26.202 : :(06)00:37:26:202
00:45:49.538 : :(07)00:45:49:538
00:53:31.458 : :(08)00:53:31:458
00:58:18.244 : :(09)00:58:18:244
01:07:21.161 : :(10)01:07:21:161
01:13:46.712 : :(11)01:13:46:712
01:19:51.036 : :(12)01:19:51:036
01:26:40.235 : :(13)01:26:40:235
01:33:12.127 : :(14)01:33:12:127
01:40:24.059 : :(15)01:40:24:059
01:46:18.872 : :(16)01:46:18:872






Rip by Есмуханов Данияр Исламбекович | daniyar.esmuhanov
Как качать, Как раздавать - Правила и инструкции
Торрент02 мар 2018, 20:44 [ 02 мар 2018, 20:44 ]

СКАЧАТЬ с просмотром рекламы
СтатусПроверен Download more
.torrent скачан38 раз
Размер7.83 ГБ (8 406 958 551)
Раздаю свой рипы со скоростью отдачи 100 кБ/с - Скачал сам?! Дай скачать другим, не уходи с раздачи!!!


Вернуться в Зарубежные фильмы после 2000го года...



Кто сейчас на конференции

Сейчас этот форум просматривают: annkom

Ресурс не предоставляет электронные версии произведений, а занимается лишь коллекционированием и каталогизацией ссылок, присылаемых и публикуемых на форуме нашими читателями. Если вы являетесь правообладателем какого-либо представленного материала и не желаете чтобы ссылка на него находилась в нашем каталоге, свяжитесь с нами и мы незамедлительно удалим её. Файлы для обмена на трекере предоставлены пользователями сайта, и администрация не несёт ответственности за их содержание. Просьба не заливать файлы, защищенные авторскими правами, а также файлы нелегального содержания!