Горец / Highlander [1986-2007, фантастика, фэнтези, боевик, триллер, приключения, мелодрама, BDRip 720р] D, Р, Р2, А | Коллекция - Скачать торрент бесплатно

Модераторы: Модераторы Фильмы, мультфильмы, Союз Риперов

Поделиться ВКонтакте Поделиться Facebook Поделиться Twitter Поделиться Mail.RU
АвторСообщение
Download more
Аватара пользователя
Модератор Фильмов
Модератор Фильмов
 
Раздал: 45.53 ГБ
Скачал: 137.28 ГБ
Ратио: 0.372
Сообщения: 528
Зарегистрирован: 19 ноя 2016, 16:36
Откуда: г. Астана, Казахстан
Награды: 6
За 100 сообщений (1) За 500 сообщений (1) 250 релизов (1) За 2000 полученных спасибо (1) 30 рипов (1) 200 кармы (1)
Карма: 313
-2--2-

Сообщение Download more » 14 фев 2018, 20:32

Горец / Highlander [1986-2007, фантастика, фэнтези, боевик, триллер, приключения, мелодрама, BDRip 720р] D, Р, Р2, А | Коллекция - Скачать торрент

Название: Горец
Оригинальное название: /Highlander
Дата выхода: 1986
Жанр: фэнтези, боевик, приключения
Страна: Великобритания
Субтитры: русские, английские
Перевод: Профессиональный (многоголосый закадровый), Профессиональный (двухголосый закадровый), Авторский (одноголосый закадровый)
Продолжительность: 01:56:38
Режиссёр: Расселл Малкахи
В ролях: Кристофер Ламберт, Роксанна Харт, Клэнси Браун, Шон Коннери, Бети Эдни, Алан Норт, Джон Полито, Шила Гиш, Хью Куарши, Кристофер Малкольм
Описание: Коннор Маклауд — шотландец, который в 1536 году был сражен в битве, но мистическим образом воскрес, и родной клан изгнал его. Учителем Маклауда стал испанский дворянин, объяснивший, что он принадлежит к бессмертной расе воинов, которых можно лишить жизни, лишь обезглавив мечом…

Сражение между Маклаудом и его вечным врагом Курганом, начавшееся в Шотландии XVI века, продолжается в современном Манхеттене. От исхода этой битвы зависит судьба всех смертных. Это часть дуэли, продолжающейся веками.



Качество: BDRip 720р
Формат файла: MKV
Видео: 1280x688, MPEG4/AVC, High@L4.1, 24,000 кадра/сек, ~3444 Кбит/сек
Аудио: 48,0 КГц, AC3 Dolby Digital, 3/2 (L,C,R,l,r) + LFE ch, 448 kbps Авторский (одноголосый закадровый) М.Яроцкий
Аудио: 48,0 КГц, AC3 Dolby Digital, 3/2 (L,C,R,l,r) + LFE ch, 448 kbps Профессиональный (многоголосый закадровый) Video BIZ
Аудио: 48,0 КГц, AC3 Dolby Digital, 3/2 (L,C,R,l,r) + LFE ch, 448 kbps Профессиональный (многоголосый закадровый) Супербит
Аудио: 48,0 КГц, AC3 Dolby Digital, 2 ch, 192 kbps Профессиональный (двухголосый закадровый) НТВ
Аудио: 48,0 КГц, AC3 Dolby Digital, 2 ch, 192 kbps Профессиональный (многоголосый закадровый) ОРТ | Первый канал
Аудио: 48,0 КГц, AC3 Dolby Digital, 2 ch, 192 kbps Профессиональный (многоголосый закадровый) СТС
Аудио: 48,0 КГц, AC3 Dolby Digital, 2 ch, 192 kbps Профессиональный (многоголосый закадровый) Нева 1
Аудио: 48,0 КГц, AC3 Dolby Digital, 2 ch, 192 kbps Комментарии Рассел Малкэй Язык: Russian
Аудио: 48,0 КГц, AC3 Dolby Digital, 3/2 (L,C,R,l,r) + LFE ch, 448 kbps Оригинальная аудиодорожка: английский
Общее
Уникальный идентификатор : 241172552675864411905755872160871899665 (0xB57024E37E56DBA0899DEFF9FFC46211)
Полное имя : D:\Данияр\Раздача\Highlander Collection.daniyar.esmuhanov\Горец (фэнтези, боевик, приключения) 1986 Режиссерская версия.mkv
Формат : Matroska
Версия формата : Version 4 / Version 2
Размер файла : 3,42 Гбайт
Продолжительность : 1 ч. 56 м.
Название фильма : Исходник: Blu-ray Disc | Автор рипа: Есмуханов Данияр Исламбекович | daniyar.esmuhanov
Программа кодирования : mkvmerge v8.3.0 ('Over the Horizon') 64bit
Библиотека кодирования : libebml v1.3.1 + libmatroska v1.4.2

Видео
Идентификатор : 1
Формат : AVC
Формат/Информация : Advanced Video Codec
Профиль формата : High@L4.1
Настройки формата : CABAC / 4 Ref Frames
Параметр CABAC формата : Да
Параметр RefFrames формата : 4 кадра
Идентификатор кодека : V_MPEG4/ISO/AVC
Продолжительность : 1 ч. 56 м.
Максимальный битрейт : 62,5 Мбит/сек
Вид битрейта : Переменный
Переменный битрейт : 5444 Кбит/сек | 1444 Кбит/сек | 3444 Кбит/сек
Битрейт : 3444 Кбит/сек
Ширина : 1280 пикселей
Высота : 688 пикселей
Соотношение сторон : 1,85:1
Режим частоты кадров : Переменный
Частота кадров : 24,000 кадра/сек
Цветовое пространство : YUV
Субдискретизация насыщенности : 4:2:0
Битовая глубина : 8 бит
Тип развёртки : Прогрессивная
Бит/(Пиксели*Кадры) : 0.068
Размер потока : 1,18 Гбайт (34%)
Заголовок : Исходник: Blu-ray Disc | Автор рипа: Есмуханов Данияр Исламбекович | daniyar.esmuhanov
Библиотека кодирования : x264 core 130 r2273 b3065e6
Настройки программы : cabac=1 / ref=2 / deblock=1:-1:-1 / analyse=0x3:0x113 / me=hex / subme=4 / psy=1 / psy_rd=1.00:0.15 / mixed_ref=0 / me_range=16 / chroma_me=1 / trellis=1 / 8x8dct=1 / cqm=0 / deadzone=21,11 / fast_pskip=1 / chroma_qp_offset=-1 / threads=6 / lookahead_threads=1 / sliced_threads=0 / nr=0 / decimate=1 / interlaced=0 / bluray_compat=0 / constrained_intra=0 / bframes=3 / b_pyramid=2 / b_adapt=1 / b_bias=0 / direct=1 / weightb=1 / open_gop=0 / weightp=1 / keyint=240 / keyint_min=24 / scenecut=40 / intra_refresh=0 / rc_lookahead=20 / rc=2pass / mbtree=1 / bitrate=3444 / ratetol=1.0 / qcomp=0.60 / qpmin=0 / qpmax=69 / qpstep=4 / cplxblur=20.0 / qblur=0.5 / vbv_maxrate=62500 / vbv_bufsize=78125 / nal_hrd=none / ip_ratio=1.40 / aq=1:1.00
Язык : English
Default : Да
Forced : Да
Цветовой диапазон : Limited
Основные цвета : BT.709
Характеристики трансфера : BT.709
Коэффициенты матрицы : BT.709

Аудио #1
Идентификатор : 2
Формат : AC-3
Формат/Информация : Audio Coding 3
Параметр Endianness формата : Big
Идентификатор кодека : A_AC3
Продолжительность : 1 ч. 56 м.
Вид битрейта : Постоянный
Битрейт : 448 Кбит/сек
Каналы : 6 каналов
Расположение каналов : Front: L C R, Side: L R, LFE
Частота : 48,0 КГц
Частота кадров : 31,250 кадров/сек (1536 SPF)
Битовая глубина : 16 бит
Метод сжатия : С потерями
Задержка видео : 224 мс.
Размер потока : 374 Мбайт (11%)
Заголовок : Авторский (одноголосый закадровый) М.Яроцкий
Язык : Russian
ServiceKind/String : Complete Main
Default : Да
Forced : Да

Аудио #2
Идентификатор : 3
Формат : AC-3
Формат/Информация : Audio Coding 3
Параметр Endianness формата : Big
Идентификатор кодека : A_AC3
Продолжительность : 1 ч. 56 м.
Вид битрейта : Постоянный
Битрейт : 448 Кбит/сек
Каналы : 6 каналов
Расположение каналов : Front: L C R, Side: L R, LFE
Частота : 48,0 КГц
Частота кадров : 31,250 кадров/сек (1536 SPF)
Битовая глубина : 16 бит
Метод сжатия : С потерями
Задержка видео : 224 мс.
Размер потока : 374 Мбайт (11%)
Заголовок : Профессиональный (многоголосый закадровый) Video BIZ
Язык : Russian
ServiceKind/String : Complete Main
Default : Нет
Forced : Нет

Аудио #3
Идентификатор : 4
Формат : AC-3
Формат/Информация : Audio Coding 3
Параметр Endianness формата : Big
Идентификатор кодека : A_AC3
Продолжительность : 1 ч. 56 м.
Вид битрейта : Постоянный
Битрейт : 448 Кбит/сек
Каналы : 6 каналов
Расположение каналов : Front: L C R, Side: L R, LFE
Частота : 48,0 КГц
Частота кадров : 31,250 кадров/сек (1536 SPF)
Битовая глубина : 16 бит
Метод сжатия : С потерями
Задержка видео : 224 мс.
Размер потока : 374 Мбайт (11%)
Заголовок : Профессиональный (многоголосый закадровый) Супербит
Язык : Russian
ServiceKind/String : Complete Main
Default : Нет
Forced : Нет

Аудио #4
Идентификатор : 5
Формат : AC-3
Формат/Информация : Audio Coding 3
Параметр Endianness формата : Big
Идентификатор кодека : A_AC3
Продолжительность : 1 ч. 56 м.
Вид битрейта : Постоянный
Битрейт : 192 Кбит/сек
Каналы : 2 канала
Расположение каналов : Front: L R
Частота : 48,0 КГц
Частота кадров : 31,250 кадров/сек (1536 SPF)
Битовая глубина : 16 бит
Метод сжатия : С потерями
Задержка видео : 224 мс.
Размер потока : 160 Мбайт (5%)
Заголовок : Профессиональный (двухголосый закадровый) НТВ
Язык : Russian
ServiceKind/String : Complete Main
Default : Нет
Forced : Нет

Аудио #5
Идентификатор : 6
Формат : AC-3
Формат/Информация : Audio Coding 3
Параметр Endianness формата : Big
Идентификатор кодека : A_AC3
Продолжительность : 1 ч. 56 м.
Вид битрейта : Постоянный
Битрейт : 192 Кбит/сек
Каналы : 2 канала
Расположение каналов : Front: L R
Частота : 48,0 КГц
Частота кадров : 31,250 кадров/сек (1536 SPF)
Битовая глубина : 16 бит
Метод сжатия : С потерями
Задержка видео : 224 мс.
Размер потока : 160 Мбайт (5%)
Заголовок : Профессиональный (многоголосый закадровый) ОРТ | Первый канал
Язык : Russian
ServiceKind/String : Complete Main
Default : Нет
Forced : Нет

Аудио #6
Идентификатор : 7
Формат : AC-3
Формат/Информация : Audio Coding 3
Параметр Endianness формата : Big
Идентификатор кодека : A_AC3
Продолжительность : 1 ч. 56 м.
Вид битрейта : Постоянный
Битрейт : 192 Кбит/сек
Каналы : 2 канала
Расположение каналов : Front: L R
Частота : 48,0 КГц
Частота кадров : 31,250 кадров/сек (1536 SPF)
Битовая глубина : 16 бит
Метод сжатия : С потерями
Задержка видео : 224 мс.
Размер потока : 160 Мбайт (5%)
Заголовок : Профессиональный (многоголосый закадровый) СТС
Язык : Russian
ServiceKind/String : Complete Main
Default : Нет
Forced : Нет

Аудио #7
Идентификатор : 8
Формат : AC-3
Формат/Информация : Audio Coding 3
Параметр Endianness формата : Big
Идентификатор кодека : A_AC3
Продолжительность : 1 ч. 56 м.
Вид битрейта : Постоянный
Битрейт : 192 Кбит/сек
Каналы : 2 канала
Расположение каналов : Front: L R
Частота : 48,0 КГц
Частота кадров : 31,250 кадров/сек (1536 SPF)
Битовая глубина : 16 бит
Метод сжатия : С потерями
Задержка видео : 224 мс.
Размер потока : 160 Мбайт (5%)
Заголовок : Профессиональный (многоголосый закадровый) Нева 1
Язык : Russian
ServiceKind/String : Complete Main
Default : Нет
Forced : Нет

Аудио #8
Идентификатор : 9
Формат : AC-3
Формат/Информация : Audio Coding 3
Параметр Endianness формата : Big
Идентификатор кодека : A_AC3
Продолжительность : 1 ч. 56 м.
Вид битрейта : Постоянный
Битрейт : 192 Кбит/сек
Каналы : 2 канала
Расположение каналов : Front: L R
Частота : 48,0 КГц
Частота кадров : 31,250 кадров/сек (1536 SPF)
Битовая глубина : 16 бит
Метод сжатия : С потерями
Задержка видео : 224 мс.
Размер потока : 160 Мбайт (5%)
Заголовок : Комментарии Рассел Малкэй
Язык : Russian
ServiceKind/String : Complete Main
Default : Нет
Forced : Нет

Аудио #9
Идентификатор : 10
Формат : AC-3
Формат/Информация : Audio Coding 3
Параметр Endianness формата : Big
Идентификатор кодека : A_AC3
Продолжительность : 1 ч. 56 м.
Вид битрейта : Постоянный
Битрейт : 448 Кбит/сек
Каналы : 6 каналов
Расположение каналов : Front: L C R, Side: L R, LFE
Частота : 48,0 КГц
Частота кадров : 31,250 кадров/сек (1536 SPF)
Битовая глубина : 16 бит
Метод сжатия : С потерями
Задержка видео : 224 мс.
Размер потока : 374 Мбайт (11%)
Язык : English
ServiceKind/String : Complete Main
Default : Нет
Forced : Нет

Текст #1
Идентификатор : 11
Формат : UTF-8
Идентификатор кодека : S_TEXT/UTF8
Идентификатор кодека/Информация : UTF-8 Plain Text
Продолжительность : 1 ч. 52 м.
Битрейт : 46 бит/сек
ElementCount : 734
Размер потока : 38,2 Кбайт (0%)
Язык : Russian
Default : Нет
Forced : Нет

Текст #2
Идентификатор : 12
Формат : UTF-8
Идентификатор кодека : S_TEXT/UTF8
Идентификатор кодека/Информация : UTF-8 Plain Text
Продолжительность : 1 ч. 50 м.
Битрейт : 27 бит/сек
ElementCount : 734
Размер потока : 22,6 Кбайт (0%)
Язык : English
Default : Нет
Forced : Нет

Меню
00:00:00.000 : en:
00:11:20.958 : en:
00:16:50.875 : en:
00:19:31.333 : en:
00:23:42.708 : en:
00:26:13.750 : en:
00:28:18.250 : en:
00:32:48.166 : en:
00:35:28.208 : en:
00:39:58.041 : en:
00:45:33.708 : en:
00:49:36.291 : en:
00:52:02.000 : en:
00:59:15.708 : en:
01:03:41.000 : en:
01:09:15.625 : en:
01:13:44.250 : en:
01:25:02.583 : en:
01:27:47.916 : en:
01:32:54.750 : en:
01:37:20.583 : en:
01:40:41.291 : en:
01:51:44.916 : en:
01:53:19.041 : en:




Название: Горец 2: Оживление
Оригинальное название: /Highlander II: The Quickening
Дата выхода:1994
Жанр:фантастика, фэнтези, боевик, триллер, приключения
Страна:Великобритания, Франция, Аргентина
Субтитры: русские, английские
Перевод: Профессиональный (полное дублирование), Профессиональный (многоголосый закадровый), Профессиональный (двухголосый закадровый)
Продолжительность:: 01:49:43
Режиссёр: Расселл Малкахи
В ролях: Кристофер Ламберт, Шон Коннери, Вирджиния Мэдсен, Майкл Айронсайд, Аллан Рич, Джон К. МакГинли, Филлип Брок, Расти Швиммер, Эд Трукко
Описание: 1999 год: с истощением озонового слоя жизнь на земле становится опасной для людей, и Коннор Маклауд возглавляет строительство гигантского энергетического щита для защиты земного шара.

2034 год: использование щита могущественной корпорацией обрекает планету на экологическую катастрофу. Коннор Маклауд ведет жизнь простого смертного. Но когда Катана — правитель планеты Зейст, прародины всех бессмертных воинов, бросает вызов Горцу, Маклауд вновь обретает свою мистическую силу.

Он оживляет своего учителя Рамиреса, и они вступают в решающее сражение с прибывшим на Землю Катаной и с корпорацией для того, чтобы разрушить энергетический щит и вернуть планете солнечный свет.



Качество: BDRip 720р
Формат файла: MKV
Видео: 1280x544, MPEG4/AVC, High@L4.1, 23,976 кадра/сек, ~3444 Кбит/сек
Аудио: 48,0 КГц, AC3 Dolby Digital, 2 ch, 192 kbps Профессиональный (полное дублирование) РТР
Аудио: 48,0 КГц, AC3 Dolby Digital, 3/2 (L,C,R,l,r) + LFE ch, 448 kbps Профессиональный (двухголосый закадровый) Blu-ray CEE
Аудио: 48,0 КГц, AC3 Dolby Digital, 3/2 (L,C,R,l,r) + LFE ch, 448 kbps Профессиональный (многоголосый закадровый) DVD | DVD Group
Аудио: 48,0 КГц, AC3 Dolby Digital, 2 ch, 192 kbps Профессиональный (многоголосый закадровый) ТВЦ
Аудио: 48,0 КГц, AC3 Dolby Digital, 3/2 (L,C,R,l,r) + LFE ch, 448 kbps Оригинальная аудиодорожка: английский
Общее
Уникальный идентификатор : 223300023274130195781712106795612951716 (0xA7FE0527EF385A0E8B3399B9A49AD4A4)
Полное имя : D:\Данияр\Раздача\Highlander Collection.daniyar.esmuhanov\Горец 2 Оживление (фантастика, фэнтези, боевик, триллер, приключения) 1991 Режиссерская версия.mkv
Формат : Matroska
Версия формата : Version 4 / Version 2
Размер файла : 2,43 Гбайт
Продолжительность : 1 ч. 49 м.
Название фильма : Исходник: Blu-ray Disc | Автор рипа: Есмуханов Данияр Исламбекович | daniyar.esmuhanov
Программа кодирования : mkvmerge v8.3.0 ('Over the Horizon') 64bit
Библиотека кодирования : libebml v1.3.1 + libmatroska v1.4.2

Видео
Идентификатор : 1
Формат : AVC
Формат/Информация : Advanced Video Codec
Профиль формата : High@L4.1
Настройки формата : CABAC / 4 Ref Frames
Параметр CABAC формата : Да
Параметр RefFrames формата : 4 кадра
Идентификатор кодека : V_MPEG4/ISO/AVC
Продолжительность : 1 ч. 49 м.
Максимальный битрейт : 62,5 Мбит/сек
Вид битрейта : Переменный
Переменный битрейт : 5444 Кбит/сек | 1444 Кбит/сек | 3444 Кбит/сек
Битрейт : 3444 Кбит/сек
Ширина : 1280 пикселей
Высота : 544 пикселя
Соотношение сторон : 2,35:1
Режим частоты кадров : Переменный
Частота кадров : 23,976 кадра/сек
Цветовое пространство : YUV
Субдискретизация насыщенности : 4:2:0
Битовая глубина : 8 бит
Тип развёртки : Прогрессивная
Бит/(Пиксели*Кадры) : 0.086
Размер потока : 1,11 Гбайт (45%)
Заголовок : Исходник: Blu-ray Disc | Автор рипа: Есмуханов Данияр Исламбекович | daniyar.esmuhanov
Библиотека кодирования : x264 core 130 r2273 b3065e6
Настройки программы : cabac=1 / ref=1 / deblock=1:-1:-1 / analyse=0x3:0x113 / me=hex / subme=2 / psy=1 / psy_rd=1.00:0.15 / mixed_ref=0 / me_range=16 / chroma_me=1 / trellis=0 / 8x8dct=1 / cqm=0 / deadzone=21,11 / fast_pskip=1 / chroma_qp_offset=0 / threads=6 / lookahead_threads=2 / sliced_threads=0 / nr=0 / decimate=1 / interlaced=0 / bluray_compat=0 / constrained_intra=0 / bframes=3 / b_pyramid=2 / b_adapt=1 / b_bias=0 / direct=1 / weightb=1 / open_gop=0 / weightp=1 / keyint=240 / keyint_min=24 / scenecut=40 / intra_refresh=0 / rc_lookahead=10 / rc=2pass / mbtree=1 / bitrate=3444 / ratetol=1.0 / qcomp=0.60 / qpmin=0 / qpmax=69 / qpstep=4 / cplxblur=20.0 / qblur=0.5 / vbv_maxrate=62500 / vbv_bufsize=78125 / nal_hrd=none / ip_ratio=1.40 / aq=1:1.00
Язык : English
Default : Да
Forced : Да
Цветовой диапазон : Limited
Основные цвета : BT.709
Характеристики трансфера : BT.709
Коэффициенты матрицы : BT.709

Аудио #1
Идентификатор : 2
Формат : AC-3
Формат/Информация : Audio Coding 3
Параметр Endianness формата : Big
Идентификатор кодека : A_AC3
Продолжительность : 1 ч. 49 м.
Вид битрейта : Постоянный
Битрейт : 192 Кбит/сек
Каналы : 2 канала
Расположение каналов : Front: L R
Частота : 48,0 КГц
Частота кадров : 31,250 кадров/сек (1536 SPF)
Битовая глубина : 16 бит
Метод сжатия : С потерями
Размер потока : 151 Мбайт (6%)
Заголовок : Профессиональный (полное дублирование) РТР
Язык : Russian
ServiceKind/String : Complete Main
Default : Да
Forced : Да

Аудио #2
Идентификатор : 3
Формат : AC-3
Формат/Информация : Audio Coding 3
Параметр Endianness формата : Big
Идентификатор кодека : A_AC3
Продолжительность : 1 ч. 49 м.
Вид битрейта : Постоянный
Битрейт : 448 Кбит/сек
Каналы : 6 каналов
Расположение каналов : Front: L C R, Side: L R, LFE
Частота : 48,0 КГц
Частота кадров : 31,250 кадров/сек (1536 SPF)
Битовая глубина : 16 бит
Метод сжатия : С потерями
Размер потока : 351 Мбайт (14%)
Заголовок : Профессиональный (двухголосый закадровый) Blu-ray CEE
Язык : Russian
ServiceKind/String : Complete Main
Default : Нет
Forced : Нет

Аудио #3
Идентификатор : 4
Формат : AC-3
Формат/Информация : Audio Coding 3
Параметр Endianness формата : Big
Идентификатор кодека : A_AC3
Продолжительность : 1 ч. 49 м.
Вид битрейта : Постоянный
Битрейт : 448 Кбит/сек
Каналы : 6 каналов
Расположение каналов : Front: L C R, Side: L R, LFE
Частота : 48,0 КГц
Частота кадров : 31,250 кадров/сек (1536 SPF)
Битовая глубина : 16 бит
Метод сжатия : С потерями
Размер потока : 351 Мбайт (14%)
Заголовок : Профессиональный (многоголосый закадровый) DVD | DVD Group
Язык : Russian
ServiceKind/String : Complete Main
Default : Нет
Forced : Нет

Аудио #4
Идентификатор : 5
Формат : AC-3
Формат/Информация : Audio Coding 3
Параметр Endianness формата : Big
Идентификатор кодека : A_AC3
Продолжительность : 1 ч. 49 м.
Вид битрейта : Постоянный
Битрейт : 192 Кбит/сек
Каналы : 2 канала
Расположение каналов : Front: L R
Частота : 48,0 КГц
Частота кадров : 31,250 кадров/сек (1536 SPF)
Битовая глубина : 16 бит
Метод сжатия : С потерями
Размер потока : 151 Мбайт (6%)
Заголовок : Профессиональный (многоголосый закадровый) ТВЦ
Язык : Russian
ServiceKind/String : Complete Main
Default : Нет
Forced : Нет

Аудио #5
Идентификатор : 6
Формат : AC-3
Формат/Информация : Audio Coding 3
Параметр Endianness формата : Big
Идентификатор кодека : A_AC3
Продолжительность : 1 ч. 49 м.
Вид битрейта : Постоянный
Битрейт : 448 Кбит/сек
Каналы : 6 каналов
Расположение каналов : Front: L C R, Side: L R, LFE
Частота : 48,0 КГц
Частота кадров : 31,250 кадров/сек (1536 SPF)
Битовая глубина : 16 бит
Метод сжатия : С потерями
Размер потока : 352 Мбайт (14%)
Язык : English
ServiceKind/String : Complete Main
Default : Нет
Forced : Нет

Текст #1
Идентификатор : 7
Формат : UTF-8
Идентификатор кодека : S_TEXT/UTF8
Идентификатор кодека/Информация : UTF-8 Plain Text
Продолжительность : 1 ч. 43 м.
Битрейт : 48 бит/сек
ElementCount : 666
Размер потока : 36,6 Кбайт (0%)
Язык : Russian
Default : Нет
Forced : Нет

Текст #2
Идентификатор : 8
Формат : UTF-8
Идентификатор кодека : S_TEXT/UTF8
Идентификатор кодека/Информация : UTF-8 Plain Text
Продолжительность : 1 ч. 38 м.
Битрейт : 34 бит/сек
ElementCount : 808
Размер потока : 24,7 Кбайт (0%)
Язык : English
Default : Нет
Forced : Нет

Меню
00:00:00.000 : en:00:00:00.000
00:04:29.060 : en:00:04:29.060
00:09:31.195 : en:00:09:31.195
00:14:15.521 : en:00:14:15.521
00:18:00.496 : en:00:18:00.496
00:22:52.996 : en:00:22:52.996
00:29:15.003 : en:00:29:15.003
00:34:50.087 : en:00:34:50.087
00:39:19.357 : en:00:39:19.357
00:43:51.629 : en:00:43:51.629
00:48:17.185 : en:00:48:17.185
00:53:03.180 : en:00:53:03.180
00:58:02.729 : en:00:58:02.729
01:02:35.918 : en:01:02:35.918
01:06:16.889 : en:01:06:16.889
01:12:32.973 : en:01:12:32.973
01:16:28.041 : en:01:16:28.041
01:21:30.427 : en:01:21:30.427
01:25:50.395 : en:01:25:50.395
01:31:07.670 : en:01:31:07.670
01:36:55.142 : en:01:36:55.142
01:38:25.774 : en:01:38:25.774
01:41:09.980 : en:01:41:09.980
01:43:45.218 : en:01:43:45.218




Название: Горец 3: Последнее измерение
Оригинальное название: /Highlander III: The Sorcerer
Дата выхода:1994
Жанр:фантастика, фэнтези, боевик, мелодрама
Страна:Канада, Франция, Великобритания
Субтитры: русские, английские
Перевод: Профессиональный (полное дублирование), Профессиональный (многоголосый закадровый), Профессиональный (двухголосый закадровый), Авторский (одноголосый закадровый)
Продолжительность:: 01:49:43
Режиссёр: Эндрю Морахэн
В ролях:Кристофер Ламберт, Марио Ван Пиблз, Дебора Кара Ангер, Мако, Рауль Трухильо, Жан-Пьерр Перуссе, Мартин Ньюфелд, Фредерик Й. Окимура, Габриэль Какон
Описание: Бессмертный воин Коннор Маклауд вновь вызван на поединок, на этот раз своим самым могущественным врагом, Колдуном Кейном, заточенным под мистической горой в Японии 300 лет назад и достигшим невероятной магической силы.

Ничего не подозревающие археологи освобождают Кейна. Для того, чтобы править миром колдуну нужна магическая энергия, которую он сможет получить только убив Горца. Маклауд скрывается в родные горы Шотландии, чтобы подготовиться к решающей битве и выковать новый меч в старинной кузнице.

Он встречает Алекс, ученую из музея Античной Истории. Много лет назад в другой жизни Алекс и Маклауд любили друг друга. Алекс пытается его поддержать, окончательно разгадав мистическое предназначение сражения Горца с Колдуном, которое может положить конец вечной войне за магическую энергию, сверхъестественное могущество и абсолютную власть над миром.



Качество: BDRip 720р
Формат файла: MKV
Видео: 1280x544, MPEG4/AVC, High@L4.1, 23,976 (24000/1001) кадра/сек, ~3444 Кбит/сек
Аудио: 48,0 КГц, AC3 Dolby Digital, 3/2 (L,C,R,l,r) + LFE ch, 448 kbps Профессиональный (многоголосый закадровый) Амальгама | Blu-ray CEE
Аудио: 48,0 КГц, AC3 Dolby Digital, 2 ch, 192 kbps Профессиональный (многоголосый закадровый) Нева 1 | Екатеринбург Арт
Аудио: 48,0 КГц, AC3 Dolby Digital, 2 ch, 192 kbps Профессиональный (многоголосый закадровый) РТР | НТВ
Аудио: 48,0 КГц, AC3 Dolby Digital, 2 ch, 192 kbps Профессиональный (многоголосый закадровый) ОРТ | Первый канал
Аудио: 48,0 КГц, AC3 Dolby Digital, 2 ch, 192 kbps Профессиональный (многоголосый закадровый) РЕН ТВ
Аудио: 48,0 КГц, AC3 Dolby Digital, 3/2 (L,C,R,l,r) + LFE ch, 448 kbps Оригинальная аудиодорожка: английский
Общее
Уникальный идентификатор : 196504141856148413157751442697976021805 (0x93D5523396CFE397994E608AEE60032D)
Полное имя : D:\Данияр\Раздача\Highlander Collection.daniyar.esmuhanov\Горец 3 Последнее измерение (фантастика, фэнтези, боевик, мелодрама) 1994.mkv
Формат : Matroska
Версия формата : Version 4 / Version 2
Размер файла : 2,15 Гбайт
Продолжительность : 1 ч. 38 м.
Название фильма : Исходник: Blu-ray Disc | Автор рипа: Есмуханов Данияр Исламбекович | daniyar.esmuhanov
Программа кодирования : mkvmerge v8.3.0 ('Over the Horizon') 64bit
Библиотека кодирования : libebml v1.3.1 + libmatroska v1.4.2

Видео
Идентификатор : 1
Формат : AVC
Формат/Информация : Advanced Video Codec
Профиль формата : High@L4.1
Настройки формата : CABAC / 4 Ref Frames
Параметр CABAC формата : Да
Параметр RefFrames формата : 4 кадра
Идентификатор кодека : V_MPEG4/ISO/AVC
Продолжительность : 1 ч. 38 м.
Вид битрейта : Переменный
Переменный битрейт : 5444 Кбит/сек | 1444 Кбит/сек | 3444 Кбит/сек
Битрейт : 3444 Кбит/сек
Ширина : 1280 пикселей
Высота : 544 пикселя
Соотношение сторон : 2,35:1
Режим частоты кадров : Переменный
Частота кадров : 23,976 (24000/1001) кадра/сек
Цветовое пространство : YUV
Субдискретизация насыщенности : 4:2:0
Битовая глубина : 8 бит
Тип развёртки : Прогрессивная
Бит/(Пиксели*Кадры) : 0.086
Размер потока : 1021 Мбайт (46%)
Заголовок : Исходник: Blu-ray Disc | Автор рипа: Есмуханов Данияр Исламбекович | daniyar.esmuhanov
Библиотека кодирования : x264 core 130 r2273 b3065e6
Настройки программы : cabac=1 / ref=1 / deblock=1:-1:-1 / analyse=0x3:0x113 / me=hex / subme=2 / psy=1 / psy_rd=1.00:0.15 / mixed_ref=0 / me_range=16 / chroma_me=1 / trellis=0 / 8x8dct=1 / cqm=0 / deadzone=21,11 / fast_pskip=1 / chroma_qp_offset=0 / threads=6 / lookahead_threads=2 / sliced_threads=0 / nr=0 / decimate=1 / interlaced=0 / bluray_compat=0 / constrained_intra=0 / bframes=3 / b_pyramid=2 / b_adapt=1 / b_bias=0 / direct=1 / weightb=1 / open_gop=0 / weightp=1 / keyint=240 / keyint_min=24 / scenecut=40 / intra_refresh=0 / rc_lookahead=10 / rc=2pass / mbtree=1 / bitrate=3444 / ratetol=1.0 / qcomp=0.60 / qpmin=0 / qpmax=69 / qpstep=4 / cplxblur=20.0 / qblur=0.5 / vbv_maxrate=62500 / vbv_bufsize=78125 / nal_hrd=none / ip_ratio=1.40 / aq=1:1.00
Язык : English
Default : Да
Forced : Да
Цветовой диапазон : Limited
Основные цвета : BT.709
Характеристики трансфера : BT.709
Коэффициенты матрицы : BT.709

Аудио #1
Идентификатор : 2
Формат : AC-3
Формат/Информация : Audio Coding 3
Параметр Endianness формата : Big
Идентификатор кодека : A_AC3
Продолжительность : 1 ч. 38 м.
Вид битрейта : Постоянный
Битрейт : 448 Кбит/сек
Каналы : 6 каналов
Расположение каналов : Front: L C R, Side: L R, LFE
Частота : 48,0 КГц
Частота кадров : 31,250 кадров/сек (1536 SPF)
Битовая глубина : 16 бит
Метод сжатия : С потерями
Размер потока : 316 Мбайт (14%)
Заголовок : Профессиональный (многоголосый закадровый) Амальгама | Blu-ray CEE
Язык : Russian
ServiceKind/String : Complete Main
Default : Да
Forced : Да

Аудио #2
Идентификатор : 3
Формат : AC-3
Формат/Информация : Audio Coding 3
Параметр Endianness формата : Big
Идентификатор кодека : A_AC3
Продолжительность : 1 ч. 38 м.
Вид битрейта : Постоянный
Битрейт : 192 Кбит/сек
Каналы : 2 канала
Расположение каналов : Front: L R
Частота : 48,0 КГц
Частота кадров : 31,250 кадров/сек (1536 SPF)
Битовая глубина : 16 бит
Метод сжатия : С потерями
Размер потока : 136 Мбайт (6%)
Заголовок : Профессиональный (многоголосый закадровый) Нева 1 | Екатеринбург Арт
Язык : Russian
ServiceKind/String : Complete Main
Default : Нет
Forced : Нет

Аудио #3
Идентификатор : 4
Формат : AC-3
Формат/Информация : Audio Coding 3
Параметр Endianness формата : Big
Идентификатор кодека : A_AC3
Продолжительность : 1 ч. 38 м.
Вид битрейта : Постоянный
Битрейт : 192 Кбит/сек
Каналы : 2 канала
Расположение каналов : Front: L R
Частота : 48,0 КГц
Частота кадров : 31,250 кадров/сек (1536 SPF)
Битовая глубина : 16 бит
Метод сжатия : С потерями
Размер потока : 136 Мбайт (6%)
Заголовок : Профессиональный (многоголосый закадровый) РТР | НТВ
Язык : Russian
ServiceKind/String : Complete Main
Default : Нет
Forced : Нет

Аудио #4
Идентификатор : 5
Формат : AC-3
Формат/Информация : Audio Coding 3
Параметр Endianness формата : Big
Идентификатор кодека : A_AC3
Продолжительность : 1 ч. 38 м.
Вид битрейта : Постоянный
Битрейт : 192 Кбит/сек
Каналы : 2 канала
Расположение каналов : Front: L R
Частота : 48,0 КГц
Частота кадров : 31,250 кадров/сек (1536 SPF)
Битовая глубина : 16 бит
Метод сжатия : С потерями
Размер потока : 136 Мбайт (6%)
Заголовок : Профессиональный (многоголосый закадровый) ОРТ | Первый канал
Язык : Russian
ServiceKind/String : Complete Main
Default : Нет
Forced : Нет

Аудио #5
Идентификатор : 6
Формат : AC-3
Формат/Информация : Audio Coding 3
Параметр Endianness формата : Big
Идентификатор кодека : A_AC3
Продолжительность : 1 ч. 38 м.
Вид битрейта : Постоянный
Битрейт : 192 Кбит/сек
Каналы : 2 канала
Расположение каналов : Front: L R
Частота : 48,0 КГц
Частота кадров : 31,250 кадров/сек (1536 SPF)
Битовая глубина : 16 бит
Метод сжатия : С потерями
Размер потока : 136 Мбайт (6%)
Заголовок : Профессиональный (многоголосый закадровый) РЕН ТВ
Язык : Russian
ServiceKind/String : Complete Main
Default : Нет
Forced : Нет

Аудио #6
Идентификатор : 7
Формат : AC-3
Формат/Информация : Audio Coding 3
Параметр Endianness формата : Big
Идентификатор кодека : A_AC3
Продолжительность : 1 ч. 38 м.
Вид битрейта : Постоянный
Битрейт : 448 Кбит/сек
Каналы : 6 каналов
Расположение каналов : Front: L C R, Side: L R, LFE
Частота : 48,0 КГц
Частота кадров : 31,250 кадров/сек (1536 SPF)
Битовая глубина : 16 бит
Метод сжатия : С потерями
Размер потока : 317 Мбайт (14%)
Язык : English
ServiceKind/String : Complete Main
Default : Нет
Forced : Нет

Текст #1
Идентификатор : 8
Формат : UTF-8
Идентификатор кодека : S_TEXT/UTF8
Идентификатор кодека/Информация : UTF-8 Plain Text
Продолжительность : 1 ч. 13 м.
Битрейт : 0 бит/сек
ElementCount : 9
Размер потока : 357 байт (0%)
Заголовок : Форсированные
Язык : Russian
Default : Да
Forced : Да

Текст #2
Идентификатор : 9
Формат : UTF-8
Идентификатор кодека : S_TEXT/UTF8
Идентификатор кодека/Информация : UTF-8 Plain Text
Продолжительность : 1 ч. 33 м.
Битрейт : 39 бит/сек
ElementCount : 519
Размер потока : 27,1 Кбайт (0%)
Язык : Russian
Default : Нет
Forced : Нет

Текст #3
Идентификатор : 10
Формат : UTF-8
Идентификатор кодека : S_TEXT/UTF8
Идентификатор кодека/Информация : UTF-8 Plain Text
Продолжительность : 39 м. 28 с.
Битрейт : 0 бит/сек
ElementCount : 4
Размер потока : 149 байт (0%)
Заголовок : Форсированные
Язык : English
Default : Нет
Forced : Нет

Текст #4
Идентификатор : 11
Формат : UTF-8
Идентификатор кодека : S_TEXT/UTF8
Идентификатор кодека/Информация : UTF-8 Plain Text
Продолжительность : 1 ч. 33 м.
Битрейт : 32 бит/сек
ElementCount : 611
Размер потока : 22,2 Кбайт (0%)
Язык : English
Default : Нет
Forced : Нет

Меню
00:00:00.000 : :Chapter 01
00:08:52.490 : :Chapter 02
00:16:47.548 : :Chapter 03
00:25:31.863 : :Chapter 04
00:33:19.163 : :Chapter 05
00:41:25.399 : :Chapter 06
00:50:46.334 : :Chapter 07
00:58:26.544 : :Chapter 08
01:09:02.847 : :Chapter 09
01:17:29.853 : :Chapter 10
01:25:26.704 : :Chapter 11
01:34:14.607 : :Chapter 12
01:38:53.886 : :Chapter 13




Название: Горец 4: Конец игры
Оригинальное название: /Highlander III: The Sorcerer
Дата выхода:2000
Жанр:фантастика, фэнтези, боевик, приключения
Страна:США
Субтитры: русские, английские
Перевод: Профессиональный (полное дублирование), Профессиональный (двухголосый закадровый)
Продолжительность:: 01:40:10
Режиссёр:Дуглас Арниокоски
В ролях:Эдриан Пол, Кристофер Ламберт, Брюс Пэйн, Лиза Барбуша, Донни Ен, Джим Бернс, Питер Уингфилд, Дэймон Дэш ,Бети Эдни, Шила Гиш
Описание:Прошедшие сквозь пространство и время двое бессмертных: Коннор и Дункан Маклауды сталкиваются с общим врагом — Джейкобом Келлом, самым могущественным из оставшихся воинов.

И теперь, когда впервые нарушены незыблемые правила, время подводит жестокий итог: в схватке бессмертных должен остаться только один!



Качество: BDRip 720р
Формат файла: MKV
Видео: 1280x544, MPEG4/AVC, High@L4.1, 23,976 (24000/1001) кадра/сек, ~3444 Кбит/сек
Аудио: 48,0 КГц, AC3 Dolby Digital, 2 ch, 192 kbps Профессиональный (двухголосый закадровый) HTB+
Аудио: 48,0 КГц, AC3 Dolby Digital, 2 ch, 192 kbps Профессиональный (двухголосый закадровый) SDI Media
Аудио: 48,0 КГц, AC3 Dolby Digital, 3/2 (L,C,R,l,r) + LFE ch, 448 kbps Профессиональный (дублированный) Blu-ray CEE + вставки Cубтитры на расширенные места
Аудио: 48,0 КГц, AC3 Dolby Digital, 3/2 (L,C,R,l,r) + LFE ch, 448 kbps Оригинальная аудиодорожка: английский
Общее
Уникальный идентификатор : 188612148430777381345321925543388299966 (0x8DE560E259390307B1B8EFCCBCACC2BE)
Полное имя : D:\Данияр\Раздача\Highlander Collection.daniyar.esmuhanov\Горец 4 Конец игры (фантастика, фэнтези, боевик, приключения) 2000 Продюсерская версия.mkv
Формат : Matroska
Версия формата : Version 4 / Version 2
Размер файла : 1,91 Гбайт
Продолжительность : 1 ч. 40 м.
Название фильма : Исходник: Blu-ray Disc | Автор рипа: Есмуханов Данияр Исламбекович | daniyar.esmuhanov
Программа кодирования : mkvmerge v8.3.0 ('Over the Horizon') 64bit
Библиотека кодирования : libebml v1.3.1 + libmatroska v1.4.2

Видео
Идентификатор : 1
Формат : AVC
Формат/Информация : Advanced Video Codec
Профиль формата : High@L4.1
Настройки формата : CABAC / 4 Ref Frames
Параметр CABAC формата : Да
Параметр RefFrames формата : 4 кадра
Идентификатор кодека : V_MPEG4/ISO/AVC
Продолжительность : 1 ч. 40 м.
Вид битрейта : Переменный
Переменный битрейт : 5444 Кбит/сек | 1444 Кбит/сек | 3444 Кбит/сек
Битрейт : 3444 Кбит/сек
Ширина : 1280 пикселей
Высота : 544 пикселя
Соотношение сторон : 2,35:1
Режим частоты кадров : Переменный
Частота кадров : 23,976 (24000/1001) кадра/сек
Цветовое пространство : YUV
Субдискретизация насыщенности : 4:2:0
Битовая глубина : 8 бит
Тип развёртки : Прогрессивная
Бит/(Пиксели*Кадры) : 0.086
Размер потока : 1,01 Гбайт (53%)
Заголовок : Исходник: Blu-ray Disc | Автор рипа: Есмуханов Данияр Исламбекович | daniyar.esmuhanov
Библиотека кодирования : x264 core 130 r2273 b3065e6
Настройки программы : cabac=1 / ref=1 / deblock=1:-1:-1 / analyse=0x3:0x113 / me=hex / subme=2 / psy=1 / psy_rd=1.00:0.15 / mixed_ref=0 / me_range=16 / chroma_me=1 / trellis=0 / 8x8dct=1 / cqm=0 / deadzone=21,11 / fast_pskip=1 / chroma_qp_offset=0 / threads=6 / lookahead_threads=2 / sliced_threads=0 / nr=0 / decimate=1 / interlaced=0 / bluray_compat=0 / constrained_intra=0 / bframes=3 / b_pyramid=2 / b_adapt=1 / b_bias=0 / direct=1 / weightb=1 / open_gop=0 / weightp=1 / keyint=240 / keyint_min=24 / scenecut=40 / intra_refresh=0 / rc_lookahead=10 / rc=2pass / mbtree=1 / bitrate=3444 / ratetol=1.0 / qcomp=0.60 / qpmin=0 / qpmax=69 / qpstep=4 / cplxblur=20.0 / qblur=0.5 / vbv_maxrate=62500 / vbv_bufsize=78125 / nal_hrd=none / ip_ratio=1.40 / aq=1:1.00
Язык : English
Default : Да
Forced : Да
Цветовой диапазон : Limited
Основные цвета : BT.709
Характеристики трансфера : BT.709
Коэффициенты матрицы : BT.709

Аудио #1
Идентификатор : 2
Формат : AC-3
Формат/Информация : Audio Coding 3
Параметр Endianness формата : Big
Идентификатор кодека : A_AC3
Продолжительность : 1 ч. 40 м.
Вид битрейта : Постоянный
Битрейт : 192 Кбит/сек
Каналы : 2 канала
Расположение каналов : Front: L R
Частота : 48,0 КГц
Частота кадров : 31,250 кадров/сек (1536 SPF)
Битовая глубина : 16 бит
Метод сжатия : С потерями
Размер потока : 138 Мбайт (7%)
Заголовок : Профессиональный (двухголосый закадровый) HTB+
Язык : Russian
ServiceKind/String : Complete Main
Default : Да
Forced : Да

Аудио #2
Идентификатор : 3
Формат : AC-3
Формат/Информация : Audio Coding 3
Параметр Endianness формата : Big
Идентификатор кодека : A_AC3
Продолжительность : 1 ч. 40 м.
Вид битрейта : Постоянный
Битрейт : 192 Кбит/сек
Каналы : 2 канала
Расположение каналов : Front: L R
Частота : 48,0 КГц
Частота кадров : 31,250 кадров/сек (1536 SPF)
Битовая глубина : 16 бит
Метод сжатия : С потерями
Размер потока : 138 Мбайт (7%)
Заголовок : Профессиональный (двухголосый закадровый) SDI Media
Язык : Russian
ServiceKind/String : Complete Main
Default : Нет
Forced : Нет

Аудио #3
Идентификатор : 4
Формат : AC-3
Формат/Информация : Audio Coding 3
Параметр Endianness формата : Big
Идентификатор кодека : A_AC3
Продолжительность : 1 ч. 40 м.
Вид битрейта : Постоянный
Битрейт : 448 Кбит/сек
Каналы : 6 каналов
Расположение каналов : Front: L C R, Side: L R, LFE
Частота : 48,0 КГц
Частота кадров : 31,250 кадров/сек (1536 SPF)
Битовая глубина : 16 бит
Метод сжатия : С потерями
Размер потока : 321 Мбайт (16%)
Заголовок : Профессиональный (дублированный) Blu-ray CEE + вставки Cубтитры на расширенные места
Язык : Russian
ServiceKind/String : Complete Main
Default : Нет
Forced : Нет

Аудио #4
Идентификатор : 5
Формат : AC-3
Формат/Информация : Audio Coding 3
Параметр Endianness формата : Big
Идентификатор кодека : A_AC3
Продолжительность : 1 ч. 40 м.
Вид битрейта : Постоянный
Битрейт : 448 Кбит/сек
Каналы : 6 каналов
Расположение каналов : Front: L C R, Side: L R, LFE
Частота : 48,0 КГц
Частота кадров : 31,250 кадров/сек (1536 SPF)
Битовая глубина : 16 бит
Метод сжатия : С потерями
Размер потока : 321 Мбайт (16%)
Язык : English
ServiceKind/String : Complete Main
Default : Нет
Forced : Нет

Текст #1
Идентификатор : 6
Формат : UTF-8
Идентификатор кодека : S_TEXT/UTF8
Идентификатор кодека/Информация : UTF-8 Plain Text
Продолжительность : 1 ч. 31 м.
Битрейт : 7 бит/сек
ElementCount : 127
Размер потока : 4,78 Кбайт (0%)
Заголовок : на места без перевода
Язык : Russian
Default : Нет
Forced : Нет

Текст #2
Идентификатор : 7
Формат : UTF-8
Идентификатор кодека : S_TEXT/UTF8
Идентификатор кодека/Информация : UTF-8 Plain Text
Продолжительность : 1 ч. 31 м.
Битрейт : 53 бит/сек
ElementCount : 857
Размер потока : 36,0 Кбайт (0%)
Язык : Russian
Default : Нет
Forced : Нет

Текст #3
Идентификатор : 8
Формат : UTF-8
Идентификатор кодека : S_TEXT/UTF8
Идентификатор кодека/Информация : UTF-8 Plain Text
Продолжительность : 1 ч. 35 м.
Битрейт : 37 бит/сек
ElementCount : 1070
Размер потока : 26,1 Кбайт (0%)
Язык : English
Default : Нет
Forced : Нет

Меню
00:00:00.000 : en:Chapter 1
00:08:52.365 : en:Chapter 2
00:16:47.423 : en:Chapter 3
00:25:31.738 : en:Chapter 4
00:33:19.080 : en:Chapter 5
00:41:25.232 : en:Chapter 6
00:50:46.334 : en:Chapter 7
00:58:26.461 : en:Chapter 8
01:09:02.763 : en:Chapter 9
01:14:30.716 : en:Chapter 10
01:21:23.461 : en:Chapter 11
01:34:42.426 : en:Chapter 12




Название: Горец 5 Источник
Оригинальное название: /Highlander: The Source
Дата выхода:2007
Жанр:фантастика, фэнтези, боевик, приключения
Страна:Великобритания, Литва
Субтитры:английские
Перевод: Профессиональный (многоголосый закадровый), Профессиональный (двухголосый закадровый), Авторский (одноголосый закадровый)
Продолжительность:: 01:38:38
Режиссёр:Бретт Леонард
В ролях: Мир погружается во всеобщий хаос. Бродя по руинам города, Горец — Дункан МакЛауд — снова и снова погружается в воспоминания о тех счастливых временах, когда любовь его жизни была рядом…

Безучастный ко всему, он собирает команду Бессмертных, среди которых и его таинственный Друг, Наблюдатель — Джо Доусон. Отряд отправляется на поиски Источника Бессмертия…



Качество: BDRip 720р
Формат файла: MKV
Видео: 1280x544, MPEG4/AVC, High@L4.1, 23,976 (24000/1001) кадра/сек, ~3444 Кбит/сек
Аудио: 48,0 КГц, AC3 Dolby Digital, 3/2 (L,C,R,l,r) + LFE ch, 448 kbps Профессиональный (многоголосый закадровый) Blu-ray CEE
Аудио: 48,0 КГц, AC3 Dolby Digital, 3/2 (L,C,R,l,r) + LFE ch, 448 kbps Оригинальная аудиодорожка: английский
Общее
Уникальный идентификатор : 251440651655153705670559580507110314838 (0xBD29B5412F4A7E81822CC60764E31356)
Полное имя : D:\Данияр\Раздача\Highlander Collection.daniyar.esmuhanov\Горец 5 Источник (фантастика, фэнтези, боевик, приключения) 2007 Расширенная версия.mkv
Формат : Matroska
Версия формата : Version 4 / Version 2
Размер файла : 1,61 Гбайт
Продолжительность : 1 ч. 38 м.
Название фильма : Исходник: Blu-ray Disc | Автор рипа: Есмуханов Данияр Исламбекович | daniyar.esmuhanov
Программа кодирования : mkvmerge v8.3.0 ('Over the Horizon') 64bit
Библиотека кодирования : libebml v1.3.1 + libmatroska v1.4.2

Видео
Идентификатор : 1
Формат : AVC
Формат/Информация : Advanced Video Codec
Профиль формата : High@L4.1
Настройки формата : CABAC / 4 Ref Frames
Параметр CABAC формата : Да
Параметр RefFrames формата : 4 кадра
Идентификатор кодека : V_MPEG4/ISO/AVC
Продолжительность : 1 ч. 38 м.
Вид битрейта : Переменный
Переменный битрейт : 5444 Кбит/сек | 1444 Кбит/сек | 3444 Кбит/сек
Битрейт : 3444 Кбит/сек
Ширина : 1280 пикселей
Высота : 544 пикселя
Соотношение сторон : 2,35:1
Режим частоты кадров : Переменный
Частота кадров : 23,976 (24000/1001) кадра/сек
Цветовое пространство : YUV
Субдискретизация насыщенности : 4:2:0
Битовая глубина : 8 бит
Тип развёртки : Прогрессивная
Бит/(Пиксели*Кадры) : 0.086
Размер потока : 1019 Мбайт (62%)
Заголовок : Исходник: Blu-ray Disc | Автор рипа: Есмуханов Данияр Исламбекович | daniyar.esmuhanov
Библиотека кодирования : x264 core 130 r2273 b3065e6
Настройки программы : cabac=1 / ref=1 / deblock=1:-1:-1 / analyse=0x3:0x113 / me=hex / subme=2 / psy=1 / psy_rd=1.00:0.15 / mixed_ref=0 / me_range=16 / chroma_me=1 / trellis=0 / 8x8dct=1 / cqm=0 / deadzone=21,11 / fast_pskip=1 / chroma_qp_offset=0 / threads=6 / lookahead_threads=2 / sliced_threads=0 / nr=0 / decimate=1 / interlaced=0 / bluray_compat=0 / constrained_intra=0 / bframes=3 / b_pyramid=2 / b_adapt=1 / b_bias=0 / direct=1 / weightb=1 / open_gop=0 / weightp=1 / keyint=240 / keyint_min=24 / scenecut=40 / intra_refresh=0 / rc_lookahead=10 / rc=2pass / mbtree=1 / bitrate=3444 / ratetol=1.0 / qcomp=0.60 / qpmin=0 / qpmax=69 / qpstep=4 / cplxblur=20.0 / qblur=0.5 / vbv_maxrate=62500 / vbv_bufsize=78125 / nal_hrd=none / ip_ratio=1.40 / aq=1:1.00
Язык : English
Default : Да
Forced : Да
Цветовой диапазон : Limited
Основные цвета : BT.709
Характеристики трансфера : BT.709
Коэффициенты матрицы : BT.709

Аудио #1
Идентификатор : 2
Формат : AC-3
Формат/Информация : Audio Coding 3
Параметр Endianness формата : Big
Идентификатор кодека : A_AC3
Продолжительность : 1 ч. 38 м.
Вид битрейта : Постоянный
Битрейт : 448 Кбит/сек
Каналы : 6 каналов
Расположение каналов : Front: L C R, Side: L R, LFE
Частота : 48,0 КГц
Частота кадров : 31,250 кадров/сек (1536 SPF)
Битовая глубина : 16 бит
Метод сжатия : С потерями
Размер потока : 316 Мбайт (19%)
Заголовок : Профессиональный (многоголосый закадровый) Blu-ray CEE
Язык : Russian
ServiceKind/String : Complete Main
Default : Да
Forced : Да

Аудио #2
Идентификатор : 3
Формат : AC-3
Формат/Информация : Audio Coding 3
Параметр Endianness формата : Big
Идентификатор кодека : A_AC3
Продолжительность : 1 ч. 38 м.
Вид битрейта : Постоянный
Битрейт : 448 Кбит/сек
Каналы : 6 каналов
Расположение каналов : Front: L C R, Side: L R, LFE
Частота : 48,0 КГц
Частота кадров : 31,250 кадров/сек (1536 SPF)
Битовая глубина : 16 бит
Метод сжатия : С потерями
Размер потока : 316 Мбайт (19%)
Язык : English
ServiceKind/String : Complete Main
Default : Нет
Forced : Нет

Текст
Идентификатор : 4
Формат : UTF-8
Идентификатор кодека : S_TEXT/UTF8
Идентификатор кодека/Информация : UTF-8 Plain Text
Продолжительность : 1 ч. 30 м.
Битрейт : 29 бит/сек
ElementCount : 589
Размер потока : 19,2 Кбайт (0%)
Язык : English
Default : Нет
Forced : Нет

Меню
00:00:00.000 : en:Chapter 1
00:07:45.214 : en:Chapter 2
00:14:53.726 : en:Chapter 3
00:23:03.965 : en:Chapter 4
00:27:53.296 : en:Chapter 5
00:31:15.915 : en:Chapter 6
00:38:13.082 : en:Chapter 7
00:45:39.987 : en:Chapter 8
00:50:51.298 : en:Chapter 9
00:59:12.465 : en:Chapter 10
01:09:31.709 : en:Chapter 11
01:15:02.873 : en:Chapter 12
01:21:02.899 : en:Chapter 13
01:26:50.205 : en:Chapter 14
01:31:43.915 : en:Chapter 15
01:35:12.289 : en:Chapter 16





Rip by Есмуханов Данияр Исламбекович | daniyar.esmuhanov
Как качать, Как раздавать - Правила и инструкции
Торрент14 фев 2018, 20:32 [ 14 фев 2018, 20:32 ]

СКАЧАТЬ с просмотром рекламы
СтатусПроверен Download more
.torrent скачан7 раз
Размер11.53 ГБ (12 375 329 298)

Скорость отдачи 100 кБ/с, стою на раздаче до появления 5-10 сидов.
Основа философии BitTorrent - "Скачал сам?! Дай скачать другим, не уходи с раздачи!!!".


Вернуться в Зарубежные фильмы после 2000го года...



Кто сейчас на конференции

Сейчас этот форум просматривают: Maxkvorum

Ресурс не предоставляет электронные версии произведений, а занимается лишь коллекционированием и каталогизацией ссылок, присылаемых и публикуемых на форуме нашими читателями. Если вы являетесь правообладателем какого-либо представленного материала и не желаете чтобы ссылка на него находилась в нашем каталоге, свяжитесь с нами и мы незамедлительно удалим её. Файлы для обмена на трекере предоставлены пользователями сайта, и администрация не несёт ответственности за их содержание. Просьба не заливать файлы, защищенные авторскими правами, а также файлы нелегального содержания!