Хэллоуин / Halloween [1978-2009, ужасы, фантастика, детектив, триллер, BDRip 720р] D, Р, Р2, А | Коллекция - Скачать торрент бесплатно

Модераторы: Модераторы Фильмы, мультфильмы, Союз Риперов

Поделиться ВКонтакте Поделиться Facebook Поделиться Twitter Поделиться Mail.RU
АвторСообщение
Download more
Аватара пользователя
Модератор Фильмов
Модератор Фильмов
 
Раздал: 58.09 ТБ
Скачал: 19.43 ТБ
Ратио: 504.701
Сообщения: 950
Зарегистрирован: 19 ноя 2016, 16:36
Откуда: г. Астана, Казахстан Рипер: daniyar.esmuhanov Есмуханов Данияр Исламбекович
Награды: 18
За 100 сообщений (1) За 500 сообщений (1) 5 Тб отданного (1) 10 Тб отданного (1) 15 Тб отданного (1) 20 Тб отданного (1) 30 Тб отданного (1) 10 Тб скаченного (1) 250 релизов (1) 500 релизов (1) За 2000 полученных спасибо (1) За 4000 полученных спасибо (1) 30 рипов (1) 50 рипов (1) 200 кармы (1) 500 кармы (1) 1000 кармы (1) Халява №3 (1)
Карма: 1132
-2--2--2--2--2--2-

Сообщение Download more » 22 фев 2018, 00:42

Хэллоуин / Halloween [1978-2009, ужасы, фантастика, детектив, триллер, BDRip 720р] D, Р, Р2, А | Коллекция - Скачать торрент

Название: Хэллоуин
Оригинальное название: /Halloween
Дата выхода:1978
Жанр:ужасы, триллер
Страна:США
Субтитры:нет
Перевод: Профессиональный (многоголосый закадровый)
Продолжительность:01:30:56
Режиссёр:Джон Карпентер
В ролях: Дональд Плезенс, Джейми Ли Кёртис, Нэнси Кайс, П.Дж. Соулз, Чарльз Сайферс, Кайл Ричардс, Брайан Эндрюс, Джон Майкл Грэхэм, Нэнси Стивенс, Артур Мэлет
Описание:Убийца-психопат Майкл Майерс, будучи ребенком, совершил убийство собственной сестры в Хэллоуин — День Всех Святых.

15 лет спустя маньяк-убийца снова взялся за старое и терроризирует небольшой городок. Он сбежал из приюта для психически ненормальных, чтобы снова наносить свои смертельные удары в Хэллоуин.



Качество: BDRip 720р
Формат файла: MKV
Видео: 1280x544, MPEG4/AVC, High@L4.1, 23,976 (24000/1001) кадра/сек, ~3000 Кбит/сек
Аудио: 48,0 КГц, AC3 Dolby Digital, 3/2 (L,C,R,l,r) + LFE ch, 448 kbps Профессиональный (многоголосый закадровый) Blu-ray CEE
Общее
Уникальный идентификатор : 229793143276466299152560497280380817899 (0xACE08CB04C690BD78FE63571E8EBD1EB)
Полное имя : C:\Users\Данияр\Downloads\Фильмы\Halloween Collection.daniyar.esmuhanov\Хэллоуин (ужасы, триллер) 1978.mkv
Формат : Matroska
Версия формата : Version 4 / Version 2
Размер файла : 943 Мбайт
Продолжительность : 1 ч. 30 м.
Название фильма : Исходник: Blu-ray Disc | Автор рипа: Есмуханов Данияр Исламбекович | daniyar.esmuhanov
Программа кодирования : mkvmerge v8.3.0 ('Over the Horizon') 64bit
Библиотека кодирования : libebml v1.3.1 + libmatroska v1.4.2

Видео
Идентификатор : 1
Формат : AVC
Формат/Информация : Advanced Video Codec
Профиль формата : High@L4.1
Настройки формата : CABAC / 4 Ref Frames
Параметр CABAC формата : Да
Параметр RefFrames формата : 4 кадра
Идентификатор кодека : V_MPEG4/ISO/AVC
Продолжительность : 1 ч. 30 м.
Максимальный битрейт : 62,5 Мбит/сек
Вид битрейта : Переменный
Переменный битрейт : 5000 Кбит/сек | 1000 Кбит/сек | 3000 Кбит/сек
Битрейт : 3000 Кбит/сек
Ширина : 1280 пикселей
Высота : 544 пикселя
Соотношение сторон : 2,35:1
Режим частоты кадров : Переменный
Частота кадров : 23,976 (23976/1000) кадра/сек
Цветовое пространство : YUV
Субдискретизация насыщенности : 4:2:0
Битовая глубина : 8 бит
Тип развёртки : Прогрессивная
Бит/(Пиксели*Кадры) : 0.060
Размер потока : 650 Мбайт (69%)
Заголовок : Исходник: Blu-ray Disc | Автор рипа: Есмуханов Данияр Исламбекович | daniyar.esmuhanov
Библиотека кодирования : x264 core 130 r2273 b3065e6
Настройки программы : cabac=1 / ref=1 / deblock=1:-1:-1 / analyse=0x3:0x113 / me=hex / subme=2 / psy=1 / psy_rd=1.00:0.15 / mixed_ref=0 / me_range=16 / chroma_me=1 / trellis=0 / 8x8dct=1 / cqm=0 / deadzone=21,11 / fast_pskip=1 / chroma_qp_offset=0 / threads=6 / lookahead_threads=2 / sliced_threads=0 / nr=0 / decimate=1 / interlaced=0 / bluray_compat=0 / constrained_intra=0 / bframes=3 / b_pyramid=2 / b_adapt=1 / b_bias=0 / direct=1 / weightb=1 / open_gop=0 / weightp=1 / keyint=240 / keyint_min=24 / scenecut=40 / intra_refresh=0 / rc_lookahead=10 / rc=2pass / mbtree=1 / bitrate=3000 / ratetol=1.0 / qcomp=0.60 / qpmin=0 / qpmax=69 / qpstep=4 / cplxblur=20.0 / qblur=0.5 / vbv_maxrate=62500 / vbv_bufsize=78125 / nal_hrd=none / ip_ratio=1.40 / aq=1:1.00
Язык : English
Default : Да
Forced : Да
Цветовой диапазон : Limited
Основные цвета : BT.709
Характеристики трансфера : BT.709
Коэффициенты матрицы : BT.709

Аудио
Идентификатор : 2
Формат : AC-3
Формат/Информация : Audio Coding 3
Параметр Endianness формата : Big
Идентификатор кодека : A_AC3
Продолжительность : 1 ч. 30 м.
Вид битрейта : Постоянный
Битрейт : 448 Кбит/сек
Каналы : 6 каналов
Расположение каналов : Front: L C R, Side: L R, LFE
Частота : 48,0 КГц
Частота кадров : 31,250 кадров/сек (1536 SPF)
Битовая глубина : 16 бит
Метод сжатия : С потерями
Размер потока : 291 Мбайт (31%)
Заголовок : Профессиональный (многоголосый закадровый) Blu-ray CEE
Язык : Russian
ServiceKind/String : Complete Main
Default : Да
Forced : Да







Название: Хэллоуин 2
Оригинальное название: /Halloween
Дата выхода:1981
Жанр:ужасы, триллер
Страна:США
Субтитры:нет
Перевод: Профессиональный (двухголосый закадровый)
Продолжительность:01:32:32
Режиссёр:Рик Розенталь
В ролях: Джейми Ли Кёртис, Дональд Плезенс, Чарльз Сайферс, Джефри Крамер, Лэнс Гест, Памела Сьюзан Шуп, Хантер Фон Лир, Дик Уорлок, Лео Росси, Глория Гиффорд
Описание:31 октября 1975 года. По городу проносится волна кровавых убийств. Жители шепотом произносят имя Майкла Майерса, кровавого маньяка, который вернулся как раз на Хэллоуин. Его прежняя жертва, Лори Строуд, выжила, и он вернулся, чтобы закончить начатое. На сей раз преследования Лори приводят его в больницу, и в ее темных коридорах хладнокровный неубиваемый психопат находит свои жертвы.



Качество: BDRip 720р
Формат файла: MKV
Видео: 1280x544, MPEG4/AVC, High@L4.1, 23,976 (24000/1001) кадра/сек, ~3000 Кбит/сек
Аудио: 48,0 КГц, AC3 Dolby Digital, 3/2 (L,C,R,l,r) + LFE ch, 448 kbps Профессиональный (двухголосый закадровый) Blu-ray CEE
Общее
Уникальный идентификатор : 249351197004112183755610003951798866751 (0xBB974B2FC924320480BD7F18DADA533F)
Полное имя : C:\Users\Данияр\Downloads\Фильмы\Halloween Collection.daniyar.esmuhanov\Хэллоуин 2 (ужасы) 1981.mkv
Формат : Matroska
Версия формата : Version 4 / Version 2
Размер файла : 959 Мбайт
Продолжительность : 1 ч. 32 м.
Название фильма : Исходник: Blu-ray Disc | Автор рипа: Есмуханов Данияр Исламбекович | daniyar.esmuhanov
Программа кодирования : mkvmerge v8.3.0 ('Over the Horizon') 64bit
Библиотека кодирования : libebml v1.3.1 + libmatroska v1.4.2

Видео
Идентификатор : 1
Формат : AVC
Формат/Информация : Advanced Video Codec
Профиль формата : High@L4.1
Настройки формата : CABAC / 4 Ref Frames
Параметр CABAC формата : Да
Параметр RefFrames формата : 4 кадра
Идентификатор кодека : V_MPEG4/ISO/AVC
Продолжительность : 1 ч. 32 м.
Максимальный битрейт : 62,5 Мбит/сек
Вид битрейта : Переменный
Переменный битрейт : 5000 Кбит/сек | 1000 Кбит/сек | 3000 Кбит/сек
Битрейт : 3000 Кбит/сек
Ширина : 1280 пикселей
Высота : 544 пикселя
Соотношение сторон : 2,35:1
Режим частоты кадров : Переменный
Частота кадров : 23,976 (23976/1000) кадра/сек
Цветовое пространство : YUV
Субдискретизация насыщенности : 4:2:0
Битовая глубина : 8 бит
Тип развёртки : Прогрессивная
Бит/(Пиксели*Кадры) : 0.060
Размер потока : 661 Мбайт (69%)
Заголовок : Исходник: Blu-ray Disc | Автор рипа: Есмуханов Данияр Исламбекович | daniyar.esmuhanov
Библиотека кодирования : x264 core 130 r2273 b3065e6
Настройки программы : cabac=1 / ref=1 / deblock=1:-1:-1 / analyse=0x3:0x113 / me=hex / subme=2 / psy=1 / psy_rd=1.00:0.15 / mixed_ref=0 / me_range=16 / chroma_me=1 / trellis=0 / 8x8dct=1 / cqm=0 / deadzone=21,11 / fast_pskip=1 / chroma_qp_offset=0 / threads=6 / lookahead_threads=2 / sliced_threads=0 / nr=0 / decimate=1 / interlaced=0 / bluray_compat=0 / constrained_intra=0 / bframes=3 / b_pyramid=2 / b_adapt=1 / b_bias=0 / direct=1 / weightb=1 / open_gop=0 / weightp=1 / keyint=240 / keyint_min=24 / scenecut=40 / intra_refresh=0 / rc_lookahead=10 / rc=2pass / mbtree=1 / bitrate=3000 / ratetol=1.0 / qcomp=0.60 / qpmin=0 / qpmax=69 / qpstep=4 / cplxblur=20.0 / qblur=0.5 / vbv_maxrate=62500 / vbv_bufsize=78125 / nal_hrd=none / ip_ratio=1.40 / aq=1:1.00
Язык : English
Default : Да
Forced : Да
Цветовой диапазон : Limited
Основные цвета : BT.709
Характеристики трансфера : BT.709
Коэффициенты матрицы : BT.709

Аудио
Идентификатор : 2
Формат : AC-3
Формат/Информация : Audio Coding 3
Параметр Endianness формата : Big
Идентификатор кодека : A_AC3
Продолжительность : 1 ч. 32 м.
Вид битрейта : Постоянный
Битрейт : 448 Кбит/сек
Каналы : 6 каналов
Расположение каналов : Front: L C R, Side: L R, LFE
Частота : 48,0 КГц
Частота кадров : 31,250 кадров/сек (1536 SPF)
Битовая глубина : 16 бит
Метод сжатия : С потерями
Размер потока : 296 Мбайт (31%)
Заголовок : Профессиональный (двухголосый закадровый) Blu-ray CEE
Язык : Russian
ServiceKind/String : Complete Main
Default : Да
Forced : Да









Название: Хэллоуин 3: Сезон ведьм
Оригинальное название: /Halloween III: Season of the Witch
Дата выхода:1982
Жанр:ужасы, фантастика, детектив
Страна:США
Субтитры:нет
Перевод:Авторский (одноголосый, закадровый)
Продолжительность:01:38:02
Режиссёр:Томми Ли Уоллес
В ролях: Том Аткинс, Стейси Нелкин, Дэн О’Херлихи, Майкл Карри, Ральф Стрейт, Джэдин Барбор, Брэд Шактер, Гэрн Стефенс, Нэнси Кайс, Джонатан Терри
Описание:Безумный конструктор игрушек решает принести в жертву на Хэллоуин миллионы детей разом и готовит партию масок «Тыквоголового», которые мистическим образом срабатывают в день Праздника Всех Святых.



Качество: BDRip 720р
Формат файла: MKV
Видео: 1280x544, MPEG4/AVC, High@L4.1, 23,976 (24000/1001) кадра/сек, ~3000 Кбит/сек
Аудио: 48,0 КГц, AC3 Dolby Digital, 2ch, 192 kbps Авторский (одноголосый, закадровый) П. Карцев
Общее
Уникальный идентификатор : 170231148410004178346292868836528888523 (0x8011539D4DF09E8E91752461D37E1ACB)
Полное имя : C:\Users\Данияр\Downloads\Фильмы\Halloween Collection.daniyar.esmuhanov\Хэллоуин 3 Сезон ведьм (ужасы, фантастика, детектив) 1982.mkv
Формат : Matroska
Версия формата : Version 4 / Version 2
Размер файла : 836 Мбайт
Продолжительность : 1 ч. 38 м.
Название фильма : Исходник: Blu-ray Disc | Автор рипа: Есмуханов Данияр Исламбекович | daniyar.esmuhanov
Программа кодирования : mkvmerge v8.3.0 ('Over the Horizon') 64bit
Библиотека кодирования : libebml v1.3.1 + libmatroska v1.4.2

Видео
Идентификатор : 1
Формат : AVC
Формат/Информация : Advanced Video Codec
Профиль формата : High@L4.1
Настройки формата : CABAC / 4 Ref Frames
Параметр CABAC формата : Да
Параметр RefFrames формата : 4 кадра
Идентификатор кодека : V_MPEG4/ISO/AVC
Продолжительность : 1 ч. 37 м.
Максимальный битрейт : 62,5 Мбит/сек
Вид битрейта : Переменный
Переменный битрейт : 5000 Кбит/сек | 1000 Кбит/сек | 3000 Кбит/сек
Битрейт : 3000 Кбит/сек
Ширина : 1280 пикселей
Высота : 544 пикселя
Соотношение сторон : 2,35:1
Режим частоты кадров : Переменный
Частота кадров : 23,976 (23976/1000) кадра/сек
Цветовое пространство : YUV
Субдискретизация насыщенности : 4:2:0
Битовая глубина : 8 бит
Тип развёртки : Прогрессивная
Бит/(Пиксели*Кадры) : 0.060
Размер потока : 700 Мбайт (84%)
Заголовок : Исходник: Blu-ray Disc | Автор рипа: Есмуханов Данияр Исламбекович | daniyar.esmuhanov
Библиотека кодирования : x264 core 130 r2273 b3065e6
Настройки программы : cabac=1 / ref=1 / deblock=1:-1:-1 / analyse=0x3:0x113 / me=hex / subme=2 / psy=1 / psy_rd=1.00:0.15 / mixed_ref=0 / me_range=16 / chroma_me=1 / trellis=0 / 8x8dct=1 / cqm=0 / deadzone=21,11 / fast_pskip=1 / chroma_qp_offset=0 / threads=6 / lookahead_threads=2 / sliced_threads=0 / nr=0 / decimate=1 / interlaced=0 / bluray_compat=0 / constrained_intra=0 / bframes=3 / b_pyramid=2 / b_adapt=1 / b_bias=0 / direct=1 / weightb=1 / open_gop=0 / weightp=1 / keyint=240 / keyint_min=24 / scenecut=40 / intra_refresh=0 / rc_lookahead=10 / rc=2pass / mbtree=1 / bitrate=3000 / ratetol=1.0 / qcomp=0.60 / qpmin=0 / qpmax=69 / qpstep=4 / cplxblur=20.0 / qblur=0.5 / vbv_maxrate=62500 / vbv_bufsize=78125 / nal_hrd=none / ip_ratio=1.40 / aq=1:1.00
Язык : English
Default : Да
Forced : Да
Цветовой диапазон : Limited
Основные цвета : BT.709
Характеристики трансфера : BT.709
Коэффициенты матрицы : BT.709

Аудио
Идентификатор : 2
Формат : AC-3
Формат/Информация : Audio Coding 3
Параметр Endianness формата : Big
Идентификатор кодека : A_AC3
Продолжительность : 1 ч. 38 м.
Вид битрейта : Постоянный
Битрейт : 192 Кбит/сек
Каналы : 2 канала
Расположение каналов : Front: L R
Частота : 48,0 КГц
Частота кадров : 31,250 кадров/сек (1536 SPF)
Битовая глубина : 16 бит
Метод сжатия : С потерями
Размер потока : 135 Мбайт (16%)
Заголовок : Авторский (одноголосый, закадровый) П. Карцев
Язык : Russian
ServiceKind/String : Complete Main
Default : Да
Forced : Да









Название: Хэллоуин 4: Возвращение Майкла Майерса
Оригинальное название: /Halloween 4: The Return of Michael Myers
Дата выхода:1988
Жанр:ужасы, триллер
Страна:США
Субтитры:нет
Перевод: Авторский (одноголосый, закадровый)
Продолжительность: 1:28:17
Режиссёр:Дуайт Х. Литтл
В ролях: Дональд Плезенс, Элли Корнелл, Даниэль Харрис, Джордж П. Вилбур, Майкл Патаки, Бо Старр, Кэтлин Кинмонт, Саша Дженсон, Джин Росс, Кармен Филпи
Описание:Черное одеяние, белая мертвенная маска, нечеловеческая сила — это Майкл Майерс! Самый неистребимый монстр всех времен и народов возвращается, совершив побег при транспортировке из одной психиатрической клиники в другую. В ночь кануна всех святых он снова объявляется в родном городе, истребляя всех на своем пути к главной жертве — маленькой племяннице Джеми…



Качество: BDRip 720р
Формат файла: MKV
Видео: 1280x720, MPEG4/AVC, High@L4.1, 23,976 (24000/1001) кадра/сек, ~3000 Кбит/сек
Аудио: 48,0 КГц, AC3 Dolby Digital, 2 ch, 192 kbps Авторский (одноголосый, закадровый) Ю. Живов
Общее
Уникальный идентификатор : 248692648294497138696087131421571217772 (0xBB18763A7C8CD103B4B3796C12A6F96C)
Полное имя : C:\Users\Данияр\Downloads\Фильмы\Halloween Collection.daniyar.esmuhanov\Хэллоуин 4 Возвращение Майкла Майерса (ужасы, триллер) 1988.mkv
Формат : Matroska
Версия формата : Version 4 / Version 2
Размер файла : 754 Мбайт
Продолжительность : 1 ч. 28 м.
Название фильма : Исходник: Blu-ray Disc | Автор рипа: Есмуханов Данияр Исламбекович | daniyar.esmuhanov
Программа кодирования : mkvmerge v8.3.0 ('Over the Horizon') 64bit
Библиотека кодирования : libebml v1.3.1 + libmatroska v1.4.2

Видео
Идентификатор : 1
Формат : AVC
Формат/Информация : Advanced Video Codec
Профиль формата : High@L4.1
Настройки формата : CABAC / 4 Ref Frames
Параметр CABAC формата : Да
Параметр RefFrames формата : 4 кадра
Идентификатор кодека : V_MPEG4/ISO/AVC
Продолжительность : 1 ч. 28 м.
Максимальный битрейт : 62,5 Мбит/сек
Вид битрейта : Переменный
Переменный битрейт : 5000 Кбит/сек | 1000 Кбит/сек | 3000 Кбит/сек
Битрейт : 3000 Кбит/сек
Ширина : 1280 пикселей
Высота : 720 пикселей
Соотношение сторон : 16:9
Режим частоты кадров : Переменный
Частота кадров : 23,976 (23976/1000) кадра/сек
Цветовое пространство : YUV
Субдискретизация насыщенности : 4:2:0
Битовая глубина : 8 бит
Тип развёртки : Прогрессивная
Бит/(Пиксели*Кадры) : 0.045
Размер потока : 631 Мбайт (84%)
Заголовок : Исходник: Blu-ray Disc | Автор рипа: Есмуханов Данияр Исламбекович | daniyar.esmuhanov
Библиотека кодирования : x264 core 130 r2273 b3065e6
Настройки программы : cabac=1 / ref=1 / deblock=1:-1:-1 / analyse=0x3:0x113 / me=hex / subme=2 / psy=1 / psy_rd=1.00:0.15 / mixed_ref=0 / me_range=16 / chroma_me=1 / trellis=0 / 8x8dct=1 / cqm=0 / deadzone=21,11 / fast_pskip=1 / chroma_qp_offset=0 / threads=6 / lookahead_threads=2 / sliced_threads=0 / nr=0 / decimate=1 / interlaced=0 / bluray_compat=0 / constrained_intra=0 / bframes=3 / b_pyramid=2 / b_adapt=1 / b_bias=0 / direct=1 / weightb=1 / open_gop=0 / weightp=1 / keyint=240 / keyint_min=24 / scenecut=40 / intra_refresh=0 / rc_lookahead=10 / rc=2pass / mbtree=1 / bitrate=3000 / ratetol=1.0 / qcomp=0.60 / qpmin=0 / qpmax=69 / qpstep=4 / cplxblur=20.0 / qblur=0.5 / vbv_maxrate=62500 / vbv_bufsize=78125 / nal_hrd=none / ip_ratio=1.40 / aq=1:1.00
Язык : English
Default : Да
Forced : Да
Цветовой диапазон : Limited
Основные цвета : BT.709
Характеристики трансфера : BT.709
Коэффициенты матрицы : BT.709

Аудио
Идентификатор : 2
Формат : AC-3
Формат/Информация : Audio Coding 3
Параметр Endianness формата : Big
Идентификатор кодека : A_AC3
Продолжительность : 1 ч. 28 м.
Вид битрейта : Постоянный
Битрейт : 192 Кбит/сек
Каналы : 2 канала
Расположение каналов : Front: L R
Частота : 48,0 КГц
Частота кадров : 31,250 кадров/сек (1536 SPF)
Битовая глубина : 16 бит
Метод сжатия : С потерями
Задержка видео : 3 с. 300 мс.
Размер потока : 121 Мбайт (16%)
Заголовок : Авторский (одноголосый, закадровый) Ю. Живов
Язык : Russian
ServiceKind/String : Complete Main
Default : Да
Forced : Да







Название: Хэллоуин 5
Оригинальное название: /Halloween 5
Дата выхода:1989
Жанр:ужасы, триллер
Страна:США
Субтитры:нет
Перевод: Авторский (одноголосый закадровый)
Продолжительность:01:37:03
Режиссёр:Доминик Отенен-Жирар
В ролях: Дональд Плезенс, Даниэль Харрис, Элли Корнелл, Бо Старр, Джеффри Лэндмэн, Тамара Глинн, Джонатан Чейпин, Мэттью Уолкер, Венди Каплан, Бетти Карвальо
Описание:Прошёл год. А это означает, что вновь близится Хэллоуин и снова людям предстоит надевать страшные маски. Джейми, как мы помним, определили в хэддонфилдскую психушку, где она имела астральную связь с маньяком и видела все его действия, а также могла предсказать опасность для людей, находящихся рядом с ним. На дворе Хэллоуин, и Джейми стала проявлять признаки беспокойства, то и дело попадая в состояние трясучки. Девочка права — Майкл вернулся вновь. Вернулся, чтобы снова устроить кровавую резню…



Качество: BDRip 720р
Формат файла: MKV
Видео: 1280x720, MPEG4/AVC, High@L4.1, 23,976 (24000/1001) кадра/сек, ~3000 Кбит/сек
Аудио: 48,0 КГц, AC3 Dolby Digital, 2 ch, 192 kbps Авторский (одноголосый закадровый) VHS
Общее
Уникальный идентификатор : 222337177286734620812945957027451958872 (0xA744952F04E8415C85293054BCBEF658)
Полное имя : C:\Users\Данияр\Downloads\Фильмы\Halloween Collection.daniyar.esmuhanov\Хэллоуин 5 (ужасы, триллер) 1989.mkv
Формат : Matroska
Версия формата : Version 4 / Version 2
Размер файла : 829 Мбайт
Продолжительность : 1 ч. 37 м.
Название фильма : Исходник: Blu-ray Disc | Автор рипа: Есмуханов Данияр Исламбекович | daniyar.esmuhanov
Программа кодирования : mkvmerge v8.3.0 ('Over the Horizon') 64bit
Библиотека кодирования : libebml v1.3.1 + libmatroska v1.4.2

Видео
Идентификатор : 1
Формат : AVC
Формат/Информация : Advanced Video Codec
Профиль формата : High@L4.1
Настройки формата : CABAC / 4 Ref Frames
Параметр CABAC формата : Да
Параметр RefFrames формата : 4 кадра
Идентификатор кодека : V_MPEG4/ISO/AVC
Продолжительность : 1 ч. 37 м.
Максимальный битрейт : 62,5 Мбит/сек
Вид битрейта : Переменный
Переменный битрейт : 5000 Кбит/сек | 1000 Кбит/сек | 3000 Кбит/сек
Битрейт : 3000 Кбит/сек
Ширина : 1280 пикселей
Высота : 720 пикселей
Соотношение сторон : 16:9
Режим частоты кадров : Переменный
Частота кадров : 23,976 (23976/1000) кадра/сек
Цветовое пространство : YUV
Субдискретизация насыщенности : 4:2:0
Битовая глубина : 8 бит
Тип развёртки : Прогрессивная
Бит/(Пиксели*Кадры) : 0.045
Размер потока : 694 Мбайт (84%)
Заголовок : Исходник: Blu-ray Disc | Автор рипа: Есмуханов Данияр Исламбекович | daniyar.esmuhanov
Библиотека кодирования : x264 core 130 r2273 b3065e6
Настройки программы : cabac=1 / ref=1 / deblock=1:-1:-1 / analyse=0x3:0x113 / me=hex / subme=2 / psy=1 / psy_rd=1.00:0.15 / mixed_ref=0 / me_range=16 / chroma_me=1 / trellis=0 / 8x8dct=1 / cqm=0 / deadzone=21,11 / fast_pskip=1 / chroma_qp_offset=0 / threads=6 / lookahead_threads=2 / sliced_threads=0 / nr=0 / decimate=1 / interlaced=0 / bluray_compat=0 / constrained_intra=0 / bframes=3 / b_pyramid=2 / b_adapt=1 / b_bias=0 / direct=1 / weightb=1 / open_gop=0 / weightp=1 / keyint=240 / keyint_min=24 / scenecut=40 / intra_refresh=0 / rc_lookahead=10 / rc=2pass / mbtree=1 / bitrate=3000 / ratetol=1.0 / qcomp=0.60 / qpmin=0 / qpmax=69 / qpstep=4 / cplxblur=20.0 / qblur=0.5 / vbv_maxrate=62500 / vbv_bufsize=78125 / nal_hrd=none / ip_ratio=1.40 / aq=1:1.00
Язык : English
Default : Да
Forced : Да
Цветовой диапазон : Limited
Основные цвета : BT.709
Характеристики трансфера : BT.709
Коэффициенты матрицы : BT.709

Аудио
Идентификатор : 2
Формат : AC-3
Формат/Информация : Audio Coding 3
Параметр Endianness формата : Big
Идентификатор кодека : A_AC3
Продолжительность : 1 ч. 37 м.
Вид битрейта : Постоянный
Битрейт : 192 Кбит/сек
Каналы : 2 канала
Расположение каналов : Front: L R
Частота : 48,0 КГц
Частота кадров : 31,250 кадров/сек (1536 SPF)
Битовая глубина : 16 бит
Метод сжатия : С потерями
Размер потока : 133 Мбайт (16%)
Заголовок : Авторский (одноголосый закадровый) VHS
Язык : Russian
ServiceKind/String : Complete Main
Default : Да
Forced : Да







Название: Хэллоуин 6: Проклятие Майкла Майерса
Оригинальное название: /Halloween: The Curse of Michael Myers
Дата выхода:1995
Жанр:ужасы, триллер
Страна:США
Субтитры:нет
Перевод: Профессиональный (двухголосый закадровый)
Продолжительность:01:30:56
Режиссёр:Джо Чаппелль
В ролях:Дональд Плезенс, Пол Радд, Марианн Хэйгэн, Ким Дарби, Брэдфорд Инглиш, Кит Богарт, Мэрайя О’Брайэн, Лео Гетер, Митч Райан
Описание:Продолжение известного триллера о безжалостном маньяке Майкле Майерсе, который в очередной раз появляется в маленьком американском городке Хэддонфилд накануне праздника Дня Всех Святых.



Качество: BDRip 720р
Формат файла: MKV
Видео: 1280x720, MPEG4/AVC, High@L4.1, 24,000 кадра/сек, ~3000 Кбит/сек
Аудио: 48,0 КГц, AC3 Dolby Digital, 2 ch, 192 kbps Профессиональный (двухголосый закадровый) Премьер Видео Фильм
Общее
Уникальный идентификатор : 198734450492331338390492413282330620310 (0x9582DCE83943FD2688F6DB53F4983196)
Полное имя : C:\Users\Данияр\Downloads\Фильмы\Halloween Collection.daniyar.esmuhanov\Хэллоуин 6 Проклятие Майкла Майерса (ужасы, триллер) 1995.mkv
Формат : Matroska
Версия формата : Version 4 / Version 2
Размер файла : 752 Мбайт
Продолжительность : 1 ч. 28 м.
Название фильма : Исходник: Blu-ray Disc | Автор рипа: Есмуханов Данияр Исламбекович | daniyar.esmuhanov
Программа кодирования : mkvmerge v8.3.0 ('Over the Horizon') 64bit
Библиотека кодирования : libebml v1.3.1 + libmatroska v1.4.2

Видео
Идентификатор : 1
Формат : AVC
Формат/Информация : Advanced Video Codec
Профиль формата : High@L4.1
Настройки формата : CABAC / 4 Ref Frames
Параметр CABAC формата : Да
Параметр RefFrames формата : 4 кадра
Идентификатор кодека : V_MPEG4/ISO/AVC
Продолжительность : 1 ч. 28 м.
Максимальный битрейт : 62,5 Мбит/сек
Вид битрейта : Переменный
Переменный битрейт : 5000 Кбит/сек | 1000 Кбит/сек | 3000 Кбит/сек
Битрейт : 3000 Кбит/сек
Ширина : 1280 пикселей
Высота : 720 пикселей
Соотношение сторон : 16:9
Режим частоты кадров : Постоянный
Частота кадров : 24,000 кадра/сек
Цветовое пространство : YUV
Субдискретизация насыщенности : 4:2:0
Битовая глубина : 8 бит
Тип развёртки : Прогрессивная
Бит/(Пиксели*Кадры) : 0.045
Размер потока : 630 Мбайт (84%)
Заголовок : Исходник: Blu-ray Disc | Автор рипа: Есмуханов Данияр Исламбекович | daniyar.esmuhanov
Библиотека кодирования : x264 core 130 r2273 b3065e6
Настройки программы : cabac=1 / ref=1 / deblock=1:-1:-1 / analyse=0x3:0x113 / me=hex / subme=2 / psy=1 / psy_rd=1.00:0.15 / mixed_ref=0 / me_range=16 / chroma_me=1 / trellis=0 / 8x8dct=1 / cqm=0 / deadzone=21,11 / fast_pskip=1 / chroma_qp_offset=0 / threads=6 / lookahead_threads=2 / sliced_threads=0 / nr=0 / decimate=1 / interlaced=0 / bluray_compat=0 / constrained_intra=0 / bframes=3 / b_pyramid=2 / b_adapt=1 / b_bias=0 / direct=1 / weightb=1 / open_gop=0 / weightp=1 / keyint=240 / keyint_min=24 / scenecut=40 / intra_refresh=0 / rc_lookahead=10 / rc=2pass / mbtree=1 / bitrate=3000 / ratetol=1.0 / qcomp=0.60 / qpmin=0 / qpmax=69 / qpstep=4 / cplxblur=20.0 / qblur=0.5 / vbv_maxrate=62500 / vbv_bufsize=78125 / nal_hrd=none / ip_ratio=1.40 / aq=1:1.00
Язык : English
Default : Да
Forced : Да
Цветовой диапазон : Limited
Основные цвета : BT.709
Характеристики трансфера : BT.709
Коэффициенты матрицы : BT.709

Аудио
Идентификатор : 2
Формат : AC-3
Формат/Информация : Audio Coding 3
Параметр Endianness формата : Big
Идентификатор кодека : A_AC3
Продолжительность : 1 ч. 28 м.
Вид битрейта : Постоянный
Битрейт : 192 Кбит/сек
Каналы : 2 канала
Расположение каналов : Front: L R
Частота : 48,0 КГц
Частота кадров : 31,250 кадров/сек (1536 SPF)
Битовая глубина : 16 бит
Метод сжатия : С потерями
Размер потока : 121 Мбайт (16%)
Заголовок : Профессиональный (двухголосый закадровый) Премьер Видео Фильм
Язык : Russian
ServiceKind/String : Complete Main
Default : Да
Forced : Да









Название: Хэллоуин 20 лет спустя
Оригинальное название: /Halloween H20: 20 Years Later
Дата выхода:1998
Жанр:ужасы, триллер
Страна:США
Субтитры:нет
Перевод: Профессиональный (многоголосый закадровый)
Продолжительность:01:30:56
Режиссёр:Стив Майнер
В ролях: Дональд Плезенс, Джейми Ли Кёртис, Нэнси Кайс, П.Дж. Соулз, Чарльз Сайферс, Кайл Ричардс, Брайан Эндрюс, Джон Майкл Грэхэм, Нэнси Стивенс, Артур Мэлет
Описание:Спустя 20 лет Лори Строуд опять вынуждена бороться со своим прошлым! Эти годы она жила под вымышленным именем вместе с сыном Джоном. Но Майкл Майерс внезапно вернулся в ее жизнь с местью. С местью не только к Лори. Ужас начался для всего города! Когда группа студентов отправляется на праздник Хэллоуин, они оказываются в кровавой реке. И снова Лори должна спасти всех от исчадья Ада.



Качество: BDRip 720р
Формат файла: MKV
Видео: 1280x544, MPEG4/AVC, High@L4.1, 24,000 кадра/сек, ~3000 Кбит/сек
Аудио: 48,0 КГц, AC3 Dolby Digital, 3/2 (L,C,R,l,r) + LFE ch, 448 kbps Профессиональный (многоголосый закадровый) DVD | Blu-ray CEE
Общее
Уникальный идентификатор : 188453803053229713142141300412933158632 (0x8DC6E1DAB3DE30F393ED5F1FC99736E8)
Полное имя : C:\Users\Данияр\Downloads\Фильмы\Halloween Collection.daniyar.esmuhanov\Хэллоуин 20 лет спустя (триллер, ужасы) 1998.mkv
Формат : Matroska
Версия формата : Version 4 / Version 2
Размер файла : 893 Мбайт
Продолжительность : 1 ч. 26 м.
Название фильма : Исходник: Blu-ray Disc | Автор рипа: Есмуханов Данияр Исламбекович | daniyar.esmuhanov
Программа кодирования : mkvmerge v8.3.0 ('Over the Horizon') 64bit
Библиотека кодирования : libebml v1.3.1 + libmatroska v1.4.2

Видео
Идентификатор : 1
Формат : AVC
Формат/Информация : Advanced Video Codec
Профиль формата : High@L4.1
Настройки формата : CABAC / 4 Ref Frames
Параметр CABAC формата : Да
Параметр RefFrames формата : 4 кадра
Идентификатор кодека : V_MPEG4/ISO/AVC
Продолжительность : 1 ч. 26 м.
Максимальный битрейт : 62,5 Мбит/сек
Вид битрейта : Переменный
Переменный битрейт : 5000 Кбит/сек | 1000 Кбит/сек | 3000 Кбит/сек
Битрейт : 3000 Кбит/сек
Ширина : 1280 пикселей
Высота : 544 пикселя
Соотношение сторон : 2,35:1
Режим частоты кадров : Переменный
Частота кадров : 24,000 кадра/сек
Цветовое пространство : YUV
Субдискретизация насыщенности : 4:2:0
Битовая глубина : 8 бит
Тип развёртки : Прогрессивная
Бит/(Пиксели*Кадры) : 0.060
Размер потока : 615 Мбайт (69%)
Заголовок : Исходник: Blu-ray Disc | Автор рипа: Есмуханов Данияр Исламбекович | daniyar.esmuhanov
Библиотека кодирования : x264 core 130 r2273 b3065e6
Настройки программы : cabac=1 / ref=1 / deblock=1:-1:-1 / analyse=0x3:0x113 / me=hex / subme=2 / psy=1 / psy_rd=1.00:0.15 / mixed_ref=0 / me_range=16 / chroma_me=1 / trellis=0 / 8x8dct=1 / cqm=0 / deadzone=21,11 / fast_pskip=1 / chroma_qp_offset=0 / threads=6 / lookahead_threads=2 / sliced_threads=0 / nr=0 / decimate=1 / interlaced=0 / bluray_compat=0 / constrained_intra=0 / bframes=3 / b_pyramid=2 / b_adapt=1 / b_bias=0 / direct=1 / weightb=1 / open_gop=0 / weightp=1 / keyint=240 / keyint_min=24 / scenecut=40 / intra_refresh=0 / rc_lookahead=10 / rc=2pass / mbtree=1 / bitrate=3000 / ratetol=1.0 / qcomp=0.60 / qpmin=0 / qpmax=69 / qpstep=4 / cplxblur=20.0 / qblur=0.5 / vbv_maxrate=62500 / vbv_bufsize=78125 / nal_hrd=none / ip_ratio=1.40 / aq=1:1.00
Язык : English
Default : Да
Forced : Да
Цветовой диапазон : Limited
Основные цвета : BT.709
Характеристики трансфера : BT.709
Коэффициенты матрицы : BT.709

Аудио
Идентификатор : 2
Формат : AC-3
Формат/Информация : Audio Coding 3
Параметр Endianness формата : Big
Идентификатор кодека : A_AC3
Продолжительность : 1 ч. 26 м.
Вид битрейта : Постоянный
Битрейт : 448 Кбит/сек
Каналы : 6 каналов
Расположение каналов : Front: L C R, Side: L R, LFE
Частота : 48,0 КГц
Частота кадров : 31,250 кадров/сек (1536 SPF)
Битовая глубина : 16 бит
Метод сжатия : С потерями
Размер потока : 276 Мбайт (31%)
Заголовок : Профессиональный (многоголосый закадровый) DVD | Blu-ray CEE
Язык : Russian
ServiceKind/String : Complete Main
Default : Да
Forced : Да

Меню
00:00:00.000 : en:Chapter 01
00:05:30.774 : en:Chapter 02
00:09:30.317 : en:Chapter 03
00:15:28.733 : en:Chapter 04
00:22:21.942 : en:Chapter 05
00:27:07.275 : en:Chapter 06
00:34:43.650 : en:Chapter 07
00:40:11.275 : en:Chapter 08
00:48:07.733 : en:Chapter 09
00:51:25.692 : en:Chapter 10
00:56:19.733 : en:Chapter 11
01:00:26.733 : en:Chapter 12
01:05:04.942 : en:Chapter 13
01:10:08.567 : en:Chapter 14
01:15:12.608 : en:Chapter 15









Название: Хэллоуин Воскрешение
Оригинальное название: /Halloween: Resurrection
Дата выхода:2002
Жанр:ужасы, триллер
Страна:США
Субтитры:нет
Перевод:Профессиональный (полное дублирование)
Продолжительность:01:29:32
Режиссёр:Рик Розенталь
В ролях: Баста Раймс, Бьянка Кэйлик, Томас Иэн Николас, Райан Мерриман, Шон Патрик Томас, Тайра Бэнкс, Джейми Ли Кёртис, Брэд Лори, Дэйзи МакКрэкин
Описание:Некий шоу-бизнесмен устраивает в доме печально известного убийцы Майкла Майерса, считающегося мертвым, действо, весьма напоминающее шоу «За стеклом». Группа подростков должна провести ночь в доме маньяка с трансляцией всего происходящего в интернет, из оборудования только е-майл.

Чего бояться, если хозяин давно мертв? Но возникает одна проблема — Майерс возвращается в родные стены…



Качество: BDRip 720р
Формат файла: MKV
Видео: 1280x544, MPEG4/AVC, High@L4.1, 23,976 (24000/1001) кадра/сек, ~3000 Кбит/сек
Аудио: 48,0 КГц, AC3 Dolby Digital, 3/2 (L,C,R,l,r) + LFE ch, 448 kbps Профессиональный (полное дублирование) Blu-ray CEE
Общее
Уникальный идентификатор : 209738049101344337683251549828866286854 (0x9DCA14345FBF0140BE2FB218594EA506)
Полное имя : C:\Users\Данияр\Downloads\Фильмы\Halloween Collection.daniyar.esmuhanov\Хэллоуин Воскрешение (ужасы, триллер, комедия) 2002.mkv
Формат : Matroska
Версия формата : Version 4 / Version 2
Размер файла : 928 Мбайт
Продолжительность : 1 ч. 29 м.
Название фильма : Исходник: Blu-ray Disc | Автор рипа: Есмуханов Данияр Исламбекович | daniyar.esmuhanov
Программа кодирования : mkvmerge v8.3.0 ('Over the Horizon') 64bit
Библиотека кодирования : libebml v1.3.1 + libmatroska v1.4.2

Видео
Идентификатор : 1
Формат : AVC
Формат/Информация : Advanced Video Codec
Профиль формата : High@L4.1
Настройки формата : CABAC / 4 Ref Frames
Параметр CABAC формата : Да
Параметр RefFrames формата : 4 кадра
Идентификатор кодека : V_MPEG4/ISO/AVC
Продолжительность : 1 ч. 29 м.
Максимальный битрейт : 62,5 Мбит/сек
Вид битрейта : Переменный
Переменный битрейт : 5000 Кбит/сек | 1000 Кбит/сек | 3000 Кбит/сек
Битрейт : 3000 Кбит/сек
Ширина : 1280 пикселей
Высота : 544 пикселя
Соотношение сторон : 2,35:1
Режим частоты кадров : Переменный
Частота кадров : 23,976 (23976/1000) кадра/сек
Цветовое пространство : YUV
Субдискретизация насыщенности : 4:2:0
Битовая глубина : 8 бит
Тип развёртки : Прогрессивная
Бит/(Пиксели*Кадры) : 0.060
Размер потока : 640 Мбайт (69%)
Заголовок : Исходник: Blu-ray Disc | Автор рипа: Есмуханов Данияр Исламбекович | daniyar.esmuhanov
Библиотека кодирования : x264 core 130 r2273 b3065e6
Настройки программы : cabac=1 / ref=1 / deblock=1:-1:-1 / analyse=0x3:0x113 / me=hex / subme=2 / psy=1 / psy_rd=1.00:0.15 / mixed_ref=0 / me_range=16 / chroma_me=1 / trellis=0 / 8x8dct=1 / cqm=0 / deadzone=21,11 / fast_pskip=1 / chroma_qp_offset=0 / threads=6 / lookahead_threads=2 / sliced_threads=0 / nr=0 / decimate=1 / interlaced=0 / bluray_compat=0 / constrained_intra=0 / bframes=3 / b_pyramid=2 / b_adapt=1 / b_bias=0 / direct=1 / weightb=1 / open_gop=0 / weightp=1 / keyint=240 / keyint_min=24 / scenecut=40 / intra_refresh=0 / rc_lookahead=10 / rc=2pass / mbtree=1 / bitrate=3000 / ratetol=1.0 / qcomp=0.60 / qpmin=0 / qpmax=69 / qpstep=4 / cplxblur=20.0 / qblur=0.5 / vbv_maxrate=62500 / vbv_bufsize=78125 / nal_hrd=none / ip_ratio=1.40 / aq=1:1.00
Язык : English
Default : Да
Forced : Да
Цветовой диапазон : Limited
Основные цвета : BT.709
Характеристики трансфера : BT.709
Коэффициенты матрицы : BT.709

Аудио
Идентификатор : 2
Формат : AC-3
Формат/Информация : Audio Coding 3
Параметр Endianness формата : Big
Идентификатор кодека : A_AC3
Продолжительность : 1 ч. 29 м.
Вид битрейта : Постоянный
Битрейт : 448 Кбит/сек
Каналы : 6 каналов
Расположение каналов : Front: L C R, Side: L R, LFE
Частота : 48,0 КГц
Частота кадров : 31,250 кадров/сек (1536 SPF)
Битовая глубина : 16 бит
Метод сжатия : С потерями
Размер потока : 287 Мбайт (31%)
Заголовок : Профессиональный (полное дублирование) Blu-ray CEE
Язык : Russian
ServiceKind/String : Complete Main
Default : Да
Forced : Да

Меню
00:00:00.000 : en:Chapter 01
00:04:19.759 : en:Chapter 02
00:08:02.607 : en:Chapter 03
00:11:53.295 : en:Chapter 04
00:16:44.336 : en:Chapter 05
00:21:24.574 : en:Chapter 06
00:25:38.536 : en:Chapter 07
00:28:22.242 : en:Chapter 08
00:32:40.208 : en:Chapter 09
00:36:46.621 : en:Chapter 10
00:41:20.686 : en:Chapter 11
00:45:28.016 : en:Chapter 12
00:52:59.342 : en:Chapter 13
00:55:14.393 : en:Chapter 14
00:59:03.790 : en:Chapter 15
01:04:02.088 : en:Chapter 16
01:07:41.055 : en:Chapter 17
01:11:47.720 : en:Chapter 18
01:16:46.977 : en:Chapter 19
01:21:16.746 : en:Chapter 20
01:25:16.903 : en:Chapter 21
01:29:32.033 : en:Chapter 22







Название: Хэллоуин 2007
Оригинальное название: /Halloween
Дата выхода:2007
Жанр:ужасы, триллер
Страна:США
Субтитры:нет
Перевод:Профессиональный (дублированный)
Продолжительность:02:01:30
Режиссёр:Роб Зомби
В ролях:Малкольм МакДауэлл, Брэд Дуриф, Тайлер Мэйн, Дег Ферч, Шери Мун Зомби, Уильям Форсайт, Ричард Линч, Удо Кир, Клинт Ховард, Дэнни Трехо, Лью Темпл, Том Таулз, Билл Моусли, Лесли Истербрук, Стив Бойлес, Скаут Тейлор-Комптон, Даниэль Харрис

Описание:Римейк фильма Джона Карпентера 1978 года. На этот раз нам предлагают взглянуть на судьбу убийцы Майкла Майерса под другим углом. Что же толкнуло его на путь насилия и послужило причиной длинной череды кровавых событий последующих лет?



Качество: BDRip 720р
Формат файла: MKV
Видео: 1280x544, MPEG4/AVC, High@L4.1, 23,976 (24000/1001) кадра/сек, ~3000 Кбит/сек
Аудио: 48,0 КГц, AC3 Dolby Digital, 3/2 (L,C,R,l,r) + LFE ch, 448 kbps Профессиональный (дублированный) Blu-ray CEE + вставки MVO на расширенные места
Общее
Уникальный идентификатор : 231989561237887452255971148870015348567 (0xAE8790747AA7DE34986C64352B656F57)
Полное имя : C:\Users\Данияр\Downloads\Фильмы\Halloween Collection.daniyar.esmuhanov\Хэллоуин 2007 (ужасы) 2007 Расширенная версия.mkv
Формат : Matroska
Версия формата : Version 4 / Version 2
Размер файла : 1,23 Гбайт
Продолжительность : 2 ч. 1 м.
Название фильма : Исходник: Blu-ray Disc | Автор рипа: Есмуханов Данияр Исламбекович | daniyar.esmuhanov
Программа кодирования : mkvmerge v8.3.0 ('Over the Horizon') 64bit
Библиотека кодирования : libebml v1.3.1 + libmatroska v1.4.2

Видео
Идентификатор : 1
Формат : AVC
Формат/Информация : Advanced Video Codec
Профиль формата : High@L4.1
Настройки формата : CABAC / 4 Ref Frames
Параметр CABAC формата : Да
Параметр RefFrames формата : 4 кадра
Идентификатор кодека : V_MPEG4/ISO/AVC
Продолжительность : 2 ч. 1 м.
Максимальный битрейт : 62,5 Мбит/сек
Вид битрейта : Переменный
Переменный битрейт : 5000 Кбит/сек | 1000 Кбит/сек | 3000 Кбит/сек
Битрейт : 3000 Кбит/сек
Ширина : 1280 пикселей
Высота : 544 пикселя
Соотношение сторон : 2,35:1
Режим частоты кадров : Переменный
Частота кадров : 23,976 (23976/1000) кадра/сек
Цветовое пространство : YUV
Субдискретизация насыщенности : 4:2:0
Битовая глубина : 8 бит
Тип развёртки : Прогрессивная
Бит/(Пиксели*Кадры) : 0.060
Размер потока : 869 Мбайт (69%)
Заголовок : Исходник: Blu-ray Disc | Автор рипа: Есмуханов Данияр Исламбекович | daniyar.esmuhanov
Библиотека кодирования : x264 core 130 r2273 b3065e6
Настройки программы : cabac=1 / ref=1 / deblock=1:-1:-1 / analyse=0x3:0x113 / me=hex / subme=2 / psy=1 / psy_rd=1.00:0.15 / mixed_ref=0 / me_range=16 / chroma_me=1 / trellis=0 / 8x8dct=1 / cqm=0 / deadzone=21,11 / fast_pskip=1 / chroma_qp_offset=0 / threads=6 / lookahead_threads=2 / sliced_threads=0 / nr=0 / decimate=1 / interlaced=0 / bluray_compat=0 / constrained_intra=0 / bframes=3 / b_pyramid=2 / b_adapt=1 / b_bias=0 / direct=1 / weightb=1 / open_gop=0 / weightp=1 / keyint=240 / keyint_min=24 / scenecut=40 / intra_refresh=0 / rc_lookahead=10 / rc=2pass / mbtree=1 / bitrate=1000 / ratetol=1.0 / qcomp=0.60 / qpmin=0 / qpmax=69 / qpstep=4 / cplxblur=20.0 / qblur=0.5 / vbv_maxrate=62500 / vbv_bufsize=78125 / nal_hrd=none / ip_ratio=1.40 / aq=1:1.00
Язык : English
Default : Да
Forced : Да
Цветовой диапазон : Limited
Основные цвета : BT.709
Характеристики трансфера : BT.709
Коэффициенты матрицы : BT.709

Аудио
Идентификатор : 2
Формат : AC-3
Формат/Информация : Audio Coding 3
Параметр Endianness формата : Big
Идентификатор кодека : A_AC3
Продолжительность : 2 ч. 1 м.
Вид битрейта : Постоянный
Битрейт : 448 Кбит/сек
Каналы : 6 каналов
Расположение каналов : Front: L C R, Side: L R, LFE
Частота : 48,0 КГц
Частота кадров : 31,250 кадров/сек (1536 SPF)
Битовая глубина : 16 бит
Метод сжатия : С потерями
Размер потока : 389 Мбайт (31%)
Заголовок : Профессиональный (дублированный) Blu-ray CEE + вставки MVO на расширенные места
Язык : Russian
ServiceKind/String : Complete Main
Default : Да
Forced : Да









Название: Хэллоуин 2
Оригинальное название: /Halloween
Дата выхода:2009
Жанр:ужасы, триллер
Страна:США
Субтитры:нет
Перевод:Профессиональный (двухголосый закадровый)
Продолжительность:1:59:05
Режиссёр:Роб Зомби
В ролях:Шери Мун Зомби, Чейз Ванек, Скаут Тэйлор-Комптон, Брэд Дуриф, Кэролин Уильямс, Малкольм МакДауэлл, Тайлер Мэйн, Дэйтон Калли, Ричард Брэйк, Октавия Спенсер

Описание:Действие разворачивается сразу после окончания первого фильма. Лори Строуд и доктор Сэм Лумис выживают после бойни, устроенной маньяком по имени Майкл Майерс. Якобы мертвого Майкла увозят в морг, но по дороге маньяк приходит в сознание и сбегает.

Прошло два года. У Лори появляются видения, становящиеся все ужаснее. Приближается Хэллоуин. Майкл Майерс возвращается в родной Хэддонфилд, чтобы закончить свое кровавое дело. Шансы на спасение Лори и других невинных людей становятся еще более призрачными, чем раньше…



Качество: BDRip 720р
Формат файла: MKV
Видео: 1280x720, MPEG4/AVC, High@L4.1, 23,976 (24000/1001) кадра/сек, ~3000 Кбит/сек
Аудио: 48,0 КГц, AC3 Dolby Digital, 3/2 (L,C,R,l,r) + LFE ch, 448 kbps Профессиональный (двухголосый закадровый) Интер фильм
Общее
Уникальный идентификатор : 248816346826535399042294467494894765063 (0xBB304909763C228DB7D3D89A57E20407)
Полное имя : C:\Users\Данияр\Downloads\Фильмы\Halloween Collection.daniyar.esmuhanov\Хэллоуин 2 (ужасы) 2009.mkv
Формат : Matroska
Версия формата : Version 4 / Version 2
Размер файла : 1,20 Гбайт
Продолжительность : 1 ч. 59 м.
Название фильма : Исходник: Blu-ray Disc | Автор рипа: Есмуханов Данияр Исламбекович | daniyar.esmuhanov
Программа кодирования : mkvmerge v8.3.0 ('Over the Horizon') 64bit
Библиотека кодирования : libebml v1.3.1 + libmatroska v1.4.2

Видео
Идентификатор : 1
Формат : AVC
Формат/Информация : Advanced Video Codec
Профиль формата : High@L4.1
Настройки формата : CABAC / 4 Ref Frames
Параметр CABAC формата : Да
Параметр RefFrames формата : 4 кадра
Идентификатор кодека : V_MPEG4/ISO/AVC
Продолжительность : 1 ч. 59 м.
Максимальный битрейт : 62,5 Мбит/сек
Вид битрейта : Переменный
Переменный битрейт : 5000 Кбит/сек | 1000 Кбит/сек | 3000 Кбит/сек
Битрейт : 3000 Кбит/сек
Ширина : 1280 пикселей
Высота : 720 пикселей
Соотношение сторон : 16:9
Режим частоты кадров : Переменный
Частота кадров : 23,976 (23976/1000) кадра/сек
Цветовое пространство : YUV
Субдискретизация насыщенности : 4:2:0
Битовая глубина : 8 бит
Тип развёртки : Прогрессивная
Бит/(Пиксели*Кадры) : 0.045
Размер потока : 851 Мбайт (69%)
Заголовок : Исходник: Blu-ray Disc | Автор рипа: Есмуханов Данияр Исламбекович | daniyar.esmuhanov
Библиотека кодирования : x264 core 130 r2273 b3065e6
Настройки программы : cabac=1 / ref=1 / deblock=1:-1:-1 / analyse=0x3:0x113 / me=hex / subme=2 / psy=1 / psy_rd=1.00:0.15 / mixed_ref=0 / me_range=16 / chroma_me=1 / trellis=0 / 8x8dct=1 / cqm=0 / deadzone=21,11 / fast_pskip=1 / chroma_qp_offset=0 / threads=6 / lookahead_threads=2 / sliced_threads=0 / nr=0 / decimate=1 / interlaced=0 / bluray_compat=0 / constrained_intra=0 / bframes=3 / b_pyramid=2 / b_adapt=1 / b_bias=0 / direct=1 / weightb=1 / open_gop=0 / weightp=1 / keyint=240 / keyint_min=24 / scenecut=40 / intra_refresh=0 / rc_lookahead=10 / rc=2pass / mbtree=1 / bitrate=3000 / ratetol=1.0 / qcomp=0.60 / qpmin=0 / qpmax=69 / qpstep=4 / cplxblur=20.0 / qblur=0.5 / vbv_maxrate=62500 / vbv_bufsize=78125 / nal_hrd=none / ip_ratio=1.40 / aq=1:1.00
Язык : English
Default : Да
Forced : Да
Цветовой диапазон : Limited
Основные цвета : BT.709
Характеристики трансфера : BT.709
Коэффициенты матрицы : BT.709

Аудио
Идентификатор : 2
Формат : AC-3
Формат/Информация : Audio Coding 3
Параметр Endianness формата : Big
Идентификатор кодека : A_AC3
Продолжительность : 1 ч. 58 м.
Вид битрейта : Постоянный
Битрейт : 448 Кбит/сек
Каналы : 6 каналов
Расположение каналов : Front: L C R, Side: L R, LFE
Частота : 48,0 КГц
Частота кадров : 31,250 кадров/сек (1536 SPF)
Битовая глубина : 16 бит
Метод сжатия : С потерями
Размер потока : 381 Мбайт (31%)
Заголовок : Профессиональный (двухголосый закадровый) Интер фильм
Язык : Russian
ServiceKind/String : Complete Main
Default : Да
Forced : Да







Rip by Есмуханов Данияр Исламбекович | daniyar.esmuhanov
Как качать, Как раздавать - Правила и инструкции
Торрент22 фев 2018, 00:42 [ 22 фев 2018, 00:42 ]

СКАЧАТЬ с просмотром рекламы
СтатусПроверен Download more
.torrent скачан0 раз
Размер9.17 ГБ (9 844 572 402)

Скачал сам?! Дай скачать другим, не уходи с раздачи!!!

Вернуться в Зарубежные фильмы после 2000го года...



Кто сейчас на конференции

Сейчас этот форум просматривают: нет зарегистрированных пользователей

Ресурс не предоставляет электронные версии произведений, а занимается лишь коллекционированием и каталогизацией ссылок, присылаемых и публикуемых на форуме нашими читателями. Если вы являетесь правообладателем какого-либо представленного материала и не желаете чтобы ссылка на него находилась в нашем каталоге, свяжитесь с нами и мы незамедлительно удалим её. Файлы для обмена на трекере предоставлены пользователями сайта, и администрация не несёт ответственности за их содержание. Просьба не заливать файлы, защищенные авторскими правами, а также файлы нелегального содержания!