Хоббит / The Hobbit [2012-2014, фэнтези, приключения, BDRip 1080р] D, А | Коллекция - Скачать торрент бесплатно

Модераторы: Модераторы Фильмы, мультфильмы, Союз Риперов

Поделиться ВКонтакте Поделиться Facebook Поделиться Twitter Поделиться Mail.RU
АвторСообщение
Download more
Аватара пользователя
Модератор Фильмов
Модератор Фильмов
 
Раздал: 56.25 ТБ
Скачал: 18.89 ТБ
Ратио: 484.317
Сообщения: 933
Зарегистрирован: 19 ноя 2016, 16:36
Откуда: г. Астана, Казахстан Рипер: daniyar.esmuhanov Есмуханов Данияр Исламбекович
Награды: 18
За 100 сообщений (1) За 500 сообщений (1) 5 Тб отданного (1) 10 Тб отданного (1) 15 Тб отданного (1) 20 Тб отданного (1) 30 Тб отданного (1) 10 Тб скаченного (1) 250 релизов (1) 500 релизов (1) За 2000 полученных спасибо (1) За 4000 полученных спасибо (1) 30 рипов (1) 50 рипов (1) 200 кармы (1) 500 кармы (1) 1000 кармы (1) Халява №3 (1)
Карма: 1112
-2--2--2--2--2--2-

Сообщение Download more » 03 апр 2018, 21:01

Хоббит / The Hobbit [2012-2014, фэнтези, приключения, BDRip 1080р] D, А | Коллекция - Скачать торрент

Жанр: фэнтези, приключения
Режиссер: Питер Джексон
В ролях: :Мартин Фриман, Иэн МакКеллен, Ричард Армитедж, Джеймс Несбитт, Кен Стотт, Грэм МакТавиш, Дин О’Горман, Эйдан Тернер, Джед Брофи, Марк Хэдлоу
О фильме: Фильм повествует о путешествии Бильбо Бэггинса, который пускается в грандиозный поход, целью которого является отвоевание утраченного королевства гномов Эребор у зловещего дракона Смауга. Совершенно неожиданно с хоббитом налаживает контакт волшебник Гэндальф Серый. Так Бильбо находит себя, присоединяясь к компании тринадцати гномов, возглавляемых легендарным воином, Торином Дубощитом. Их путешествие проляжет через Дикий Край, через предательские земли, населенные гоблинами и орками, смертоносными варгами и гигантскими пауками, народом, меняющим шкуры, и волшебниками.

И хотя их цель находится на Востоке, среди пустошей Одинокой Горы, сначала им придется выбраться из туннелей гоблинов, где Бильбо встретит существо, которое изменит его жизнь навсегда… Голлума.

Здесь, один на один с Голлумом, на берегу подземного озера, непритязательный Бильбо Бэггинс обнаружит не только скрытые в глубине души хитрость и отвагу, которые удивят даже его, но и завладеет «прелестным» колечком Голлума, которое обладает нежданными и полезными свойствами… Простое золотое кольцо, c которым связана судьба всего Средиземья, нитями, о которых Бильбо не мог даже вообразить.



Выпущено: США, Новая Зеландия
Продолжительность: 03:02:30
Озвучивание: Профессиональный (полное дублирование), Авторский (одноголосый закадровый)
Субтитры: русские, английские

Файл
Формат: MKV
Качество: BDRip 1080р
Видео: 1920x800, MPEG4/AVC, High@L4.1, 23,976 (24000/1001) кадра/сек, ~3500 Кбит/сек
Аудио: 48,0 КГц, AC3 Dolby Digital, 3/2 (L,C,R,l,r) + LFE ch, 448 kbps Профессиональный (полное дублирование) Blu-ray CEE со вставками Юрия Сербина на речь эльфов и орков
Аудио: 48,0 КГц, AC3 Dolby Digital, 3/2 (L,C,R,l,r) + LFE ch, 448 kbps Авторский (одноголосый закадровый) Ю.Сербин
Аудио: 48,0 КГц, AC3 Dolby Digital, 3/2 (L,C,R,l,r) + LFE ch, 448 kbps Оригинальная аудиодорожка: английский
Общее
Уникальный идентификатор : 196147086677416995482577987627539395686 (0x93908E05A51D9AAB92A0F1E772367466)
Полное имя : D:\Данияр\Раздача\The Hobbit Collection.daniyar.esmuhanov\Хоббит Нежданное путешествие (фэнтези, приключения) 2012 Расширенная версия.mkv
Формат : Matroska
Версия формата : Version 4 / Version 2
Размер файла : 4,90 Гбайт
Продолжительность : 3 ч. 2 м.
Название фильма : Исходник: Blu-ray Disc | Автор рипа: Есмуханов Данияр Исламбекович | daniyar.esmuhanov
Программа кодирования : mkvmerge v8.3.0 ('Over the Horizon') 64bit
Библиотека кодирования : libebml v1.3.1 + libmatroska v1.4.2

Видео
Идентификатор : 1
Формат : AVC
Формат/Информация : Advanced Video Codec
Профиль формата : High@L4.1
Настройки формата : CABAC / 4 Ref Frames
Параметр CABAC формата : Да
Параметр RefFrames формата : 4 кадра
Идентификатор кодека : V_MPEG4/ISO/AVC
Продолжительность : 3 ч. 2 м.
Вид битрейта : Переменный
Переменный битрейт : 62,5 Мбит/сек | 2500 Кбит/сек | 3500 Кбит/сек
Битрейт : 3500 Кбит/сек
Ширина : 1920 пикселей
Высота : 800 пикселей
Соотношение сторон : 2,40:1
Режим частоты кадров : Постоянный
Частота кадров : 23,976 (23976/1000) кадра/сек
Цветовое пространство : YUV
Субдискретизация насыщенности : 4:2:0
Битовая глубина : 8 бит
Тип развёртки : Прогрессивная
Бит/(Пиксели*Кадры) : 0.068
Размер потока : 3,19 Гбайт (65%)
Заголовок : Исходник: Blu-ray Disc | Автор рипа: Есмуханов Данияр Исламбекович | daniyar.esmuhanov
Библиотека кодирования : x264 core 142 r2479kMod dd79a61
Настройки программы : cabac=1 / ref=4 / deblock=1:-1:-1 / analyse=0x3:0x113 / me=umh / subme=9 / psy=1 / fade_compensate=0.00 / psy_rd=1.00:0.15 / mixed_ref=1 / me_range=24 / chroma_me=1 / trellis=2 / 8x8dct=1 / cqm=0 / deadzone=21,11 / fast_pskip=1 / chroma_qp_offset=-3 / threads=12 / lookahead_threads=4 / sliced_threads=0 / nr=0 / decimate=1 / interlaced=0 / bluray_compat=0 / constrained_intra=0 / fgo=0 / bframes=3 / b_pyramid=2 / b_adapt=1 / b_bias=0 / direct=1 / weightb=1 / open_gop=0 / weightp=2 / keyint=250 / keyint_min=25 / scenecut=40 / intra_refresh=0 / rc_lookahead=50 / rc=2pass / mbtree=1 / bitrate=3500 / ratetol=1.0 / qcomp=0.60 / qpmin=0 / qpmax=69 / qpstep=4 / cplxblur=20.0 / qblur=0.5 / vbv_maxrate=31250 / vbv_bufsize=31250 / nal_hrd=none / filler=0 / ip_ratio=1.40 / aq=3:1.00
Язык : English
Default : Да
Forced : Да

Аудио #1
Идентификатор : 2
Формат : AC-3
Формат/Информация : Audio Coding 3
Идентификатор кодека : A_AC3
Продолжительность : 3 ч. 2 м.
Вид битрейта : Постоянный
Битрейт : 448 Кбит/сек
Каналы : 6 каналов
Расположение каналов : Front: L C R, Side: L R, LFE
Частота : 48,0 КГц
Частота кадров : 31,250 кадров/сек (1536 SPF)
Битовая глубина : 16 бит
Метод сжатия : С потерями
Размер потока : 585 Мбайт (12%)
Заголовок : Профессиональный (полное дублирование) Blu-ray CEE со вставками Юрия Сербина на речь эльфов и орков
Язык : Russian
ServiceKind/String : Complete Main
Default : Да
Forced : Да

Аудио #2
Идентификатор : 3
Формат : AC-3
Формат/Информация : Audio Coding 3
Идентификатор кодека : A_AC3
Продолжительность : 3 ч. 2 м.
Вид битрейта : Постоянный
Битрейт : 448 Кбит/сек
Каналы : 6 каналов
Расположение каналов : Front: L C R, Side: L R, LFE
Частота : 48,0 КГц
Частота кадров : 31,250 кадров/сек (1536 SPF)
Битовая глубина : 16 бит
Метод сжатия : С потерями
Размер потока : 585 Мбайт (12%)
Заголовок : Авторский (одноголосый закадровый) Ю.Сербин
Язык : Russian
ServiceKind/String : Complete Main
Default : Нет
Forced : Нет

Аудио #3
Идентификатор : 4
Формат : AC-3
Формат/Информация : Audio Coding 3
Идентификатор кодека : A_AC3
Продолжительность : 3 ч. 2 м.
Вид битрейта : Постоянный
Битрейт : 448 Кбит/сек
Каналы : 6 каналов
Расположение каналов : Front: L C R, Side: L R, LFE
Частота : 48,0 КГц
Частота кадров : 31,250 кадров/сек (1536 SPF)
Битовая глубина : 16 бит
Метод сжатия : С потерями
Размер потока : 585 Мбайт (12%)
Язык : English
ServiceKind/String : Complete Main
Default : Нет
Forced : Нет

Текст #1
Идентификатор : 5
Формат : UTF-8
Идентификатор кодека : S_TEXT/UTF8
Идентификатор кодека/Информация : UTF-8 Plain Text
Продолжительность : 3 ч. 0 м.
Битрейт : 1 бит/сек
ElementCount : 57
Размер потока : 1,94 Кбайт (0%)
Заголовок : Форсированные
Язык : Russian
Default : Да
Forced : Да

Текст #2
Идентификатор : 6
Формат : UTF-8
Идентификатор кодека : S_TEXT/UTF8
Идентификатор кодека/Информация : UTF-8 Plain Text
Продолжительность : 3 ч. 0 м.
Битрейт : 55 бит/сек
ElementCount : 2155
Размер потока : 74,2 Кбайт (0%)
Язык : Russian
Default : Нет
Forced : Нет

Текст #3
Идентификатор : 7
Формат : UTF-8
Идентификатор кодека : S_TEXT/UTF8
Идентификатор кодека/Информация : UTF-8 Plain Text
Продолжительность : 2 ч. 30 м.
Битрейт : 1 бит/сек
ElementCount : 47
Размер потока : 1,17 Кбайт (0%)
Заголовок : Форсированные
Язык : English
Default : Нет
Forced : Нет

Текст #4
Идентификатор : 8
Формат : UTF-8
Идентификатор кодека : S_TEXT/UTF8
Идентификатор кодека/Информация : UTF-8 Plain Text
Продолжительность : 2 ч. 55 м.
Битрейт : 46 бит/сек
ElementCount : 2187
Размер потока : 59,3 Кбайт (0%)
Язык : English
Default : Нет
Forced : Нет

Текст #5
Идентификатор : 9
Формат : UTF-8
Идентификатор кодека : S_TEXT/UTF8
Идентификатор кодека/Информация : UTF-8 Plain Text
Продолжительность : 2 ч. 55 м.
Битрейт : 48 бит/сек
ElementCount : 2467
Размер потока : 62,6 Кбайт (0%)
Язык : English
Default : Нет
Forced : Нет

Меню
00:00:00.000 : en:Prologue: The Fall of Erebor
00:10:11.903 : en:"In a Hole in the Ground There Lived a Hobbit"
00:14:08.723 : en:Very Old Friends
00:17:27.255 : en:Mr. Baggins
00:18:44.623 : en:An Unexpected Party
00:23:16.604 : en:"Blunt the Knives"
00:27:59.469 : en:A Map, A Key and A Contract
00:36:04.871 : en:"Misty Mountains"
00:41:17.266 : en:"...The World Ahead"
00:46:30.830 : en:The Battle of Azanulbizar
00:53:04.181 : en:Radagast the Brown
00:58:07.651 : en:Trollshaws
00:59:55.300 : en:Roast Mutton
01:10:42.405 : en:A Troll-hoard
01:15:01.831 : en:The Hill of Sorcery
01:18:52.811 : en:Warg-scouts
01:24:56.925 : en:Rivendell
01:30:34.429 : en:A Short Rest
01:34:10.603 : en:Moon Runes
01:37:24.464 : en:The Defiler
01:39:03.479 : en:The Last Homely House
01:41:40.803 : en:The White Council
01:50:22.533 : en:"Why the Halfling?"
01:52:59.773 : en:Over Hill
01:59:06.348 : en:Under Hill
02:03:57.513 : en:The Great Goblin
02:09:51.575 : en:Riddles in the Dark
02:23:21.426 : en:Biter and Beater
02:25:18.877 : en:The Ring
02:26:31.199 : en:Escape from Goblin Town
02:30:52.919 : en:The Pity of Bilbo
02:33:00.546 : en:"Home is Behind..."
02:35:52.593 : en:Out of the Frying Pan...
02:46:51.210 : en:A Good Omen
02:52:21.373 : en:Credits






Жанр: фэнтези, приключения
Режиссер: Питер Джексон
В ролях: :Мартин Фриман, Ричард Армитедж, Иэн МакКеллен, Эванджелин Лилли, Орландо Блум, Люк Эванс, Бенедикт Камбербэтч, Ли Пейс, Кен Стотт, Эйдан Тернер
О фильме: Продолжение путешествия хоббита Бильбо Бэггинса, волшебника Гэндальфа и 13 отважных гномов. Их компания обязана завершить своё путешествие к Одинокой горе. Там они должны встретиться с величайшей опасностью из всех — созданием куда более ужасающим, чем все их прошлые противники, которое проверит на прочность не только их мужество, но крепость их дружбы и правильность выбранного пути, — драконом Смаугом.


Выпущено: США, Новая Зеландия
Продолжительность: 03:06:35
Озвучивание: Профессиональный (полное дублирование), Авторский (одноголосый закадровый)
Субтитры: русские, английские

Файл
Формат: MKV
Качество: BDRip 1080р
Видео: 1920x800, MPEG4/AVC, High@L4.1, 23,976 (24000/1001) кадра/сек, ~3500 Кбит/сек
Аудио: 48,0 КГц, AC3 Dolby Digital, 3/2 (L,C,R,l,r) + LFE ch, 448 kbps Профессиональный (полное дублирование) Blu-ray CEE со вставками Юрия Сербина на речь эльфов и орков
Аудио: 48,0 КГц, AC3 Dolby Digital, 3/2 (L,C,R,l,r) + LFE ch, 448 kbps Авторский (одноголосый закадровый) Ю.Сербин
Аудио: 48,0 КГц, AC3 Dolby Digital, 3/2 (L,C,R,l,r) + LFE ch, 448 kbps Оригинальная аудиодорожка: английский
Общее
Уникальный идентификатор : 227134869088230758009657663711465644730 (0xAAE095A6FAAA780C90D6F2E0F5D722BA)
Полное имя : D:\Данияр\Раздача\The Hobbit Collection.daniyar.esmuhanov\Хоббит Пустошь Смауга (фэнтези, приключения) 2013 Расширенная версия.mkv
Формат : Matroska
Версия формата : Version 4 / Version 2
Размер файла : 5,01 Гбайт
Продолжительность : 3 ч. 6 м.
Название фильма : Исходник: Blu-ray Disc | Автор рипа: Есмуханов Данияр Исламбекович | daniyar.esmuhanov
Программа кодирования : mkvmerge v8.3.0 ('Over the Horizon') 64bit
Библиотека кодирования : libebml v1.3.1 + libmatroska v1.4.2
Обложка : Yes
Attachments : cover.jpg

Видео
Идентификатор : 1
Формат : AVC
Формат/Информация : Advanced Video Codec
Профиль формата : High@L4.1
Настройки формата : CABAC / 4 Ref Frames
Параметр CABAC формата : Да
Параметр RefFrames формата : 4 кадра
Идентификатор кодека : V_MPEG4/ISO/AVC
Продолжительность : 3 ч. 6 м.
Вид битрейта : Переменный
Переменный битрейт : 62,5 Мбит/сек | 2500 Кбит/сек | 3500 Кбит/сек
Битрейт : 3500 Кбит/сек
Ширина : 1920 пикселей
Высота : 800 пикселей
Соотношение сторон : 2,40:1
Режим частоты кадров : Постоянный
Частота кадров : 23,976 (23976/1000) кадра/сек
Цветовое пространство : YUV
Субдискретизация насыщенности : 4:2:0
Битовая глубина : 8 бит
Тип развёртки : Прогрессивная
Бит/(Пиксели*Кадры) : 0.068
Размер потока : 3,26 Гбайт (65%)
Заголовок : Исходник: Blu-ray Disc | Автор рипа: Есмуханов Данияр Исламбекович | daniyar.esmuhanov
Библиотека кодирования : x264 core 142 r2479M dd79a61
Настройки программы : cabac=1 / ref=4 / deblock=1:-1:-1 / analyse=0x3:0x113 / me=umh / subme=9 / psy=1 / psy_rd=1.00:0.15 / mixed_ref=1 / me_range=24 / chroma_me=1 / trellis=2 / 8x8dct=1 / cqm=0 / deadzone=21,11 / fast_pskip=1 / chroma_qp_offset=-3 / threads=32 / lookahead_threads=4 / sliced_threads=0 / nr=0 / decimate=1 / interlaced=0 / bluray_compat=0 / constrained_intra=0 / bframes=3 / b_pyramid=2 / b_adapt=1 / b_bias=0 / direct=1 / weightb=1 / open_gop=0 / weightp=2 / keyint=250 / keyint_min=25 / scenecut=40 / intra_refresh=0 / rc_lookahead=50 / rc=2pass / mbtree=1 / bitrate=3500 / ratetol=1.0 / qcomp=0.60 / qpmin=0 / qpmax=69 / qpstep=4 / cplxblur=20.0 / qblur=0.5 / vbv_maxrate=31250 / vbv_bufsize=31250 / nal_hrd=none / filler=0 / ip_ratio=1.40 / aq=3:1.00
Язык : English
Default : Да
Forced : Да

Аудио #1
Идентификатор : 2
Формат : AC-3
Формат/Информация : Audio Coding 3
Идентификатор кодека : A_AC3
Продолжительность : 3 ч. 6 м.
Вид битрейта : Постоянный
Битрейт : 448 Кбит/сек
Каналы : 6 каналов
Расположение каналов : Front: L C R, Side: L R, LFE
Частота : 48,0 КГц
Частота кадров : 31,250 кадров/сек (1536 SPF)
Битовая глубина : 16 бит
Метод сжатия : С потерями
Размер потока : 598 Мбайт (12%)
Заголовок : Профессиональный (полное дублирование) Blu-ray CEE со вставками Юрия Сербина на речь эльфов и орков
Язык : Russian
ServiceKind/String : Complete Main
Default : Да
Forced : Да

Аудио #2
Идентификатор : 3
Формат : AC-3
Формат/Информация : Audio Coding 3
Идентификатор кодека : A_AC3
Продолжительность : 3 ч. 6 м.
Вид битрейта : Постоянный
Битрейт : 448 Кбит/сек
Каналы : 6 каналов
Расположение каналов : Front: L C R, Side: L R, LFE
Частота : 48,0 КГц
Частота кадров : 31,250 кадров/сек (1536 SPF)
Битовая глубина : 16 бит
Метод сжатия : С потерями
Размер потока : 598 Мбайт (12%)
Заголовок : Авторский (одноголосый закадровый) Ю.Сербин
Язык : Russian
ServiceKind/String : Complete Main
Default : Нет
Forced : Нет

Аудио #3
Идентификатор : 4
Формат : AC-3
Формат/Информация : Audio Coding 3
Идентификатор кодека : A_AC3
Продолжительность : 3 ч. 6 м.
Вид битрейта : Постоянный
Битрейт : 448 Кбит/сек
Каналы : 6 каналов
Расположение каналов : Front: L C R, Side: L R, LFE
Частота : 48,0 КГц
Частота кадров : 31,250 кадров/сек (1536 SPF)
Битовая глубина : 16 бит
Метод сжатия : С потерями
Размер потока : 598 Мбайт (12%)
Язык : English
ServiceKind/String : Complete Main
Default : Нет
Forced : Нет

Текст #1
Идентификатор : 5
Формат : UTF-8
Идентификатор кодека : S_TEXT/UTF8
Идентификатор кодека/Информация : UTF-8 Plain Text
Продолжительность : 3 ч. 4 м.
Битрейт : 2 бит/сек
ElementCount : 99
Размер потока : 2,84 Кбайт (0%)
Заголовок : Форсированные
Язык : Russian
Default : Да
Forced : Да

Текст #2
Идентификатор : 6
Формат : UTF-8
Идентификатор кодека : S_TEXT/UTF8
Идентификатор кодека/Информация : UTF-8 Plain Text
Продолжительность : 3 ч. 5 м.
Битрейт : 49 бит/сек
ElementCount : 2124
Размер потока : 67,4 Кбайт (0%)
Язык : Russian
Default : Нет
Forced : Нет

Текст #3
Идентификатор : 7
Формат : UTF-8
Идентификатор кодека : S_TEXT/UTF8
Идентификатор кодека/Информация : UTF-8 Plain Text
Продолжительность : 2 ч. 54 м.
Битрейт : 38 бит/сек
ElementCount : 2035
Размер потока : 48,7 Кбайт (0%)
Язык : English
Default : Нет
Forced : Нет

Меню
00:00:02.252 : en:Chapter 1
00:10:23.414 : en:Chapter 2
00:12:11.021 : en:Chapter 3
00:14:09.974 : en:Chapter 4
00:19:10.649 : en:Chapter 5
00:22:05.240 : en:Chapter 6
00:23:54.766 : en:Chapter 7
00:26:00.267 : en:Chapter 8
00:33:21.541 : en:Chapter 9
00:44:00.554 : en:Chapter 10
00:48:00.335 : en:Chapter 11
00:50:24.479 : en:Chapter 12
00:53:37.130 : en:Chapter 13
00:58:03.104 : en:Chapter 14
01:02:21.946 : en:Chapter 15
01:11:10.808 : en:Chapter 16
01:15:20.641 : en:Chapter 17
01:19:07.325 : en:Chapter 18
01:22:38.620 : en:Chapter 19
01:23:55.822 : en:Chapter 20
01:25:32.710 : en:Chapter 21
01:29:25.443 : en:Chapter 22
01:31:28.900 : en:Chapter 23
01:36:46.091 : en:Chapter 24
01:38:03.544 : en:Chapter 25
01:44:24.257 : en:Chapter 26
01:47:00.413 : en:Chapter 27
01:49:06.581 : en:Chapter 28
01:50:56.649 : en:Chapter 29
01:52:44.215 : en:Chapter 30
01:53:32.305 : en:Chapter 31
02:00:01.944 : en:Chapter 32
02:07:27.556 : en:Chapter 33
02:09:10.617 : en:Chapter 34
02:11:31.883 : en:Chapter 35
02:15:59.192 : en:Chapter 36
02:22:01.721 : en:Chapter 37
02:23:01.614 : en:Chapter 38
02:24:26.908 : en:Chapter 39
02:25:02.860 : en:Chapter 40
02:28:07.378 : en:Chapter 41
02:32:47.116 : en:Chapter 42
02:34:39.770 : en:Chapter 43
02:36:12.529 : en:Chapter 44
02:36:17.493 : en:Chapter 45
02:37:50.544 : en:Chapter 46
02:39:34.982 : en:Chapter 47
02:42:21.648 : en:Chapter 48
02:48:47.659 : en:Chapter 49
02:54:07.895 : en:Chapter 50
03:06:29.845 : en:Chapter 51






Жанр: фэнтези, приключения
Режиссер: Питер Джексон
В ролях: :Эйдан Тернер, Эванджелин Лилли, Хьюго Уивинг(Elrond_Lord of Rivendell), Кристофер Ли, Люк Эванс, Иэн МакКеллен, Ричард Армитедж, Мартин Фриман, Ли Пейс, Орландо Блум, Бенедикт Камбербэтч, Кен Стотт
О фильме: Когда отряд из тринадцати гномов нанимал хоббита Бильбо Бэгинса в качестве взломщика и четырнадцатого, «счастливого», участника похода к Одинокой горе, Бильбо полагал, что его приключения закончатся, когда он выполнит свою задачу — найдет сокровище, которое так необходимо предводителю гномов Торину. Путешествие в Эребор, захваченное драконом Смаугом королевство гномов, оказалось еще более опасным, чем предполагали гномы и даже Гэндальф — мудрый волшебник, протянувший Торину и его отряду руку помощи.

В погоню за гномами устремилась армия орков, ведомых пробудившимся в руинах древним злом, а эльфы и люди, с которыми Бильбо и его товарищам пришлось иметь дело во время путешествия и которые пострадали от последствий желания гномов вернуть свой дом, предъявили права на щедрое вознаграждение — часть сокровищ Одинокой горы. Скоро неподалеку от Одинокой горы встретятся пять армий, и лишь кровопролитная битва определит результаты смелого гномьего похода.



Выпущено: США, Новая Зеландия
Продолжительность: 02:44:02
Озвучивание: Профессиональный (полное дублирование), Авторский (одноголосый закадровый)
Субтитры: русские, английские

Файл
Формат: MKV
Качество: BDRip 1080р
Видео: 1920x800, MPEG4/AVC, High@L4.1, 23,976 (24000/1001) кадра/сек, ~3500 Кбит/сек
Аудио: 48,0 КГц, AC3 Dolby Digital, 3/2 (L,C,R,l,r) + LFE ch, 448 kbps Профессиональный (полное дублирование) Blu-ray CEE со вставками Юрия Сербина на речь эльфов и орков
Аудио: 48,0 КГц, AC3 Dolby Digital, 3/2 (L,C,R,l,r) + LFE ch, 448 kbps Авторский (одноголосый закадровый) Ю.Сербин
Аудио: 48,0 КГц, AC3 Dolby Digital, 3/2 (L,C,R,l,r) + LFE ch, 448 kbps Оригинальная аудиодорожка: английский
Общее
Уникальный идентификатор : 191591074698680782139538638575006732586 (0x90231949E7B3A6CAA3F542E8C5A5512A)
Полное имя : D:\Данияр\Раздача\The Hobbit Collection.daniyar.esmuhanov\Хоббит Битва пяти воинств (фэнтези, приключения) 2014 Расширенная версия.mkv
Формат : Matroska
Версия формата : Version 4 / Version 2
Размер файла : 4,41 Гбайт
Продолжительность : 2 ч. 44 м.
Название фильма : Исходник: Blu-ray Disc | Автор рипа: Есмуханов Данияр Исламбекович | daniyar.esmuhanov
Программа кодирования : mkvmerge v8.3.0 ('Over the Horizon') 64bit
Библиотека кодирования : libebml v1.3.1 + libmatroska v1.4.2

Видео
Идентификатор : 1
Формат : AVC
Формат/Информация : Advanced Video Codec
Профиль формата : High@L4.1
Настройки формата : CABAC / 4 Ref Frames
Параметр CABAC формата : Да
Параметр RefFrames формата : 4 кадра
Идентификатор кодека : V_MPEG4/ISO/AVC
Продолжительность : 2 ч. 44 м.
Вид битрейта : Переменный
Переменный битрейт : 62,5 Мбит/сек | 2500 Кбит/сек | 3500 Кбит/сек
Битрейт : 3500 Кбит/сек
Ширина : 1920 пикселей
Высота : 800 пикселей
Соотношение сторон : 2,40:1
Режим частоты кадров : Постоянный
Частота кадров : 23,976 (23976/1000) кадра/сек
Цветовое пространство : YUV
Субдискретизация насыщенности : 4:2:0
Битовая глубина : 8 бит
Тип развёртки : Прогрессивная
Бит/(Пиксели*Кадры) : 0.068
Размер потока : 2,86 Гбайт (65%)
Заголовок : Исходник: Blu-ray Disc | Автор рипа: Есмуханов Данияр Исламбекович | daniyar.esmuhanov
Библиотека кодирования : x264 core 148 r2597M e86f3a1
Настройки программы : cabac=1 / ref=4 / deblock=1:-1:-1 / analyse=0x3:0x113 / me=umh / subme=9 / psy=1 / psy_rd=1.00:0.15 / mixed_ref=1 / me_range=24 / chroma_me=1 / trellis=2 / 8x8dct=1 / cqm=0 / deadzone=21,11 / fast_pskip=1 / chroma_qp_offset=-3 / threads=32 / lookahead_threads=4 / sliced_threads=0 / nr=0 / decimate=1 / interlaced=0 / bluray_compat=0 / constrained_intra=0 / bframes=3 / b_pyramid=2 / b_adapt=2 / b_bias=0 / direct=3 / weightb=1 / open_gop=0 / weightp=2 / keyint=250 / keyint_min=25 / scenecut=40 / intra_refresh=0 / rc_lookahead=50 / rc=2pass / mbtree=1 / bitrate=3500 / ratetol=1.0 / qcomp=0.60 / qpmin=0 / qpmax=69 / qpstep=4 / cplxblur=20.0 / qblur=0.5 / vbv_maxrate=31250 / vbv_bufsize=31250 / nal_hrd=none / filler=0 / ip_ratio=1.40 / aq=3:1.00
Язык : English
Default : Да
Forced : Да

Аудио #1
Идентификатор : 2
Формат : AC-3
Формат/Информация : Audio Coding 3
Идентификатор кодека : A_AC3
Продолжительность : 2 ч. 44 м.
Вид битрейта : Постоянный
Битрейт : 448 Кбит/сек
Каналы : 6 каналов
Расположение каналов : Front: L C R, Side: L R, LFE
Частота : 48,0 КГц
Частота кадров : 31,250 кадров/сек (1536 SPF)
Битовая глубина : 16 бит
Метод сжатия : С потерями
Размер потока : 526 Мбайт (12%)
Заголовок : Профессиональный (полное дублирование) Blu-ray CEE со вставками Юрия Сербина на речь эльфов и орков
Язык : Russian
ServiceKind/String : Complete Main
Default : Да
Forced : Да

Аудио #2
Идентификатор : 3
Формат : AC-3
Формат/Информация : Audio Coding 3
Идентификатор кодека : A_AC3
Продолжительность : 2 ч. 44 м.
Вид битрейта : Постоянный
Битрейт : 448 Кбит/сек
Каналы : 6 каналов
Расположение каналов : Front: L C R, Side: L R, LFE
Частота : 48,0 КГц
Частота кадров : 31,250 кадров/сек (1536 SPF)
Битовая глубина : 16 бит
Метод сжатия : С потерями
Размер потока : 526 Мбайт (12%)
Заголовок : Авторский (одноголосый закадровый) Ю.Сербин
Язык : Russian
ServiceKind/String : Complete Main
Default : Нет
Forced : Нет

Аудио #3
Идентификатор : 4
Формат : AC-3
Формат/Информация : Audio Coding 3
Идентификатор кодека : A_AC3
Продолжительность : 2 ч. 44 м.
Вид битрейта : Постоянный
Битрейт : 448 Кбит/сек
Каналы : 6 каналов
Расположение каналов : Front: L C R, Side: L R, LFE
Частота : 48,0 КГц
Частота кадров : 31,250 кадров/сек (1536 SPF)
Битовая глубина : 16 бит
Метод сжатия : С потерями
Размер потока : 526 Мбайт (12%)
Язык : English
ServiceKind/String : Complete Main
Default : Нет
Forced : Нет

Текст #1
Идентификатор : 5
Формат : UTF-8
Идентификатор кодека : S_TEXT/UTF8
Идентификатор кодека/Информация : UTF-8 Plain Text
Продолжительность : 2 ч. 28 м.
Битрейт : 5 бит/сек
ElementCount : 98
Размер потока : 6,03 Кбайт (0%)
Заголовок : Форсированные
Язык : Russian
Default : Да
Forced : Да

Текст #2
Идентификатор : 6
Формат : UTF-8
Идентификатор кодека : S_TEXT/UTF8
Идентификатор кодека/Информация : UTF-8 Plain Text
Продолжительность : 2 ч. 42 м.
Битрейт : 39 бит/сек
ElementCount : 1549
Размер потока : 47,2 Кбайт (0%)
Язык : Russian
Default : Нет
Forced : Нет

Текст #3
Идентификатор : 7
Формат : UTF-8
Идентификатор кодека : S_TEXT/UTF8
Идентификатор кодека/Информация : UTF-8 Plain Text
Продолжительность : 2 ч. 29 м.
Битрейт : 29 бит/сек
ElementCount : 1462
Размер потока : 32,8 Кбайт (0%)
Язык : English
Default : Нет
Forced : Нет

Меню
00:00:00.000 : en:Fire and Water
00:05:12.061 : en:Bard the Dragon-Slayer
00:12:47.016 : en:Dungeons of the Dark Lord
00:13:18.964 : en:Shores of the Long Lake
00:18:57.219 : en:Not at Home
00:23:42.003 : en:Others will Now Look to the Mountain
00:24:56.119 : en:Legions of the Defiler
00:26:04.354 : en:The Mark of Gundabad
00:27:32.984 : en:Attack on Dol Guldur
00:35:45.351 : en:Summon Our Friends
00:36:41.073 : en:The King's Jewel
00:40:41.898 : en:The Ruins of Dale
00:42:01.144 : en:Erebor Fortified
00:43:11.756 : en:The Elvenking's Aid
00:46:16.148 : en:The Gathering of the Clouds
00:51:27.668 : en:A Token of Friendship
00:54:57.961 : en:The Shadow of Gundabad
00:56:14.830 : en:The Last Move in a Master Plan
00:58:31.299 : en:Bolg of the North
01:00:26.957 : en:The Night Watch
01:02:43.593 : en:A Thief in the Night
01:06:10.175 : en:An Honest Burglar
01:12:23.297 : en:Dain Ironfoot
01:17:22.555 : en:The Clouds Burst
01:20:36.331 : en:The Battle at Dale
01:24:57.217 : en:The Darkest Hour
01:28:41.775 : en:Dragon-Sickness
01:30:52.280 : en:The Return of Thorin Oakenshild
01:33:02.159 : en:Sons of Durin
01:35:12.832 : en:"To the King!"
01:38:32.489 : en:A Call to Arms
01:39:42.893 : en:Thorin's Plan
01:41:00.596 : en:The War Chariot
01:45:03.505 : en:Courage and Cowardice
01:47:13.635 : en:The Fifth Army
01:49:05.288 : en:Scouting Ravenhill
01:50:03.013 : en:Blood of the Eldar
01:52:59.606 : en:An Unforeseen Remedy
01:53:51.282 : en:The Fallen
01:57:15.236 : en:The Battle at Ravenhill
02:05:38.572 : en:To the Death
02:12:07.044 : en:Parting in Friendship
02:20:07.440 : en:King under the Mountain
02:22:27.205 : en:The Return Journey
02:26:11.596 : en:The Last Stage
02:30:54.462 : en:Credits






Rip by Есмуханов Данияр Исламбекович | daniyar.esmuhanov
Как качать, Как раздавать - Правила и инструкции
Торрент03 апр 2018, 21:01 [ 03 апр 2018, 21:01 ]

СКАЧАТЬ с просмотром рекламы
СтатусПроверен Download more
.torrent скачан93 раз
Размер14.32 ГБ (15 380 725 479)
Скачал сам?! Дай скачать другим, не уходи с раздачи!!!

"Не уходи со злостью на душе, не отворачивайся с ненавистью в сердце".

Вернуться в Зарубежные фильмы после 2000го года...



Кто сейчас на конференции

Сейчас этот форум просматривают: DYUPA74, Zakol, zepter12

Ресурс не предоставляет электронные версии произведений, а занимается лишь коллекционированием и каталогизацией ссылок, присылаемых и публикуемых на форуме нашими читателями. Если вы являетесь правообладателем какого-либо представленного материала и не желаете чтобы ссылка на него находилась в нашем каталоге, свяжитесь с нами и мы незамедлительно удалим её. Файлы для обмена на трекере предоставлены пользователями сайта, и администрация не несёт ответственности за их содержание. Просьба не заливать файлы, защищенные авторскими правами, а также файлы нелегального содержания!