Код бессмертия / Eternal Code [2019, Боевик, триллер, криминал, WEB-DL 1080p | iTunes] - Скачать торрент бесплатно

Модераторы: Модераторы Фильмы, мультфильмы, Союз Риперов

Поделиться ВКонтакте Поделиться Facebook Поделиться Twitter Поделиться Mail.RU
АвторСообщение
VLAD71
Аватара пользователя
Тоp Releaser
Тоp Releaser
 
Раздал: 147.48 ТБ
Скачал: 40.91 ТБ
Ратио: 623.902
Сообщения: 178
Зарегистрирован: 17 дек 2017, 05:16
Награды: 2
За 100 сообщений (1) 30 Тб отданного (1)

Сообщение VLAD71 » 26 янв 2021, 04:11

Код бессмертия / Eternal Code [2019, Боевик, триллер, криминал, WEB-DL 1080p | iTunes] - Скачать торрент

Информация о фильме
Название: Код бессмертия
Оригинальное название: Eternal Code
Год выхода: 2019
Жанр: Боевик, триллер, криминал
Режиссер: Харли Уоллен
В ролях: Ричард Тайсон, Скаут Тэйлор-Комптон, Билли Уэрт, Ян Бирч, Мел Новак, Эрика Хоувленд, Дэмиен Чинаппи, Кетти Уоллен, Анджелина Даниэль Кама, Харли Уоллен



О фильме: Бриджит занимается разработкой революционного изобретения, которое может изменить мир. Когда разработка вот-вот войдет в финальную стадию, ученая узнает, что компания, которая финансировала исследования, нарушает договор. Бриджит хочет выйти из сотрудничества, но понимает, что ей угрожает опасность. Те, кто желает во чтобы то ни стало заполучить это изобретение, готов на все, чтобы Бриджит закончила свою работу.

Страна: США
Студия: Auburn Moon Productions, Carribean Fury Productions, Painted Creek Productions
Продолжительность: 01:45:51
Перевод: Дублированный | iTunes

Качество: WEB-DL 1080p
Видео: MPEG-4 AVC, 1920x816, 7032 Kbit/s, 23.976 fps
Аудио #01: 48 kHz, AC3, 2.0, 192 Kbps | iTunes | RUS |
Аудио #02: 48 kHz, E-AC3, 2.0, 224 Kbps | Оригинал | ENG |
Субтитры: Отсутсвуют
Общее
Уникальный идентификатор : 213546254614551972707894741167754290094 (0xA0A7833B8C75E9DEE44557640595A3AE)
Полное имя : Eternal.Code.2019.WEB-DL.1080p.seleZen.mkv
Формат : Matroska
Версия формата : Version 4
Размер файла : 5,51 Гбайт
Продолжительность : 1 ч. 45 м.
Режим общего битрейта : Постоянный
Общий поток : 7 450 Кбит/сек
Название фильма : Eternal Code 2019 from seleZen
Дата кодирования : UTC 2021-01-25 21:52:32
Программа кодирования : mkvmerge v52.0.0 ('Secret For The Mad') 64-bit
Библиотека кодирования : libebml v1.4.1 + libmatroska v1.6.2

Видео
Идентификатор : 1
Формат : AVC
Формат/Информация : Advanced Video Codec
Профиль формата : High@L4
Настройки формата : CABAC / 4 Ref Frames
Параметр CABAC формата : Да
Параметр RefFrames формата : 4 кадра
Идентификатор кодека : V_MPEG4/ISO/AVC
Продолжительность : 1 ч. 45 м.
Вид битрейта : Постоянный
Битрейт : 7 032 Кбит/сек
Номинальный битрейт : 10 000 Кбит/сек
Ширина : 1 920 пикселей
Высота : 816 пикселей
Соотношение сторон : 2,35:1
Режим частоты кадров : Постоянный
Частота кадров : 23,976 (24000/1001) кадра/сек
Цветовое пространство : YUV
Субдискретизация насыщенности : 4:2:0
Битовая глубина : 8 бит
Тип развёртки : Прогрессивная
Бит/(Пиксели*Кадры) : 0.187
Размер потока : 5,20 Гбайт (94%)
Язык : English
Default : Да
Forced : Нет
Цветовой диапазон : Limited
Основные цвета : BT.709
Характеристики трансфера : BT.709
Коэффициенты матрицы : BT.709

Аудио #1
Идентификатор : 2
Формат : AC-3
Формат/Информация : Audio Coding 3
Коммерческое название : Dolby Digital
Идентификатор кодека : A_AC3
Продолжительность : 1 ч. 45 м.
Вид битрейта : Постоянный
Битрейт : 192 Кбит/сек
Каналы : 2 канала
Channel layout : L R
Частота : 48,0 КГц
Частота кадров : 31,250 кадров/сек (1536 SPF)
Метод сжатия : С потерями
Размер потока : 145 Мбайт (3%)
Заголовок : iTunes
Язык : Russian
Default : Да
Forced : Да

Аудио #2
Идентификатор : 3
Формат : E-AC-3
Формат/Информация : Enhanced AC-3
Коммерческое название : Dolby Digital Plus
Идентификатор кодека : A_EAC3
Продолжительность : 1 ч. 45 м.
Вид битрейта : Постоянный
Битрейт : 224 Кбит/сек
Каналы : 2 канала
Channel layout : L R
Частота : 48,0 КГц
Частота кадров : 31,250 кадров/сек (1536 SPF)
Метод сжатия : С потерями
Размер потока : 170 Мбайт (3%)
Заголовок : Original
Язык : English
Default : Нет
Forced : Нет
Как качать, Как раздавать - Правила и инструкции
Торрент26 янв 2021, 04:11 [ 26 янв 2021, 04:11 ]

СКАЧАТЬ с просмотром рекламы
СтатусПроверен MR_LARRY
.torrent скачан0 раз
Размер5.51 ГБ (5 914 083 005)

ruslan_piskunov

Аватара пользователя
Старожил
Старожил
 

Сообщения: 1149

Зарегистрирован: 05 дек 2011, 22:46

Откуда: МОСКВА

Награды: 10
За 100 сообщений (1) За 500 сообщений (1) За 1000 сообщений (1) 5 Тб отданного (1) 10 Тб отданного (1) За 1000 сказанных спасибо (1) За вступление в группу VK (1) За вступление в Telegram (1) 200 кармы (1) Халява №5 (1)

Сообщение ruslan_piskunov» 26 янв 2021, 15:23

Хватило на 20 минут


Вернуться в Зарубежные фильмы после 2000го года...



Кто сейчас на конференции

Сейчас этот форум просматривают: medjanka

Ресурс не предоставляет электронные версии произведений, а занимается лишь коллекционированием и каталогизацией ссылок, присылаемых и публикуемых на форуме нашими читателями. Если вы являетесь правообладателем какого-либо представленного материала и не желаете чтобы ссылка на него находилась в нашем каталоге, свяжитесь с нами и мы незамедлительно удалим её. Файлы для обмена на трекере предоставлены пользователями сайта, и администрация не несёт ответственности за их содержание. Просьба не заливать файлы, защищенные авторскими правами, а также файлы нелегального содержания!