Кошмар на улице Вязов / A Nightmare on Elm Street [1984-2010, боевик, ужасы, триллер, драма, криминал, детектив BDRip 1080р] Коллекция - Скачать торрент бесплатно

Модераторы: Модераторы Фильмы, мультфильмы, Союз Риперов

Поделиться ВКонтакте Поделиться Facebook Поделиться Twitter Поделиться Mail.RU
АвторСообщение
Download more
Аватара пользователя
Модератор Фильмов
Модератор Фильмов
 
Раздал: 41.76 ТБ
Скачал: 14.87 ТБ
Ратио: 305.048
Сообщения: 788
Зарегистрирован: 19 ноя 2016, 16:36
Откуда: г. Астана, Казахстан Encoded by daniyar.esmuhanov
Награды: 17
За 100 сообщений (1) За 500 сообщений (1) 5 Тб отданного (1) 10 Тб отданного (1) 15 Тб отданного (1) 20 Тб отданного (1) 30 Тб отданного (1) 10 Тб скаченного (1) 250 релизов (1) 500 релизов (1) За 2000 полученных спасибо (1) За 4000 полученных спасибо (1) 30 рипов (1) 50 рипов (1) 200 кармы (1) 500 кармы (1) Халява №3 (1)
Карма: 842
-2--2--2--2--2-

Сообщение Download more » 23 дек 2017, 23:14

Кошмар на улице Вязов / A Nightmare on Elm Street [1984-2010, боевик, ужасы, триллер, драма, криминал, детектив BDRip 1080р] Коллекция - Скачать торрент

Название: Кошмар на улице Вязов / A Nightmare on Elm Street

Дата выхода: 1984
Студия: New Line Cinema
Жанр: Триллер, Ужасы
Страна: США
Субтитры: UTF-8 русские, английские
Перевод: Профессиональный (многоголосый закадровый), Профессиональный (двухголосый закадровый)
Продолжительность: 01:31:14
Режиссёр: Уэс Крэйвен / Wes Craven
В ролях: Хэзер Лэнгенкэмп, Рони Блейкли, Джон Сэксон, Аманда Уайсс, Роберт Инглунд, Джонни Депп, Чарльз Флайшер, Джозеф Випп, Джейсу Гарсия, Лин Шэй
Описание: Старшеклассников одной из школ Спрингвуда преследует один и тот же кошмарный сон, в котором за ними гонится и кромсает на куски изуродованный человек в шляпе и с ножами на своей перчатке. И тот, кого убили во сне, — умирает в реальности… Оказывается, много лет назад герой сна Фредди Крюгер был маньяком, совершившим несколько зверских убийств детей. Их родители, не дожидаясь суда, линчевали Фредди, спалив заживо в котельной. И теперь Фредди пришел отомстить…

Качество: BDRip 1080р
Формат файла: MKV
Видео: 1920x1072, High@L4.1, MPEG4/ISO/AVC, 23,976 (24000/1001) кадра/сек, ~3584 Кбит/сек
Аудио: 48,0 КГц, AC3 Dolby Digital, 3/2 (L,C,R,l,r) + LFE ch, 448 kbps Профессиональный (многоголосый закадровый) Позитив-Мультимедия
Аудио: 48,0 КГц, AC3 Dolby Digital, 3/2 (L,C,R,l,r) + LFE ch, 448 kbps Профессиональный (многоголосый закадровый) DDV
Аудио: 48,0 КГц, AC3 Dolby Digital, 3/2 (L,C,R,l,r) + LFE ch, 448 kbps Профессиональный (многоголосый закадровый) CP-Digital
Аудио: 48,0 КГц, AC3 Dolby Digital, 2 канала, 192 Кбит/сек Профессиональный (двухголосый закадровый) НТВ
Аудио: 48,0 КГц, AC3 Dolby Digital, 3/2 (L,C,R,l,r) + LFE ch, 448 kbps Оригинальная аудиодорожка: английский
Видео
Идентификатор : 1
Формат : AVC
Формат/Информация : Advanced Video Codec
Профиль формата : High@L4.1
Параметр CABAC формата : Да
Параметр RefFrames формата : 6 кадров
Идентификатор кодека : V_MPEG4/ISO/AVC
Продолжительность : 1 ч. 31 м.
Вид битрейта : Переменный
Переменный битрейт : 5584 Кбит/сек | 2584 Кбит/сек | 3584 Кбит/сек
Битрейт : 3584 Кбит/сек
Ширина : 1920 пикселей
Высота : 1072 пикселя
Соотношение сторон : 16:9
Соотношение сторон в оригинале : 16:9
Режим частоты кадров : Постоянный
Частота кадров : 23,976 (24000/1001) кадра/сек
Цветовое пространство : YUV
Субдискретизация насыщенности : 4:2:0
Битовая глубина : 8 бит
Тип развёртки : Прогрессивная
Бит/(Пиксели*Кадры) : 0.052
Размер потока : 1,65 Гбайт (57%)
Заголовок : Исходник: Blu-ray Disc | Автор рипа: Есмуханов Данияр Исламбекович | daniyar.esmuhanov
Библиотека кодирования : x264 core 120
Настройки программы : cabac=1 / ref=6 / deblock=1:1:0 / analyse=0x3:0x113 / me=umh / subme=6 / psy=1 / psy_rd=1.00:0.00 / mixed_ref=1 / me_range=16 / chroma_me=1 / trellis=1 / 8x8dct=1 / cqm=0 / deadzone=21,11 / fast_pskip=1 / chroma_qp_offset=-2 / threads=12 / sliced_threads=0 / nr=0 / decimate=1 / interlaced=0 / bluray_compat=0 / constrained_intra=0 / bframes=6 / b_pyramid=2 / b_adapt=2 / b_bias=0 / direct=1 / weightb=1 / open_gop=0 / weightp=2 / keyint=240 / keyint_min=24 / scenecut=40 / intra_refresh=0 / rc_lookahead=50 / rc=crf / mbtree=1 / crf=25.0 / qcomp=0.60 / qpmin=3 / qpmax=69 / qpstep=4 / ip_ratio=1.40 / aq=1:1.00
Язык : English
Default : Да
Forced : Да
Цветовой диапазон : Limited
Основные цвета : BT.709
Характеристики трансфера : BT.709
Коэффициенты матрицы : BT.709

Аудио #1
Идентификатор : 2
Формат : AC-3
Формат/Информация : Audio Coding 3
Параметр Endianness формата : Big
Идентификатор кодека : A_AC3
Продолжительность : 1 ч. 31 м.
Вид битрейта : Постоянный
Битрейт : 448 Кбит/сек
Каналы : 6 каналов
Расположение каналов : Front: L C R, Side: L R, LFE
Частота : 48,0 КГц
Частота кадров : 31,250 кадров/сек (1536 SPF)
Битовая глубина : 16 бит
Метод сжатия : С потерями
Размер потока : 292 Мбайт (10%)
Заголовок : Профессиональный (многоголосый закадровый) Позитив-Мультимедия
Язык : Russian
ServiceKind/String : Complete Main
Default : Да
Forced : Да

Аудио #2
Идентификатор : 3
Формат : AC-3
Формат/Информация : Audio Coding 3
Параметр Endianness формата : Big
Идентификатор кодека : A_AC3
Продолжительность : 1 ч. 31 м.
Вид битрейта : Постоянный
Битрейт : 448 Кбит/сек
Каналы : 6 каналов
Расположение каналов : Front: L C R, Side: L R, LFE
Частота : 48,0 КГц
Частота кадров : 31,250 кадров/сек (1536 SPF)
Битовая глубина : 16 бит
Метод сжатия : С потерями
Размер потока : 292 Мбайт (10%)
Заголовок : Профессиональный (многоголосый закадровый) DDV
Язык : Russian
ServiceKind/String : Complete Main
Default : Нет
Forced : Нет

Аудио #3
Идентификатор : 4
Формат : AC-3
Формат/Информация : Audio Coding 3
Параметр Endianness формата : Big
Идентификатор кодека : A_AC3
Продолжительность : 1 ч. 31 м.
Вид битрейта : Постоянный
Битрейт : 448 Кбит/сек
Каналы : 6 каналов
Расположение каналов : Front: L C R, Side: L R, LFE
Частота : 48,0 КГц
Частота кадров : 31,250 кадров/сек (1536 SPF)
Битовая глубина : 16 бит
Метод сжатия : С потерями
Размер потока : 292 Мбайт (10%)
Заголовок : Профессиональный (многоголосый закадровый) CP-Digital
Язык : Russian
ServiceKind/String : Complete Main
Default : Нет
Forced : Нет

Аудио #4
Идентификатор : 5
Формат : AC-3
Формат/Информация : Audio Coding 3
Параметр Endianness формата : Big
Идентификатор кодека : A_AC3
Продолжительность : 1 ч. 31 м.
Вид битрейта : Постоянный
Битрейт : 192 Кбит/сек
Каналы : 2 канала
Расположение каналов : Front: L R
Частота : 48,0 КГц
Частота кадров : 31,250 кадров/сек (1536 SPF)
Битовая глубина : 16 бит
Метод сжатия : С потерями
Размер потока : 125 Мбайт (4%)
Заголовок : Профессиональный (двухголосый закадровый) НТВ
Язык : Russian
ServiceKind/String : Complete Main
Default : Нет
Forced : Нет

Аудио #5
Идентификатор : 6
Формат : AC-3
Формат/Информация : Audio Coding 3
Параметр Endianness формата : Big
Идентификатор кодека : A_AC3
Продолжительность : 1 ч. 31 м.
Вид битрейта : Постоянный
Битрейт : 448 Кбит/сек
Каналы : 6 каналов
Расположение каналов : Front: L C R, Side: L R, LFE
Частота : 48,0 КГц
Частота кадров : 31,250 кадров/сек (1536 SPF)
Битовая глубина : 16 бит
Метод сжатия : С потерями
Размер потока : 292 Мбайт (10%)
Язык : English
ServiceKind/String : Complete Main
Default : Нет
Forced : Нет

Текст #1
Идентификатор : 7
Формат : UTF-8
Идентификатор кодека : S_TEXT/UTF8
Идентификатор кодека/Информация : UTF-8 Plain Text
Продолжительность : 1 ч. 29 м.
Битрейт : 66 бит/сек
ElementCount : 839
Размер потока : 43,4 Кбайт (0%)
Язык : Russian
Default : Нет
Forced : Нет

Текст #2
Идентификатор : 8
Формат : UTF-8
Идентификатор кодека : S_TEXT/UTF8
Идентификатор кодека/Информация : UTF-8 Plain Text
Продолжительность : 1 ч. 28 м.
Битрейт : 70 бит/сек
ElementCount : 944
Размер потока : 45,5 Кбайт (0%)
Язык : Russian
Default : Нет
Forced : Нет

Текст #3
Идентификатор : 9
Формат : UTF-8
Идентификатор кодека : S_TEXT/UTF8
Идентификатор кодека/Информация : UTF-8 Plain Text
Продолжительность : 1 ч. 30 м.
Битрейт : 44 бит/сек
ElementCount : 947
Размер потока : 29,4 Кбайт (0%)
Язык : English
Default : Нет
Forced : Нет

Меню
00:00:00.000 : en:Chapter 1
00:03:35.632 : en:Chapter 2
00:05:51.476 : en:Chapter 3
00:08:10.990 : en:Chapter 4
00:10:44.060 : en:Chapter 5
00:14:48.053 : en:Chapter 6
00:18:26.688 : en:Chapter 7
00:20:27.684 : en:Chapter 8
00:23:06.385 : en:Chapter 9
00:29:27.474 : en:Chapter 10
00:31:39.898 : en:Chapter 11
00:34:22.935 : en:Chapter 12
00:37:03.387 : en:Chapter 13
00:43:13.465 : en:Chapter 14
00:47:29.012 : en:Chapter 15
00:51:29.711 : en:Chapter 16
00:56:19.542 : en:Chapter 17
00:58:51.528 : en:Chapter 18
01:02:59.692 : en:Chapter 19
01:08:02.369 : en:Chapter 20
01:11:49.513 : en:Chapter 21
01:15:34.696 : en:Chapter 22
01:21:04.734 : en:Chapter 23
01:25:26.037 : en:Chapter 24
01:29:06.632 : en:Chapter 25





Кошмар на улице Вязов 2: Месть Фредди / A Nightmare on Elm Street Part 2: Freddy's Revenge

Дата выхода: 1985
Студия: New Line Cinema
Жанр: Триллер, Ужасы
Страна: США
Субтитры: UTF-8 русские, английские
Перевод: Профессиональный (многоголосый закадровый), Профессиональный (двухголосый закадровый)
Продолжительность: 01:25:37
Режиссёр: Джек Шолдер / Jack Sholder
В ролях: Марк Паттон, Ким Майерс, Клу Гулагер, Хоуп Лэнг, Маршалл Белл, Мелинда О. Фи, Том МакФедден, Сидни Уолш, Роберт Раслер, Эдвард Блэкофф
Описание: Спустя пять лет в дом, где подростков преследовали кошмары с кровавым убийцей, въезжает новая семья, ничего не подозревающая о дурной славе этого коттеджа. Фрэдди Крюгер вновь возникает в снах юного Джесси Уэлма и пытается завладеть не только его мозгом, но и телом. Подружка Джесси, Лиза, надеется помочь ему избавиться от навязчивого видения. Замечательные спецэффекты и пиротехника обеспечили фильму кассовый успех.

Качество: BDRip 1080р
Формат файла: MKV
Видео: 1920x1080, High@L4, MPEG4/ISO/AVC, 23,976 (24000/1001) кадра/сек, ~3914 Кбит/сек
Аудио: 48,0 КГц, AC3 Dolby Digital, 3/2 (L,C,R,l,r) + LFE ch, 448 kbps Профессиональный (многоголосый закадровый) Позитив-Мультимедия
Аудио: 48,0 КГц, AC3 Dolby Digital, 3/2 (L,C,R,l,r) + LFE ch, 448 kbps Профессиональный (многоголосый закадровый) DDV
Аудио: 48,0 КГц, AC3 Dolby Digital, 3/2 (L,C,R,l,r) + LFE ch, 448 kbps Профессиональный (многоголосый закадровый) CP-Digital
Аудио: 48,0 КГц, AC3 Dolby Digital, 2 канала, 192 Кбит/сек Профессиональный (двухголосый закадровый) НТВ
Аудио: 48,0 КГц, AC3 Dolby Digital, 3/2 (L,C,R,l,r) + LFE ch, 448 kbps Оригинальная аудиодорожка: английский
Видео
Идентификатор : 1
Формат : AVC
Формат/Информация : Advanced Video Codec
Профиль формата : High@L4
Параметр CABAC формата : Да
Параметр RefFrames формата : 3 кадра
Идентификатор кодека : V_MPEG4/ISO/AVC
Продолжительность : 1 ч. 25 м.
Вид битрейта : Переменный
Переменный битрейт : 5914Кбит/сек | 1914 Кбит/сек | 3914 Кбит/сек
Битрейт : 3914 Кбит/сек
Ширина : 1920 пикселей
Высота : 1080 пикселей
Соотношение сторон : 16:9
Режим частоты кадров : Постоянный
Частота кадров : 23,976 (24000/1001) кадра/сек
Цветовое пространство : YUV
Субдискретизация насыщенности : 4:2:0
Битовая глубина : 8 бит
Тип развёртки : Прогрессивная
Бит/(Пиксели*Кадры) : 0.038
Размер потока : 1,14 Гбайт (49%)
Заголовок : Исходник: Blu-ray Disc | Автор рипа: Есмуханов Данияр Исламбекович | daniyar.esmuhanov
Библиотека кодирования : x264 core 129 r2245 bc13772
Настройки программы : cabac=1 / ref=4 / deblock=1:0:0 / analyse=0x3:0x133 / me=umh / subme=9 / psy=1 / psy_rd=1.00:0.00 / mixed_ref=1 / me_range=16 / chroma_me=1 / trellis=2 / 8x8dct=1 / cqm=0 / deadzone=21,11 / fast_pskip=1 / chroma_qp_offset=-2 / threads=12 / lookahead_threads=2 / sliced_threads=0 / nr=0 / decimate=1 / interlaced=0 / bluray_compat=0 / constrained_intra=0 / bframes=3 / b_pyramid=1 / b_adapt=2 / b_bias=2 / direct=3 / weightb=1 / open_gop=0 / weightp=2 / keyint=240 / keyint_min=23 / scenecut=40 / intra_refresh=0 / rc_lookahead=60 / rc=2pass / mbtree=1 / bitrate=3914 / ratetol=1.0 / qcomp=0.60 / qpmin=0 / qpmax=69 / qpstep=4 / cplxblur=20.0 / qblur=0.5 / ip_ratio=1.40 / aq=1:1.00
Язык : English
Default : Да
Forced : Да

Аудио #1
Идентификатор : 2
Формат : AC-3
Формат/Информация : Audio Coding 3
Параметр Endianness формата : Big
Идентификатор кодека : A_AC3
Продолжительность : 1 ч. 25 м.
Вид битрейта : Постоянный
Битрейт : 448 Кбит/сек
Каналы : 6 каналов
Расположение каналов : Front: L C R, Side: L R, LFE
Частота : 48,0 КГц
Частота кадров : 31,250 кадров/сек (1536 SPF)
Битовая глубина : 16 бит
Метод сжатия : С потерями
Размер потока : 274 Мбайт (11%)
Заголовок : Профессиональный (многоголосый закадровый) Позитив-Мультимедия
Язык : Russian
ServiceKind/String : Complete Main
Default : Да
Forced : Да

Аудио #2
Идентификатор : 3
Формат : AC-3
Формат/Информация : Audio Coding 3
Параметр Endianness формата : Big
Идентификатор кодека : A_AC3
Продолжительность : 1 ч. 25 м.
Вид битрейта : Постоянный
Битрейт : 448 Кбит/сек
Каналы : 6 каналов
Расположение каналов : Front: L C R, Side: L R, LFE
Частота : 48,0 КГц
Частота кадров : 31,250 кадров/сек (1536 SPF)
Битовая глубина : 16 бит
Метод сжатия : С потерями
Размер потока : 274 Мбайт (11%)
Заголовок : Профессиональный (многоголосый закадровый) DDV
Язык : Russian
ServiceKind/String : Complete Main
Default : Нет
Forced : Нет

Аудио #3
Идентификатор : 4
Формат : AC-3
Формат/Информация : Audio Coding 3
Параметр Endianness формата : Big
Идентификатор кодека : A_AC3
Продолжительность : 1 ч. 25 м.
Вид битрейта : Постоянный
Битрейт : 448 Кбит/сек
Каналы : 6 каналов
Расположение каналов : Front: L C R, Side: L R, LFE
Частота : 48,0 КГц
Частота кадров : 31,250 кадров/сек (1536 SPF)
Битовая глубина : 16 бит
Метод сжатия : С потерями
Размер потока : 274 Мбайт (11%)
Заголовок : Профессиональный (многоголосый закадровый) CP-Digital
Язык : Russian
ServiceKind/String : Complete Main
Default : Нет
Forced : Нет

Аудио #4
Идентификатор : 5
Формат : AC-3
Формат/Информация : Audio Coding 3
Параметр Endianness формата : Big
Идентификатор кодека : A_AC3
Продолжительность : 1 ч. 25 м.
Вид битрейта : Постоянный
Битрейт : 192 Кбит/сек
Каналы : 2 канала
Расположение каналов : Front: L R
Частота : 48,0 КГц
Частота кадров : 31,250 кадров/сек (1536 SPF)
Битовая глубина : 16 бит
Метод сжатия : С потерями
Размер потока : 118 Мбайт (5%)
Заголовок : Профессиональный (двухголосый закадровый) НТВ
Язык : Russian
ServiceKind/String : Complete Main
Default : Нет
Forced : Нет

Аудио #5
Идентификатор : 6
Формат : AC-3
Формат/Информация : Audio Coding 3
Параметр Endianness формата : Big
Идентификатор кодека : A_AC3
Продолжительность : 1 ч. 25 м.
Вид битрейта : Постоянный
Битрейт : 448 Кбит/сек
Каналы : 6 каналов
Расположение каналов : Front: L C R, Side: L R, LFE
Частота : 48,0 КГц
Частота кадров : 31,250 кадров/сек (1536 SPF)
Битовая глубина : 16 бит
Метод сжатия : С потерями
Размер потока : 274 Мбайт (11%)
Язык : English
ServiceKind/String : Complete Main
Default : Нет
Forced : Нет

Текст #1
Идентификатор : 7
Формат : UTF-8
Идентификатор кодека : S_TEXT/UTF8
Идентификатор кодека/Информация : UTF-8 Plain Text
Продолжительность : 1 ч. 22 м.
Битрейт : 44 бит/сек
ElementCount : 581
Размер потока : 26,8 Кбайт (0%)
Язык : Russian
Default : Нет
Forced : Нет

Текст #2
Идентификатор : 8
Формат : UTF-8
Идентификатор кодека : S_TEXT/UTF8
Идентификатор кодека/Информация : UTF-8 Plain Text
Продолжительность : 1 ч. 21 м.
Битрейт : 47 бит/сек
ElementCount : 710
Размер потока : 28,4 Кбайт (0%)
Язык : Russian
Default : Нет
Forced : Нет

Текст #3
Идентификатор : 9
Формат : UTF-8
Идентификатор кодека : S_TEXT/UTF8
Идентификатор кодека/Информация : UTF-8 Plain Text
Продолжительность : 1 ч. 25 м.
Битрейт : 36 бит/сек
ElementCount : 878
Размер потока : 22,9 Кбайт (0%)
Язык : English
Default : Нет
Forced : Нет





Кошмар на улице Вязов 3: Воины сна / A Nightmare on Elm Street 3: Dream Warriors

Дата выхода: 1987
Студия: New Line Cinema
Жанр: Триллер, Ужасы
Страна: США
Субтитры: UTF-8 русские, английские
Перевод: Профессиональный (многоголосый закадровый), Профессиональный (двухголосый закадровый)
Продолжительность: 01:36:38
Режиссёр: Чак Рассел / Chuck Russell
В ролях: Хезер Лангенкамп, Крейг Уассон, Патриция Аркетт, Роберт Ингланд, Кен Сэйгоз, Родни Истмэн, Дженнифер Рубин, Брэдли Грегг, Айра Хейдин, Лоуренс Фишберн, Пенелопа Судроу, Джон Саксон, Присцилла Пойнтер, Клэйтон Ланди, Брук Банди
Описание: События происходят через шесть лет после первого появления Фредди Крюгера. Он стал намного сильнее, подпитываясь душами детей с улицы Вязов. Теперь он обратил внимание на семерых детишек, заключенных в психиатрической лечебнице.

Положение усугубляется повальными «самоубийствами», которые, разумеется, являются проделками Фредди. Разрешить ситуацию и объяснить что происходит может лишь Нэнси Томпсон, которая вернулась в родной город в качестве врача-практиканта…

Качество: BDRip 1080р
Формат файла: MKV
Видео: 1920x1080, High@L4, MPEG4/ISO/AVC, 23,976 (24000/1001) кадра/сек, ~3839 Кбит/сек
Аудио: 48,0 КГц, AC3 Dolby Digital, 3/2 (L,C,R,l,r) + LFE ch, 448 kbps Профессиональный (многоголосый закадровый) Позитив-Мультимедия
Аудио: 48,0 КГц, AC3 Dolby Digital, 3/2 (L,C,R,l,r) + LFE ch, 448 kbps Профессиональный (многоголосый закадровый) DDV
Аудио: 48,0 КГц, AC3 Dolby Digital, 3/2 (L,C,R,l,r) + LFE ch, 448 kbps Профессиональный (многоголосый закадровый) CP-Digital
Аудио: 48,0 КГц, AC3 Dolby Digital, 2 канала, 192 Кбит/сек Профессиональный (двухголосый закадровый) НТВ
Аудио: 48,0 КГц, AC3 Dolby Digital, 3/2 (L,C,R,l,r) + LFE ch, 448 kbps Оригинальная аудиодорожка: английский
Видео
Идентификатор : 1
Формат : AVC
Формат/Информация : Advanced Video Codec
Профиль формата : High@L4
Параметр CABAC формата : Да
Параметр RefFrames формата : 4 кадра
Идентификатор кодека : V_MPEG4/ISO/AVC
Продолжительность : 1 ч. 36 м.
Вид битрейта : Переменный
Переменный битрейт : 5839 Кбит/сек | 1839 Кбит/сек | 3839 Кбит/сек
Битрейт : 3839 Кбит/сек
Ширина : 1920 пикселей
Высота : 1080 пикселей
Соотношение сторон : 16:9
Режим частоты кадров : Постоянный
Частота кадров : 23,976 (24000/1001) кадра/сек
Цветовое пространство : YUV
Субдискретизация насыщенности : 4:2:0
Битовая глубина : 8 бит
Тип развёртки : Прогрессивная
Бит/(Пиксели*Кадры) : 0.037
Размер потока : 1,24 Гбайт (52%)
Заголовок : Исходник: Blu-ray Disc | Автор рипа: Есмуханов Данияр Исламбекович | daniyar.esmuhanov
Библиотека кодирования : x264 core 129 r2245 bc13772
Настройки программы : cabac=1 / ref=4 / deblock=1:-1:-1 / analyse=0x3:0x133 / me=umh / subme=9 / psy=1 / psy_rd=1.00:0.15 / mixed_ref=1 / me_range=16 / chroma_me=1 / trellis=2 / 8x8dct=1 / cqm=0 / deadzone=21,11 / fast_pskip=1 / chroma_qp_offset=-3 / threads=12 / lookahead_threads=2 / sliced_threads=0 / nr=0 / decimate=1 / interlaced=0 / bluray_compat=0 / constrained_intra=0 / bframes=3 / b_pyramid=2 / b_adapt=2 / b_bias=0 / direct=3 / weightb=1 / open_gop=0 / weightp=2 / keyint=240 / keyint_min=23 / scenecut=40 / intra_refresh=0 / rc_lookahead=60 / rc=2pass / mbtree=1 / bitrate=3839 / ratetol=1.0 / qcomp=0.60 / qpmin=10 / qpmax=51 / qpstep=4 / cplxblur=20.0 / qblur=0.5 / ip_ratio=1.40 / aq=1:1.00
Язык : English
Default : Да
Forced : Да

Аудио #1
Идентификатор : 2
Формат : AC-3
Формат/Информация : Audio Coding 3
Параметр Endianness формата : Big
Идентификатор кодека : A_AC3
Продолжительность : 1 ч. 36 м.
Вид битрейта : Постоянный
Битрейт : 448 Кбит/сек
Каналы : 6 каналов
Расположение каналов : Front: L C R, Side: L R, LFE
Частота : 48,0 КГц
Частота кадров : 31,250 кадров/сек (1536 SPF)
Битовая глубина : 16 бит
Метод сжатия : С потерями
Размер потока : 309 Мбайт (13%)
Заголовок : Профессиональный (многоголосый закадровый) Позитив-Мультимедия
Язык : Russian
ServiceKind/String : Complete Main
Default : Да
Forced : Да

Аудио #2
Идентификатор : 3
Формат : AC-3
Формат/Информация : Audio Coding 3
Параметр Endianness формата : Big
Идентификатор кодека : A_AC3
Продолжительность : 1 ч. 36 м.
Вид битрейта : Постоянный
Битрейт : 448 Кбит/сек
Каналы : 6 каналов
Расположение каналов : Front: L C R, Side: L R, LFE
Частота : 48,0 КГц
Частота кадров : 31,250 кадров/сек (1536 SPF)
Битовая глубина : 16 бит
Метод сжатия : С потерями
Размер потока : 309 Мбайт (13%)
Заголовок : Профессиональный (многоголосый закадровый) DDV
Язык : Russian
ServiceKind/String : Complete Main
Default : Нет
Forced : Нет

Аудио #3
Идентификатор : 4
Формат : AC-3
Формат/Информация : Audio Coding 3
Параметр Endianness формата : Big
Идентификатор кодека : A_AC3
Продолжительность : 1 ч. 36 м.
Вид битрейта : Постоянный
Битрейт : 192 Кбит/сек
Каналы : 2 канала
Расположение каналов : Front: L R
Частота : 48,0 КГц
Частота кадров : 31,250 кадров/сек (1536 SPF)
Битовая глубина : 16 бит
Метод сжатия : С потерями
Размер потока : 133 Мбайт (5%)
Заголовок : Профессиональный (многоголосый закадровый) CP-Digital
Язык : Russian
ServiceKind/String : Complete Main
Default : Нет
Forced : Нет

Аудио #4
Идентификатор : 5
Формат : AC-3
Формат/Информация : Audio Coding 3
Параметр Endianness формата : Big
Идентификатор кодека : A_AC3
Продолжительность : 1 ч. 36 м.
Вид битрейта : Постоянный
Битрейт : 192 Кбит/сек
Каналы : 2 канала
Расположение каналов : Front: L R
Частота : 48,0 КГц
Частота кадров : 31,250 кадров/сек (1536 SPF)
Битовая глубина : 16 бит
Метод сжатия : С потерями
Размер потока : 133 Мбайт (5%)
Заголовок : Профессиональный (двухголосый закадровый) НТВ
Язык : Russian
ServiceKind/String : Complete Main
Default : Нет
Forced : Нет

Аудио #5
Идентификатор : 6
Формат : AC-3
Формат/Информация : Audio Coding 3
Параметр Endianness формата : Big
Идентификатор кодека : A_AC3
Продолжительность : 1 ч. 36 м.
Вид битрейта : Постоянный
Битрейт : 448 Кбит/сек
Каналы : 6 каналов
Расположение каналов : Front: L C R, Side: L R, LFE
Частота : 48,0 КГц
Частота кадров : 31,250 кадров/сек (1536 SPF)
Битовая глубина : 16 бит
Метод сжатия : С потерями
Размер потока : 309 Мбайт (13%)
Язык : English
ServiceKind/String : Complete Main
Default : Нет
Forced : Нет

Текст #1
Идентификатор : 7
Формат : UTF-8
Идентификатор кодека : S_TEXT/UTF8
Идентификатор кодека/Информация : UTF-8 Plain Text
Продолжительность : 1 ч. 31 м.
Битрейт : 65 бит/сек
ElementCount : 880
Размер потока : 44,3 Кбайт (0%)
Язык : Russian
Default : Нет
Forced : Нет

Текст #2
Идентификатор : 8
Формат : UTF-8
Идентификатор кодека : S_TEXT/UTF8
Идентификатор кодека/Информация : UTF-8 Plain Text
Продолжительность : 1 ч. 31 м.
Битрейт : 73 бит/сек
ElementCount : 941
Размер потока : 49,3 Кбайт (0%)
Язык : Russian
Default : Нет
Forced : Нет

Текст #3
Идентификатор : 9
Формат : UTF-8
Идентификатор кодека : S_TEXT/UTF8
Идентификатор кодека/Информация : UTF-8 Plain Text
Продолжительность : 1 ч. 29 м.
Битрейт : 52 бит/сек
ElementCount : 1082
Размер потока : 34,2 Кбайт (0%)
Язык : English
Default : Нет
Forced : Нет





Кошмар на улице Вязов 4: Повелитель сна / A Nightmare on Elm Street 4: The Dream Master

Дата выхода: 1988
Студия: 01:33:15
Жанр: Триллер, Ужасы
Страна: США
Субтитры: UTF-8 русские, английские
Перевод: Профессиональный (многоголосый закадровый), Профессиональный (двухголосый закадровый)
Продолжительность: 01:33:15
Режиссёр: Ренни Харлин / Renny Harlin
В ролях: Роберт Инглунд, Кен Сэйгоз, Родни Истман, Лиза Уилкокс, Андрас Джонс, Дэнни Хэссел, Брук Тэйсс, Той Ньюкирк, Тьюзди Найт, Николас Меле

Описание: Маленькая собачка, писающая огненным пламенем на могилу Фредди во сне одного из героев, оживляет этого Повелителя снов. С радостью он начинает убивать выживших героев предыдущей части, в свое время оказавших ему достойное сопротивление. Казалось, он останется непобедимым и ужасным Кошмаром улицы Вязов.

Но Фредди просчитался: за мгновение до своего ухода в мир иной, Кристен, последний отпрыск с улицы Вязов, успевает передать свою уникальную способность заманивать в свои сны других людей девушке Элис…

Качество: BDRip 1080р
Формат файла: MKV
Видео: 1920x1080, High@L4, MPEG4/ISO/AVC, 23,976 (24000/1001) кадра/сек, ~3839 Кбит/сек
Аудио: 48,0 КГц, AC3 Dolby Digital, 3/2 (L,C,R,l,r) + LFE ch, 448 kbps Профессиональный (многоголосый закадровый) Позитив-Мультимедия
Аудио: 48,0 КГц, AC3 Dolby Digital, 3/2 (L,C,R,l,r) + LFE ch, 448 kbps Профессиональный (многоголосый закадровый) DDV
Аудио: 48,0 КГц, AC3 Dolby Digital, 3/2 (L,C,R,l,r) + LFE ch, 448 kbps Профессиональный (многоголосый закадровый) CP-Digital
Аудио: 48,0 КГц, AC3 Dolby Digital, 2 канала, 192 Кбит/сек Профессиональный (двухголосый закадровый) НТВ
Аудио: 48,0 КГц, AC3 Dolby Digital, 2 канала, 192 Кбит/сек Профессиональный (многоголосый закадароссиовый) Россия
Аудио: 48,0 КГц, AC3 Dolby Digital, 3/2 (L,C,R,l,r) + LFE ch, 448 kbps Оригинальная аудиодорожка: английский
Видео
Идентификатор : 1
Формат : AVC
Формат/Информация : Advanced Video Codec
Профиль формата : High@L4
Параметр CABAC формата : Да
Параметр RefFrames формата : 3 кадра
Идентификатор кодека : V_MPEG4/ISO/AVC
Продолжительность : 1 ч. 33 м.
Вид битрейта : Переменный
Переменный битрейт : 5902 Кбит/сек | 1902 Кбит/сек | 3902 Кбит/сек
Битрейт : 3902 Кбит/сек
Ширина : 1920 пикселей
Высота : 1080 пикселей
Соотношение сторон : 16:9
Режим частоты кадров : Постоянный
Частота кадров : 23,976 (24000/1001) кадра/сек
Цветовое пространство : YUV
Субдискретизация насыщенности : 4:2:0
Битовая глубина : 8 бит
Тип развёртки : Прогрессивная
Бит/(Пиксели*Кадры) : 0.038
Размер потока : 1,24 Гбайт (47%)
Заголовок : Исходник: Blu-ray Disc | Автор рипа: Есмуханов Данияр Исламбекович | daniyar.esmuhanov
Библиотека кодирования : x264 core 129 r2245 bc13772
Настройки программы : cabac=1 / ref=4 / deblock=1:0:0 / analyse=0x3:0x133 / me=umh / subme=9 / psy=1 / psy_rd=1.00:0.00 / mixed_ref=1 / me_range=16 / chroma_me=1 / trellis=2 / 8x8dct=1 / cqm=0 / deadzone=21,11 / fast_pskip=1 / chroma_qp_offset=-2 / threads=12 / lookahead_threads=2 / sliced_threads=0 / nr=0 / decimate=1 / interlaced=0 / bluray_compat=0 / constrained_intra=0 / bframes=3 / b_pyramid=1 / b_adapt=2 / b_bias=2 / direct=3 / weightb=1 / open_gop=0 / weightp=2 / keyint=240 / keyint_min=23 / scenecut=40 / intra_refresh=0 / rc_lookahead=60 / rc=2pass / mbtree=1 / bitrate=3902 / ratetol=1.0 / qcomp=0.60 / qpmin=0 / qpmax=69 / qpstep=4 / cplxblur=20.0 / qblur=0.5 / ip_ratio=1.40 / aq=1:1.00
Язык : English
Default : Да
Forced : Да

Аудио #1
Идентификатор : 2
Формат : AC-3
Формат/Информация : Audio Coding 3
Параметр Endianness формата : Big
Идентификатор кодека : A_AC3
Продолжительность : 1 ч. 33 м.
Вид битрейта : Постоянный
Битрейт : 448 Кбит/сек
Каналы : 6 каналов
Расположение каналов : Front: L C R, Side: L R, LFE
Частота : 48,0 КГц
Частота кадров : 31,250 кадров/сек (1536 SPF)
Битовая глубина : 16 бит
Метод сжатия : С потерями
Размер потока : 299 Мбайт (11%)
Заголовок : Профессиональный (многоголосый закадровый) Позитив-Мультимедия
Язык : Russian
ServiceKind/String : Complete Main
Default : Да
Forced : Да

Аудио #2
Идентификатор : 3
Формат : AC-3
Формат/Информация : Audio Coding 3
Параметр Endianness формата : Big
Идентификатор кодека : A_AC3
Продолжительность : 1 ч. 33 м.
Вид битрейта : Постоянный
Битрейт : 448 Кбит/сек
Каналы : 6 каналов
Расположение каналов : Front: L C R, Side: L R, LFE
Частота : 48,0 КГц
Частота кадров : 31,250 кадров/сек (1536 SPF)
Битовая глубина : 16 бит
Метод сжатия : С потерями
Размер потока : 299 Мбайт (11%)
Заголовок : Профессиональный (многоголосый закадровый) DDV
Язык : Russian
ServiceKind/String : Complete Main
Default : Нет
Forced : Нет

Аудио #3
Идентификатор : 4
Формат : AC-3
Формат/Информация : Audio Coding 3
Параметр Endianness формата : Big
Идентификатор кодека : A_AC3
Продолжительность : 1 ч. 33 м.
Вид битрейта : Постоянный
Битрейт : 448 Кбит/сек
Каналы : 6 каналов
Расположение каналов : Front: L C R, Side: L R, LFE
Частота : 48,0 КГц
Частота кадров : 31,250 кадров/сек (1536 SPF)
Битовая глубина : 16 бит
Метод сжатия : С потерями
Размер потока : 299 Мбайт (11%)
Заголовок : Профессиональный (многоголосый закадровый) CP-Digital
Язык : Russian
ServiceKind/String : Complete Main
Default : Нет
Forced : Нет

Аудио #4
Идентификатор : 5
Формат : AC-3
Формат/Информация : Audio Coding 3
Параметр Endianness формата : Big
Идентификатор кодека : A_AC3
Продолжительность : 1 ч. 33 м.
Вид битрейта : Постоянный
Битрейт : 192 Кбит/сек
Каналы : 2 канала
Расположение каналов : Front: L R
Частота : 48,0 КГц
Частота кадров : 31,250 кадров/сек (1536 SPF)
Битовая глубина : 16 бит
Метод сжатия : С потерями
Размер потока : 128 Мбайт (5%)
Заголовок : Профессиональный (многоголосый закадровый) Россия
Язык : Russian
ServiceKind/String : Complete Main
Default : Нет
Forced : Нет

Аудио #5
Идентификатор : 6
Формат : AC-3
Формат/Информация : Audio Coding 3
Параметр Endianness формата : Big
Идентификатор кодека : A_AC3
Продолжительность : 1 ч. 33 м.
Вид битрейта : Постоянный
Битрейт : 192 Кбит/сек
Каналы : 2 канала
Расположение каналов : Front: L R
Частота : 48,0 КГц
Частота кадров : 31,250 кадров/сек (1536 SPF)
Битовая глубина : 16 бит
Метод сжатия : С потерями
Размер потока : 128 Мбайт (5%)
Заголовок : Профессиональный (двухголосый закадровый) НТВ
Язык : Russian
ServiceKind/String : Complete Main
Default : Нет
Forced : Нет

Аудио #6
Идентификатор : 7
Формат : AC-3
Формат/Информация : Audio Coding 3
Параметр Endianness формата : Big
Идентификатор кодека : A_AC3
Продолжительность : 1 ч. 33 м.
Вид битрейта : Постоянный
Битрейт : 448 Кбит/сек
Каналы : 6 каналов
Расположение каналов : Front: L C R, Side: L R, LFE
Частота : 48,0 КГц
Частота кадров : 31,250 кадров/сек (1536 SPF)
Битовая глубина : 16 бит
Метод сжатия : С потерями
Размер потока : 299 Мбайт (11%)
Язык : English
ServiceKind/String : Complete Main
Default : Нет
Forced : Нет

Текст #1
Идентификатор : 8
Формат : UTF-8
Идентификатор кодека : S_TEXT/UTF8
Идентификатор кодека/Информация : UTF-8 Plain Text
Продолжительность : 1 ч. 26 м.
Битрейт : 48 бит/сек
ElementCount : 642
Размер потока : 30,6 Кбайт (0%)
Язык : Russian
Default : Нет
Forced : Нет

Текст #2
Идентификатор : 9
Формат : UTF-8
Идентификатор кодека : S_TEXT/UTF8
Идентификатор кодека/Информация : UTF-8 Plain Text
Продолжительность : 1 ч. 26 м.
Битрейт : 60 бит/сек
ElementCount : 758
Размер потока : 38,5 Кбайт (0%)
Язык : Russian
Default : Нет
Forced : Нет

Текст #3
Идентификатор : 10
Формат : UTF-8
Идентификатор кодека : S_TEXT/UTF8
Идентификатор кодека/Информация : UTF-8 Plain Text
Продолжительность : 1 ч. 30 м.
Битрейт : 36 бит/сек
ElementCount : 806
Размер потока : 24,5 Кбайт (0%)
Язык : English
Default : Нет
Forced : Нет





Кошмар на улице Вязов 5: Дитя сна / Кошмар на улице Вязов 5: Дитя сна

Дата выхода: 1989
Студия: New Line Cinema
Жанр: Триллер, Ужасы
Страна: США
Субтитры: UTF-8 русские, английские
Перевод: Профессиональный (многоголосый закадровый), Профессиональный (двухголосый закадровый)
Продолжительность: 01:29:38
Режиссёр: Стивен Хопкинс / Stephen Hopkins
В ролях: Роберт Инглунд, Лиза Уилкокс, Эрика Андерсон, Вэлори Армстронг, Майкл Эштон, Беатрис Боппл, Мэтт Борленджи, Ноубл Крэйг, Е.Р. Дейвис, Барр ДеБеннинг
Описание: Неистребимый детоубийца, который в пятой части даже объявляет себя Супер-Фредди, исхитряется возродиться в ребенке, находящемся в утробе матери. Единственный шанс спасти ребенка — найти незахороненный труп монашки Аманды Крюгер, породившей на свет такое чудовище как Фредди, чтобы его уничтожить.

Фантастическая и феерическая картина с невероятными превращениями при помощи сложного грима с визуальными и компьютерными эффектами вновь имела огромный успех у зрителей.

Качество: BDRip 1080р
Формат файла: MKV
Видео: 1920x1080, High@L4, MPEG4/ISO/AVC, 23,976 (24000/1001) кадра/сек, ~3828 Кбит/сек
Аудио: 48,0 КГц, AC3 Dolby Digital, 3/2 (L,C,R,l,r) + LFE ch, 448 kbps Профессиональный (многоголосый закадровый) Позитив-Мультимедия
Аудио: 48,0 КГц, AC3 Dolby Digital, 3/2 (L,C,R,l,r) + LFE ch, 448 kbps Профессиональный (многоголосый закадровый) DDV
Аудио: 48,0 КГц, AC3 Dolby Digital, 3/2 (L,C,R,l,r) + LFE ch, 448 kbps Профессиональный (многоголосый закадровый) CP-Digital
Аудио: 48,0 КГц, AC3 Dolby Digital, 2 канала, 192 Кбит/сек Профессиональный (двухголосый закадровый) НТВ
Аудио: 48,0 КГц, AC3 Dolby Digital, 2 канала, 192 Кбит/сек Профессиональный (многоголосый закадароссиовый) Россия
Аудио: 48,0 КГц, AC3 Dolby Digital, 3/2 (L,C,R,l,r) + LFE ch, 448 kbps Оригинальная аудиодорожка: английский
Видео
Идентификатор : 1
Формат : AVC
Формат/Информация : Advanced Video Codec
Профиль формата : High@L4
Параметр CABAC формата : Да
Параметр RefFrames формата : 4 кадра
Идентификатор кодека : V_MPEG4/ISO/AVC
Продолжительность : 1 ч. 29 м.
Вид битрейта : Переменный
Переменный битрейт : 5828 Кбит/сек | 1828 Кбит/сек | 3828 Кбит/сек
Битрейт : 3828 Кбит/сек
Ширина : 1920 пикселей
Высота : 1080 пикселей
Соотношение сторон : 16:9
Режим частоты кадров : Постоянный
Частота кадров : 23,976 (24000/1001) кадра/сек
Цветовое пространство : YUV
Субдискретизация насыщенности : 4:2:0
Битовая глубина : 8 бит
Тип развёртки : Прогрессивная
Бит/(Пиксели*Кадры) : 0.037
Размер потока : 1,14 Гбайт (49%)
Заголовок : Исходник: Blu-ray Disc | Автор рипа: Есмуханов Данияр Исламбекович | daniyar.esmuhanov
Библиотека кодирования : x264 core 129 r2245 bc13772
Настройки программы : cabac=1 / ref=4 / deblock=1:-1:-1 / analyse=0x3:0x133 / me=umh / subme=9 / psy=1 / psy_rd=1.00:0.15 / mixed_ref=1 / me_range=16 / chroma_me=1 / trellis=2 / 8x8dct=1 / cqm=0 / deadzone=21,11 / fast_pskip=1 / chroma_qp_offset=-3 / threads=12 / lookahead_threads=2 / sliced_threads=0 / nr=0 / decimate=1 / interlaced=0 / bluray_compat=0 / constrained_intra=0 / bframes=3 / b_pyramid=2 / b_adapt=2 / b_bias=0 / direct=3 / weightb=1 / open_gop=0 / weightp=2 / keyint=240 / keyint_min=23 / scenecut=40 / intra_refresh=0 / rc_lookahead=60 / rc=2pass / mbtree=1 / bitrate=3828 / ratetol=1.0 / qcomp=0.60 / qpmin=10 / qpmax=51 / qpstep=4 / cplxblur=20.0 / qblur=0.5 / ip_ratio=1.40 / aq=1:1.00
Язык : English
Default : Да
Forced : Да

Аудио #1
Идентификатор : 2
Формат : AC-3
Формат/Информация : Audio Coding 3
Параметр Endianness формата : Big
Идентификатор кодека : A_AC3
Продолжительность : 1 ч. 29 м.
Вид битрейта : Постоянный
Битрейт : 448 Кбит/сек
Каналы : 6 каналов
Расположение каналов : Front: L C R, Side: L R, LFE
Частота : 48,0 КГц
Частота кадров : 31,250 кадров/сек (1536 SPF)
Битовая глубина : 16 бит
Метод сжатия : С потерями
Размер потока : 287 Мбайт (12%)
Заголовок : Профессиональный (многоголосый закадровый) Позитив-Мультимедия
Язык : Russian
ServiceKind/String : Complete Main
Default : Да
Forced : Да

Аудио #2
Идентификатор : 3
Формат : AC-3
Формат/Информация : Audio Coding 3
Параметр Endianness формата : Big
Идентификатор кодека : A_AC3
Продолжительность : 1 ч. 29 м.
Вид битрейта : Постоянный
Битрейт : 448 Кбит/сек
Каналы : 6 каналов
Расположение каналов : Front: L C R, Side: L R, LFE
Частота : 48,0 КГц
Частота кадров : 31,250 кадров/сек (1536 SPF)
Битовая глубина : 16 бит
Метод сжатия : С потерями
Размер потока : 287 Мбайт (12%)
Заголовок : Профессиональный (многоголосый закадровый) DDV
Язык : Russian
ServiceKind/String : Complete Main
Default : Нет
Forced : Нет

Аудио #3
Идентификатор : 4
Формат : AC-3
Формат/Информация : Audio Coding 3
Параметр Endianness формата : Big
Идентификатор кодека : A_AC3
Продолжительность : 1 ч. 29 м.
Вид битрейта : Постоянный
Битрейт : 192 Кбит/сек
Каналы : 2 канала
Расположение каналов : Front: L R
Частота : 48,0 КГц
Частота кадров : 31,250 кадров/сек (1536 SPF)
Битовая глубина : 16 бит
Метод сжатия : С потерями
Размер потока : 123 Мбайт (5%)
Заголовок : Профессиональный (многоголосый закадровый) CP-Digital
Язык : Russian
ServiceKind/String : Complete Main
Default : Нет
Forced : Нет

Аудио #4
Идентификатор : 5
Формат : AC-3
Формат/Информация : Audio Coding 3
Параметр Endianness формата : Big
Идентификатор кодека : A_AC3
Продолжительность : 1 ч. 29 м.
Вид битрейта : Постоянный
Битрейт : 192 Кбит/сек
Каналы : 2 канала
Расположение каналов : Front: L R
Частота : 48,0 КГц
Частота кадров : 31,250 кадров/сек (1536 SPF)
Битовая глубина : 16 бит
Метод сжатия : С потерями
Размер потока : 123 Мбайт (5%)
Заголовок : Профессиональный (многоголосый закадровый) Россия
Язык : Russian
ServiceKind/String : Complete Main
Default : Нет
Forced : Нет

Аудио #5
Идентификатор : 6
Формат : AC-3
Формат/Информация : Audio Coding 3
Параметр Endianness формата : Big
Идентификатор кодека : A_AC3
Продолжительность : 1 ч. 29 м.
Вид битрейта : Постоянный
Битрейт : 192 Кбит/сек
Каналы : 2 канала
Расположение каналов : Front: L R
Частота : 48,0 КГц
Частота кадров : 31,250 кадров/сек (1536 SPF)
Битовая глубина : 16 бит
Метод сжатия : С потерями
Размер потока : 123 Мбайт (5%)
Заголовок : Профессиональный (двухголосый закадровый) НТВ
Язык : Russian
ServiceKind/String : Complete Main
Default : Нет
Forced : Нет

Аудио #6
Идентификатор : 7
Формат : AC-3
Формат/Информация : Audio Coding 3
Параметр Endianness формата : Big
Идентификатор кодека : A_AC3
Продолжительность : 1 ч. 29 м.
Вид битрейта : Постоянный
Битрейт : 448 Кбит/сек
Каналы : 6 каналов
Расположение каналов : Front: L C R, Side: L R, LFE
Частота : 48,0 КГц
Частота кадров : 31,250 кадров/сек (1536 SPF)
Битовая глубина : 16 бит
Метод сжатия : С потерями
Размер потока : 287 Мбайт (12%)
Язык : English
ServiceKind/String : Complete Main
Default : Нет
Forced : Нет

Текст #1
Идентификатор : 8
Формат : UTF-8
Идентификатор кодека : S_TEXT/UTF8
Идентификатор кодека/Информация : UTF-8 Plain Text
Продолжительность : 1 ч. 23 м.
Битрейт : 66 бит/сек
ElementCount : 739
Размер потока : 41,1 Кбайт (0%)
Язык : Russian
Default : Нет
Forced : Нет

Текст #2
Идентификатор : 9
Формат : UTF-8
Идентификатор кодека : S_TEXT/UTF8
Идентификатор кодека/Информация : UTF-8 Plain Text
Продолжительность : 1 ч. 23 м.
Битрейт : 69 бит/сек
ElementCount : 848
Размер потока : 42,3 Кбайт (0%)
Язык : Russian
Default : Нет
Forced : Нет

Текст #3
Идентификатор : 10
Формат : UTF-8
Идентификатор кодека : S_TEXT/UTF8
Идентификатор кодека/Информация : UTF-8 Plain Text
Продолжительность : 1 ч. 24 м.
Битрейт : 42 бит/сек
ElementCount : 883
Размер потока : 26,3 Кбайт (0%)
Язык : English
Default : Нет
Forced : Нет




Кошмар на улице Вязов 6: Фредди мертв / Freddy's Dead: The Final Nightmare

Дата выхода: 1991
Студия: New Line Cinema
Жанр: Триллер, Ужасы
Страна: США
Субтитры: UTF-8 русские, английские
Перевод: Профессиональный (многоголосый закадровый), Профессиональный (двухголосый закадровый)
Продолжительность: 01:29:17
Режиссёр: Рейчел Тэлалей / Rachel Talalay
В ролях: Роберт Инглунд, Лиза Зейн, Шон Гринблатт, Лесли Дин, Рики Дин Логан, Брекин Мейер, Яфет Котто, Том Арнольд, Розанна, Элинор Донахью
Описание: Здесь выясняются причины появления духа-изверга Фредди Крюгера, с самого начала мстившего жителям своего родного городка. С детства заброшенный всеми, Фредди вырос очень озлобленным. Его терзает мания убийства, и он убивает детей, заманивая их в старую котельную. Когда суд по формальным причинам выносит маньяку оправдательный приговор, разъяренные родители жертв линчуют его.

Качество: BDRip 1080р
Формат файла: MKV
Видео: 1920x1080, High@L4, MPEG4/ISO/AVC, 23,976 (24000/1001) кадра/сек, ~3994 Кбит/сек
Аудио: 48,0 КГц, AC3 Dolby Digital, 3/2 (L,C,R,l,r) + LFE ch, 448 kbps Профессиональный (многоголосый закадровый) Позитив-Мультимедия
Аудио: 48,0 КГц, AC3 Dolby Digital, 3/2 (L,C,R,l,r) + LFE ch, 448 kbps Профессиональный (многоголосый закадровый) DDV
Аудио: 48,0 КГц, AC3 Dolby Digital, 2 канала, 192 Кбит/сек Профессиональный (многоголосый закадровый) CP-Digital
Аудио: 48,0 КГц, AC3 Dolby Digital, 2 канала, 192 Кбит/сек Профессиональный (двухголосый закадровый) НТВ
Аудио: 48,0 КГц, AC3 Dolby Digital, 3/2 (L,C,R,l,r) + LFE ch, 448 kbps Оригинальная аудиодорожка: английский
Видео
Идентификатор : 1
Формат : AVC
Формат/Информация : Advanced Video Codec
Профиль формата : High@L4
Параметр CABAC формата : Да
Параметр RefFrames формата : 3 кадра
Идентификатор кодека : V_MPEG4/ISO/AVC
Продолжительность : 1 ч. 29 м.
Вид битрейта : Переменный
Переменный битрейт : 5994 Кбит/сек | 1994 Кбит/сек | 3994 Кбит/сек
Битрейт : 3994 Кбит/сек
Ширина : 1920 пикселей
Высота : 1080 пикселей
Соотношение сторон : 16:9
Режим частоты кадров : Постоянный
Частота кадров : 23,976 (24000/1001) кадра/сек
Цветовое пространство : YUV
Субдискретизация насыщенности : 4:2:0
Битовая глубина : 8 бит
Тип развёртки : Прогрессивная
Бит/(Пиксели*Кадры) : 0.040
Размер потока : 1,24 Гбайт (54%)
Заголовок : Исходник: Blu-ray Disc | Автор рипа: Есмуханов Данияр Исламбекович | daniyar.esmuhanov
Библиотека кодирования : x264 core 129 r2245 bc13772
Настройки программы : cabac=1 / ref=4 / deblock=1:0:0 / analyse=0x3:0x133 / me=umh / subme=9 / psy=1 / psy_rd=1.00:0.00 / mixed_ref=1 / me_range=16 / chroma_me=1 / trellis=2 / 8x8dct=1 / cqm=0 / deadzone=21,11 / fast_pskip=1 / chroma_qp_offset=-2 / threads=12 / lookahead_threads=2 / sliced_threads=0 / nr=0 / decimate=1 / interlaced=0 / bluray_compat=0 / constrained_intra=0 / bframes=3 / b_pyramid=1 / b_adapt=2 / b_bias=2 / direct=3 / weightb=1 / open_gop=0 / weightp=2 / keyint=240 / keyint_min=23 / scenecut=40 / intra_refresh=0 / rc_lookahead=60 / rc=2pass / mbtree=1 / bitrate=3994 / ratetol=1.0 / qcomp=0.60 / qpmin=0 / qpmax=69 / qpstep=4 / cplxblur=20.0 / qblur=0.5 / ip_ratio=1.40 / aq=1:1.00
Язык : English
Default : Да
Forced : Да

Аудио #1
Идентификатор : 2
Формат : AC-3
Формат/Информация : Audio Coding 3
Параметр Endianness формата : Big
Идентификатор кодека : A_AC3
Продолжительность : 1 ч. 29 м.
Вид битрейта : Постоянный
Битрейт : 448 Кбит/сек
Каналы : 6 каналов
Расположение каналов : Front: L C R, Side: L R, LFE
Частота : 48,0 КГц
Частота кадров : 31,250 кадров/сек (1536 SPF)
Битовая глубина : 16 бит
Метод сжатия : С потерями
Размер потока : 286 Мбайт (12%)
Заголовок : Профессиональный (многоголосый закадровый) Позитив-Мультимедия
Язык : Russian
ServiceKind/String : Complete Main
Default : Да
Forced : Да

Аудио #2
Идентификатор : 3
Формат : AC-3
Формат/Информация : Audio Coding 3
Параметр Endianness формата : Big
Идентификатор кодека : A_AC3
Продолжительность : 1 ч. 29 м.
Вид битрейта : Постоянный
Битрейт : 448 Кбит/сек
Каналы : 6 каналов
Расположение каналов : Front: L C R, Side: L R, LFE
Частота : 48,0 КГц
Частота кадров : 31,250 кадров/сек (1536 SPF)
Битовая глубина : 16 бит
Метод сжатия : С потерями
Размер потока : 286 Мбайт (12%)
Заголовок : Профессиональный (многоголосый закадровый) DDV
Язык : Russian
ServiceKind/String : Complete Main
Default : Нет
Forced : Нет

Аудио #3
Идентификатор : 4
Формат : AC-3
Формат/Информация : Audio Coding 3
Параметр Endianness формата : Big
Идентификатор кодека : A_AC3
Продолжительность : 1 ч. 29 м.
Вид битрейта : Постоянный
Битрейт : 192 Кбит/сек
Каналы : 2 канала
Расположение каналов : Front: L R
Частота : 48,0 КГц
Частота кадров : 31,250 кадров/сек (1536 SPF)
Битовая глубина : 16 бит
Метод сжатия : С потерями
Размер потока : 123 Мбайт (5%)
Заголовок : Профессиональный (многоголосый закадровый) CP-Digital
Язык : Russian
ServiceKind/String : Complete Main
Default : Нет
Forced : Нет

Аудио #4
Идентификатор : 5
Формат : AC-3
Формат/Информация : Audio Coding 3
Параметр Endianness формата : Big
Идентификатор кодека : A_AC3
Продолжительность : 1 ч. 29 м.
Вид битрейта : Постоянный
Битрейт : 192 Кбит/сек
Каналы : 2 канала
Расположение каналов : Front: L R
Частота : 48,0 КГц
Частота кадров : 31,250 кадров/сек (1536 SPF)
Битовая глубина : 16 бит
Метод сжатия : С потерями
Размер потока : 123 Мбайт (5%)
Заголовок : Профессиональный (двухголосый закадровый) НТВ
Язык : Russian
ServiceKind/String : Complete Main
Default : Нет
Forced : Нет

Аудио #5
Идентификатор : 6
Формат : AC-3
Формат/Информация : Audio Coding 3
Параметр Endianness формата : Big
Идентификатор кодека : A_AC3
Продолжительность : 1 ч. 29 м.
Вид битрейта : Постоянный
Битрейт : 448 Кбит/сек
Каналы : 6 каналов
Расположение каналов : Front: L C R, Side: L R, LFE
Частота : 48,0 КГц
Частота кадров : 31,250 кадров/сек (1536 SPF)
Битовая глубина : 16 бит
Метод сжатия : С потерями
Размер потока : 286 Мбайт (12%)
Язык : English
ServiceKind/String : Complete Main
Default : Нет
Forced : Нет

Текст #1
Идентификатор : 7
Формат : UTF-8
Идентификатор кодека : S_TEXT/UTF8
Идентификатор кодека/Информация : UTF-8 Plain Text
Продолжительность : 1 ч. 24 м.
Битрейт : 59 бит/сек
ElementCount : 759
Размер потока : 36,6 Кбайт (0%)
Язык : Russian
Default : Нет
Forced : Нет

Текст #2
Идентификатор : 8
Формат : UTF-8
Идентификатор кодека : S_TEXT/UTF8
Идентификатор кодека/Информация : UTF-8 Plain Text
Продолжительность : 1 ч. 26 м.
Битрейт : 67 бит/сек
ElementCount : 903
Размер потока : 43,1 Кбайт (0%)
Язык : Russian
Default : Нет
Forced : Нет

Текст #3
Идентификатор : 9
Формат : UTF-8
Идентификатор кодека : S_TEXT/UTF8
Идентификатор кодека/Информация : UTF-8 Plain Text
Продолжительность : 1 ч. 27 м.
Битрейт : 40 бит/сек
ElementCount : 919
Размер потока : 26,2 Кбайт (0%)
Язык : English
Default : Нет
Forced : Нет





Кошмар на улице Вязов 7: Новый Кошмар / New Nightmare

Дата выхода: 1994
Студия: New Line Cinema
Жанр: Триллер, Ужасы
Страна: США
Субтитры:UTF-8 русские, английские
Перевод: Профессиональный (многоголосый закадровый), Профессиональный (двухголосый закадровый), Авторский (одноголосый закадровый)
Продолжительность: 01:52:16
Режиссёр: Уэс Крэйвен / Wes Craven
В ролях: Хезер Лэнгенкэмп, Роберт Инглунд, Мико Хьюз, Уэс Крэйвен, Джон Сэксон, Роберт Шэй, Сара Ришер, Марианн Маддалена, Дэвид Ньюсом
Описание: На съёмках очередной серии фильма «Кошмар на улице Вязов» происходит несчастный случай: новая, технически совершенная перчатка Фредди убивает работников со спецэффектами и ранит Чейза Портера — мужа Хизер Ландженкамп, исполнительницы роли Нэнси. Сын Хизер исчезает непонятным образом. Но вот Хизер просыпается из-за землетрясения и понимает, что это был всего лишь сон. Однако её муж порезал пальцы именно так, как это случилось в её сне…

Качество: BDRip 1080р
Формат файла: MKV
Видео: 1920x1080, High@L4, MPEG4/ISO/AVC, 23,976 (24000/1001) кадра/сек, ~3994 Кбит/сек
Аудио: 48,0 КГц, AC3 Dolby Digital, 3/2 (L,C,R,l,r) + LFE ch, 448 kbps Профессиональный (многоголосый закадровый) Позитив-Мультимедия
Аудио: 48,0 КГц, AC3 Dolby Digital, 3/2 (L,C,R,l,r) + LFE ch, 448 kbps Профессиональный (многоголосый закадровый) DDV
Аудио: 48,0 КГц, AC3 Dolby Digital, 2 канала, 192 Кбит/сек Профессиональный (многоголосый закадровый) CP-Digital
Аудио: 48,0 КГц, AC3 Dolby Digital, 2 канала, 192 Кбит/сек Профессиональный (двухголосый закадровый) НТВ
Аудио: 48,0 КГц, AC3 Dolby Digital, 2 канала, 192 Кбит/сек Авторский (одноголосый закадровый) П.Санаев
Аудио: 48,0 КГц, AC3 Dolby Digital, 3/2 (L,C,R,l,r) + LFE ch, 448 kbps Оригинальная аудиодорожка: английский
Видео
Идентификатор : 1
Формат : AVC
Формат/Информация : Advanced Video Codec
Профиль формата : High@L4
Параметр CABAC формата : Да
Параметр RefFrames формата : 4 кадра
Идентификатор кодека : V_MPEG4/ISO/AVC
Продолжительность : 1 ч. 52 м.
Вид битрейта : Переменный
Переменный битрейт : 5824 Кбит/сек | 1824 Кбит/сек | 3824 Кбит/сек
Битрейт : 3824 Кбит/сек
Ширина : 1920 пикселей
Высота : 1080 пикселей
Соотношение сторон : 16:9
Режим частоты кадров : Постоянный
Частота кадров : 23,976 (24000/1001) кадра/сек
Цветовое пространство : YUV
Субдискретизация насыщенности : 4:2:0
Битовая глубина : 8 бит
Тип развёртки : Прогрессивная
Бит/(Пиксели*Кадры) : 0.037
Размер потока : 1,43 Гбайт (49%)
Заголовок : Исходник: Blu-ray Disc | Автор рипа: Есмуханов Данияр Исламбекович | daniyar.esmuhanov
Библиотека кодирования : x264 core 129 r2245 bc13772
Настройки программы : cabac=1 / ref=4 / deblock=1:0:0 / analyse=0x3:0x113 / me=umh / subme=8 / psy=1 / psy_rd=1.00:0.00 / mixed_ref=1 / me_range=16 / chroma_me=1 / trellis=1 / 8x8dct=1 / cqm=0 / deadzone=21,11 / fast_pskip=1 / chroma_qp_offset=-2 / threads=12 / lookahead_threads=2 / sliced_threads=0 / nr=0 / decimate=1 / interlaced=0 / bluray_compat=0 / constrained_intra=0 / bframes=3 / b_pyramid=2 / b_adapt=2 / b_bias=0 / direct=3 / weightb=1 / open_gop=0 / weightp=2 / keyint=240 / keyint_min=23 / scenecut=40 / intra_refresh=0 / rc_lookahead=50 / rc=2pass / mbtree=1 / bitrate=3824 / ratetol=1.0 / qcomp=0.60 / qpmin=10 / qpmax=51 / qpstep=4 / cplxblur=20.0 / qblur=0.5 / ip_ratio=1.40 / aq=1:1.00
Язык : English
Default : Да
Forced : Да

Аудио #1
Идентификатор : 2
Формат : AC-3
Формат/Информация : Audio Coding 3
Параметр Endianness формата : Big
Идентификатор кодека : A_AC3
Продолжительность : 1 ч. 52 м.
Вид битрейта : Постоянный
Битрейт : 448 Кбит/сек
Каналы : 6 каналов
Расположение каналов : Front: L C R, Side: L R, LFE
Частота : 48,0 КГц
Частота кадров : 31,250 кадров/сек (1536 SPF)
Битовая глубина : 16 бит
Метод сжатия : С потерями
Размер потока : 359 Мбайт (12%)
Заголовок : Профессиональный (многоголосый закадровый) Позитив-Мультимедия
Язык : Russian
ServiceKind/String : Complete Main
Default : Да
Forced : Да

Аудио #2
Идентификатор : 3
Формат : AC-3
Формат/Информация : Audio Coding 3
Параметр Endianness формата : Big
Идентификатор кодека : A_AC3
Продолжительность : 1 ч. 52 м.
Вид битрейта : Постоянный
Битрейт : 448 Кбит/сек
Каналы : 6 каналов
Расположение каналов : Front: L C R, Side: L R, LFE
Частота : 48,0 КГц
Частота кадров : 31,250 кадров/сек (1536 SPF)
Битовая глубина : 16 бит
Метод сжатия : С потерями
Размер потока : 359 Мбайт (12%)
Заголовок : Профессиональный (многоголосый закадровый) DDV
Язык : Russian
ServiceKind/String : Complete Main
Default : Нет
Forced : Нет

Аудио #3
Идентификатор : 4
Формат : AC-3
Формат/Информация : Audio Coding 3
Параметр Endianness формата : Big
Идентификатор кодека : A_AC3
Продолжительность : 1 ч. 52 м.
Вид битрейта : Постоянный
Битрейт : 192 Кбит/сек
Каналы : 2 канала
Расположение каналов : Front: L R
Частота : 48,0 КГц
Частота кадров : 31,250 кадров/сек (1536 SPF)
Битовая глубина : 16 бит
Метод сжатия : С потерями
Размер потока : 154 Мбайт (5%)
Заголовок : Профессиональный (многоголосый закадровый) CP-Digital
Язык : Russian
ServiceKind/String : Complete Main
Default : Нет
Forced : Нет

Аудио #4
Идентификатор : 5
Формат : AC-3
Формат/Информация : Audio Coding 3
Параметр Endianness формата : Big
Идентификатор кодека : A_AC3
Продолжительность : 1 ч. 52 м.
Вид битрейта : Постоянный
Битрейт : 192 Кбит/сек
Каналы : 2 канала
Расположение каналов : Front: L R
Частота : 48,0 КГц
Частота кадров : 31,250 кадров/сек (1536 SPF)
Битовая глубина : 16 бит
Метод сжатия : С потерями
Размер потока : 154 Мбайт (5%)
Заголовок : Профессиональный (двухголосый закадровый) НТВ
Язык : Russian
ServiceKind/String : Complete Main
Default : Нет
Forced : Нет

Аудио #5
Идентификатор : 6
Формат : AC-3
Формат/Информация : Audio Coding 3
Параметр Endianness формата : Big
Идентификатор кодека : A_AC3
Продолжительность : 1 ч. 52 м.
Вид битрейта : Постоянный
Битрейт : 192 Кбит/сек
Каналы : 2 канала
Расположение каналов : Front: L R
Частота : 48,0 КГц
Частота кадров : 31,250 кадров/сек (1536 SPF)
Битовая глубина : 16 бит
Метод сжатия : С потерями
Размер потока : 154 Мбайт (5%)
Заголовок : Авторский (одноголосый закадровый) П.Санаев
Язык : Russian
ServiceKind/String : Complete Main
Default : Нет
Forced : Нет

Аудио #6
Идентификатор : 7
Формат : AC-3
Формат/Информация : Audio Coding 3
Параметр Endianness формата : Big
Идентификатор кодека : A_AC3
Продолжительность : 1 ч. 52 м.
Вид битрейта : Постоянный
Битрейт : 448 Кбит/сек
Каналы : 6 каналов
Расположение каналов : Front: L C R, Side: L R, LFE
Частота : 48,0 КГц
Частота кадров : 31,250 кадров/сек (1536 SPF)
Битовая глубина : 16 бит
Метод сжатия : С потерями
Размер потока : 359 Мбайт (12%)
Язык : English
ServiceKind/String : Complete Main
Default : Нет
Forced : Нет

Текст #1
Идентификатор : 8
Формат : UTF-8
Идентификатор кодека : S_TEXT/UTF8
Идентификатор кодека/Информация : UTF-8 Plain Text
Продолжительность : 1 ч. 42 м.
Битрейт : 74 бит/сек
ElementCount : 1020
Размер потока : 56,1 Кбайт (0%)
Язык : Russian
Default : Нет
Forced : Нет

Текст #2
Идентификатор : 9
Формат : UTF-8
Идентификатор кодека : S_TEXT/UTF8
Идентификатор кодека/Информация : UTF-8 Plain Text
Продолжительность : 1 ч. 43 м.
Битрейт : 79 бит/сек
ElementCount : 1143
Размер потока : 60,6 Кбайт (0%)
Язык : Russian
Default : Нет
Forced : Нет

Текст #3
Идентификатор : 10
Формат : UTF-8
Идентификатор кодека : S_TEXT/UTF8
Идентификатор кодека/Информация : UTF-8 Plain Text
Продолжительность : 1 ч. 50 м.
Битрейт : 50 бит/сек
ElementCount : 1352
Размер потока : 41,0 Кбайт (0%)
Язык : English
Default : Нет
Forced : Нет






Фредди против Джейсона / Freddy vs. Jason

Дата выхода: 2003
Студия: New Line Cinema
Жанр: Боевик, Триллер, Ужасы
Страна: США, Канада, Италия
Субтитры:UTF-8 русские, английские
Перевод: Профессиональный (полное дублирование), Профессиональный (двухголосый закадровый), Авторский (одноголосый закадровый)
Продолжительность: 01:38:08
Режиссёр: Ронни Ю / Ronny Yu
В ролях: Роберт Инглунд, Кен Кирзингер, Моника Кина, Джейсон Риттер, Келли Роулэнд, Крис Маркетт, Брендан Флетчер, Кэтрин Изабель, Локлин Манро, Кайл Лабайн
Описание: Фредди Крюгер доведен до отчаяния: он больше не может убивать. Лишь используя неуклюжего серийного убийцу Джейсона Вурхиса, Фредди удается истреблять детей с улицы Вязов. Но когда Джейсон начинает понимать, что им попросту манипулируют, планы Фредди готовы рухнуть.

Теперь дело за тинейджерами Уиллом, Лори и Кией. Каким-то образом им надо заставить Джейсона раз и навсегда убить Фредди Крюгера.[/i]

[i]Rip by Есмуханов Данияр Исламбекович | daniyar.esmuhanov
Качество: BDRip 1080р
Формат файла: MKV
Видео: 1920x808, High@L4, MPEG4/ISO/AVC, 23,976 (24000/1001) кадра/сек, ~3819 Кбит/сек
Аудио: 48,0 КГц, AC3 Dolby Digital, 3/2 (L,C,R,l,r) + LFE ch, 448 kbps Профессиональный (полное дублирование) Blu-ray CEE
Аудио: 48,0 КГц, AC3 Dolby Digital, 3/2 (L,C,R,l,r) + LFE ch, 448 kbps Профессиональный (двухголосый закадровый) DVD
Аудио: 48,0 КГц, AC3 Dolby Digital, 3/2 (L,C,R,l,r) + LFE ch, 448 kbps Профессиональный (двухголосый закадровый) DVD
Аудио: 48,0 КГц, AC3 Dolby Digital, 3/2 (L,C,R,l,r) + LFE ch, 448 kbps Авторский (одноголосый закадровый) М. Чадов
Аудио: 48,0 КГц, AC3 Dolby Digital, 3/2 (L,C,R,l,r) + LFE ch, 448 kbps Оригинальная аудиодорожка: английский
Видео
Идентификатор : 1
Формат : AVC
Формат/Информация : Advanced Video Codec
Профиль формата : High@L4
Параметр CABAC формата : Да
Параметр RefFrames формата : 4 кадра
Идентификатор кодека : V_MPEG4/ISO/AVC
Продолжительность : 1 ч. 37 м.
Вид битрейта : Переменный
Переменный битрейт : 5819 Кбит/сек | 1819 Кбит/сек | 3819 Кбит/сек
Битрейт : 3819 Кбит/сек
Ширина : 1920 пикселей
Высота : 808 пикселей
Соотношение сторон : 2,40:1
Режим частоты кадров : Постоянный
Частота кадров : 23,976 (24000/1001) кадра/сек
Цветовое пространство : YUV
Субдискретизация насыщенности : 4:2:0
Битовая глубина : 8 бит
Тип развёртки : Прогрессивная
Бит/(Пиксели*Кадры) : 0.049
Размер потока : 1,23 Гбайт (45%)
Заголовок : Исходник: Blu-ray Disc | Автор рипа: Есмуханов Данияр Исламбекович | daniyar.esmuhanov
Библиотека кодирования : x264 core 129 r2245 bc13772
Настройки программы : cabac=1 / ref=5 / deblock=1:0:0 / analyse=0x3:0x133 / me=umh / subme=9 / psy=1 / psy_rd=1.00:0.00 / mixed_ref=1 / me_range=16 / chroma_me=1 / trellis=2 / 8x8dct=1 / cqm=0 / deadzone=21,11 / fast_pskip=1 / chroma_qp_offset=-2 / threads=12 / lookahead_threads=2 / sliced_threads=0 / nr=0 / decimate=1 / interlaced=0 / bluray_compat=0 / constrained_intra=0 / bframes=3 / b_pyramid=1 / b_adapt=2 / b_bias=2 / direct=3 / weightb=1 / open_gop=0 / weightp=2 / keyint=240 / keyint_min=23 / scenecut=40 / intra_refresh=0 / rc_lookahead=60 / rc=2pass / mbtree=1 / bitrate=3819 / ratetol=1.0 / qcomp=0.60 / qpmin=0 / qpmax=69 / qpstep=4 / cplxblur=20.0 / qblur=0.5 / ip_ratio=1.40 / aq=1:1.00
Язык : English
Default : Да
Forced : Да

Аудио #1
Идентификатор : 2
Формат : AC-3
Формат/Информация : Audio Coding 3
Параметр Endianness формата : Big
Идентификатор кодека : A_AC3
Продолжительность : 1 ч. 37 м.
Вид битрейта : Постоянный
Битрейт : 448 Кбит/сек
Каналы : 6 каналов
Расположение каналов : Front: L C R, Side: L R, LFE
Частота : 48,0 КГц
Частота кадров : 31,250 кадров/сек (1536 SPF)
Битовая глубина : 16 бит
Метод сжатия : С потерями
Размер потока : 312 Мбайт (11%)
Заголовок : Профессиональный (полное дублирование) Blu-ray CEE
Язык : Russian
ServiceKind/String : Complete Main
Default : Да
Forced : Да

Аудио #2
Идентификатор : 3
Формат : AC-3
Формат/Информация : Audio Coding 3
Параметр Endianness формата : Big
Идентификатор кодека : A_AC3
Продолжительность : 1 ч. 37 м.
Вид битрейта : Постоянный
Битрейт : 448 Кбит/сек
Каналы : 6 каналов
Расположение каналов : Front: L C R, Side: L R, LFE
Частота : 48,0 КГц
Частота кадров : 31,250 кадров/сек (1536 SPF)
Битовая глубина : 16 бит
Метод сжатия : С потерями
Размер потока : 313 Мбайт (11%)
Заголовок : Профессиональный (двухголосый закадровый) DVD
Язык : Russian
ServiceKind/String : Complete Main
Default : Нет
Forced : Нет

Аудио #3
Идентификатор : 4
Формат : AC-3
Формат/Информация : Audio Coding 3
Параметр Endianness формата : Big
Идентификатор кодека : A_AC3
Продолжительность : 1 ч. 37 м.
Вид битрейта : Постоянный
Битрейт : 448 Кбит/сек
Каналы : 6 каналов
Расположение каналов : Front: L C R, Side: L R, LFE
Частота : 48,0 КГц
Частота кадров : 31,250 кадров/сек (1536 SPF)
Битовая глубина : 16 бит
Метод сжатия : С потерями
Размер потока : 312 Мбайт (11%)
Заголовок : Профессиональный (двухголосый закадровый) DVD
Язык : Russian
ServiceKind/String : Complete Main
Default : Нет
Forced : Нет

Аудио #4
Идентификатор : 5
Формат : AC-3
Формат/Информация : Audio Coding 3
Параметр Endianness формата : Big
Идентификатор кодека : A_AC3
Продолжительность : 1 ч. 37 м.
Вид битрейта : Постоянный
Битрейт : 448 Кбит/сек
Каналы : 6 каналов
Расположение каналов : Front: L C R, Side: L R, LFE
Частота : 48,0 КГц
Частота кадров : 31,250 кадров/сек (1536 SPF)
Битовая глубина : 16 бит
Метод сжатия : С потерями
Размер потока : 313 Мбайт (11%)
Заголовок : Авторский (одноголосый закадровый) М. Чадов
Язык : Russian
ServiceKind/String : Complete Main
Default : Нет
Forced : Нет

Аудио #5
Идентификатор : 6
Формат : AC-3
Формат/Информация : Audio Coding 3
Параметр Endianness формата : Big
Идентификатор кодека : A_AC3
Продолжительность : 1 ч. 37 м.
Вид битрейта : Постоянный
Битрейт : 448 Кбит/сек
Каналы : 6 каналов
Расположение каналов : Front: L C R, Side: L R, LFE
Частота : 48,0 КГц
Частота кадров : 31,250 кадров/сек (1536 SPF)
Битовая глубина : 16 бит
Метод сжатия : С потерями
Размер потока : 312 Мбайт (11%)
Язык : English
ServiceKind/String : Complete Main
Default : Нет
Forced : Нет

Текст #1
Идентификатор : 7
Формат : UTF-8
Идентификатор кодека : S_TEXT/UTF8
Идентификатор кодека/Информация : UTF-8 Plain Text
Продолжительность : 1 ч. 31 м.
Битрейт : 69 бит/сек
ElementCount : 827
Размер потока : 46,8 Кбайт (0%)
Язык : Russian
Default : Нет
Forced : Нет

Текст #2
Идентификатор : 8
Формат : UTF-8
Идентификатор кодека : S_TEXT/UTF8
Идентификатор кодека/Информация : UTF-8 Plain Text
Продолжительность : 1 ч. 29 м.
Битрейт : 42 бит/сек
ElementCount : 804
Размер потока : 28,2 Кбайт (0%)
Язык : English
Default : Нет
Forced : Нет




Кошмар на улице Вязов / A Nightmare on Elm Street

Дата выхода:2010
Студия: New Line Cinema
Жанр: ужасы, триллер, драма, криминал, детектив
Страна: США
Субтитры:UTF-8 русские, английские
Перевод: Профессиональный (полное дублирование)
Продолжительность:01:35:31
Режиссёр:Сэмюэл Байер / Semuel Bayer
В ролях: Джеки Эрл Хейли, Кайл Галлнер, Руни Мара, Кэти Кэссиди, Томас Деккер, Келлан Латс, Клэнси Браун, Конни Бриттон, Лия Д. Мортенсен, Джулиана Дэмм
Описание:Группу подростков из пригорода преследует один и тот же кошмар: в снах за ними крадется жуткий, обезображенный убийца — Фредди Крюгер. Они могут защитить друг друга наяву, во сне же — остаются один на один с ожившим кошмаром, и шансы спастись стремительно приближаются к нулю… ведь, убитые во сне, они умирают и наяву.

Качество: BDRip 1080р
Формат файла: MKV
Видео: 1920x800, High@L4, MPEG4/ISO/AVC, 23,976 (24000/1001) кадра/сек, ~3858 Кбит/сек
Аудио: 48,0 КГц, AC3 Dolby Digital, 3/2 (L,C,R,l,r) + LFE ch, 448 kbps Профессиональный (полное дублирование) Blu-ray CEE
Аудио: 48,0 КГц, AC3 Dolby Digital, 3/2 (L,C,R,l,r) + LFE ch, 448 kbps Оригинальная аудиодорожка: английский
Видео
Идентификатор : 1
Формат : AVC
Формат/Информация : Advanced Video Codec
Профиль формата : High@L4
Настройки формата : CABAC / 5 Ref Frames
Параметр CABAC формата : Да
Параметр RefFrames формата : 5 кадров
Идентификатор кодека : V_MPEG4/ISO/AVC
Продолжительность : 1 ч. 35 м.
Вид битрейта : Переменный
Переменный битрейт : 5858 Кбит/сек | 1858 Кбит/сек | 3858 Кбит/сек
Битрейт : 3858 Кбит/сек
Ширина : 1920 пикселей
Высота : 800 пикселей
Соотношение сторон : 2,40:1
Режим частоты кадров : Постоянный
Частота кадров : 23,976 (24000/1001) кадра/сек
Цветовое пространство : YUV
Субдискретизация насыщенности : 4:2:0
Битовая глубина : 8 бит
Тип развёртки : Прогрессивная
Бит/(Пиксели*Кадры) : 0.050
Размер потока : 1,24 Гбайт (67%)
Заголовок : Исходник: Blu-ray Disc | Автор рипа: Есмуханов Данияр Исламбекович | daniyar.esmuhanov
Библиотека кодирования : x264 core 129 r2245 bc13772
Настройки программы : cabac=1 / ref=5 / deblock=1:-1:-1 / analyse=0x3:0x133 / me=umh / subme=9 / psy=1 / psy_rd=1.00:0.15 / mixed_ref=1 / me_range=16 / chroma_me=1 / trellis=2 / 8x8dct=1 / cqm=0 / deadzone=21,11 / fast_pskip=1 / chroma_qp_offset=-3 / threads=12 / lookahead_threads=2 / sliced_threads=0 / nr=0 / decimate=1 / interlaced=0 / bluray_compat=0 / constrained_intra=0 / bframes=3 / b_pyramid=2 / b_adapt=2 / b_bias=0 / direct=3 / weightb=1 / open_gop=0 / weightp=2 / keyint=240 / keyint_min=23 / scenecut=40 / intra_refresh=0 / rc_lookahead=60 / rc=2pass / mbtree=1 / bitrate=3858 / ratetol=1.0 / qcomp=0.60 / qpmin=10 / qpmax=51 / qpstep=4 / cplxblur=20.0 / qblur=0.5 / ip_ratio=1.40 / aq=1:1.00
Язык : English
Default : Да
Forced : Да

Аудио #1
Идентификатор : 2
Формат : AC-3
Формат/Информация : Audio Coding 3
Параметр Endianness формата : Big
Идентификатор кодека : A_AC3
Продолжительность : 1 ч. 35 м.
Вид битрейта : Постоянный
Битрейт : 448 Кбит/сек
Каналы : 6 каналов
Расположение каналов : Front: L C R, Side: L R, LFE
Частота : 48,0 КГц
Частота кадров : 31,250 кадров/сек (1536 SPF)
Битовая глубина : 16 бит
Метод сжатия : С потерями
Размер потока : 306 Мбайт (16%)
Заголовок : Профессиональный (полное дублирование) Blu-ray CEE
Язык : Russian
ServiceKind/String : Complete Main
Default : Да
Forced : Да

Аудио #2
Идентификатор : 3
Формат : AC-3
Формат/Информация : Audio Coding 3
Параметр Endianness формата : Big
Идентификатор кодека : A_AC3
Продолжительность : 1 ч. 35 м.
Вид битрейта : Постоянный
Битрейт : 448 Кбит/сек
Каналы : 6 каналов
Расположение каналов : Front: L C R, Side: L R, LFE
Частота : 48,0 КГц
Частота кадров : 31,250 кадров/сек (1536 SPF)
Битовая глубина : 16 бит
Метод сжатия : С потерями
Размер потока : 306 Мбайт (16%)
Язык : English
ServiceKind/String : Complete Main
Default : Нет
Forced : Нет

Текст #1
Идентификатор : 4
Формат : UTF-8
Идентификатор кодека : S_TEXT/UTF8
Идентификатор кодека/Информация : UTF-8 Plain Text
Продолжительность : 1 ч. 27 м.
Битрейт : 55 бит/сек
ElementCount : 776
Размер потока : 35,7 Кбайт (0%)
Язык : Russian
Default : Нет
Forced : Нет

Текст #2
Идентификатор : 5
Формат : UTF-8
Идентификатор кодека : S_TEXT/UTF8
Идентификатор кодека/Информация : UTF-8 Plain Text
Продолжительность : 1 ч. 29 м.
Битрейт : 41 бит/сек
ElementCount : 944
Размер потока : 27,0 Кбайт (0%)
Язык : English
Default : Нет
Forced : Нет





Rip by Есмуханов Данияр Исламбекович | daniyar.esmuhanov
Как качать, Как раздавать - Правила и инструкции
Торрент24 дек 2017, 19:58 [ 24 дек 2017, 19:58 ]

СКАЧАТЬ с просмотром рекламы
СтатусПроверен Download more
.torrent скачан58 раз
Размер22.51 ГБ (24 171 905 650)
Раздаю свой рипы со скоростью отдачи 100 кБ/с - Скачал сам?! Дай скачать другим, не уходи с раздачи!!!

"Не уходи со злостью на душе, не отворачивайся с ненавистью в сердце".

Download more

Аватара пользователя
Модератор Фильмов
Модератор Фильмов
 

Сообщения: 788

Зарегистрирован: 19 ноя 2016, 16:36

Откуда: г. Астана, Казахстан Encoded by daniyar.esmuhanov

Награды: 17
За 100 сообщений (1) За 500 сообщений (1) 5 Тб отданного (1) 10 Тб отданного (1) 15 Тб отданного (1) 20 Тб отданного (1) 30 Тб отданного (1) 10 Тб скаченного (1) 250 релизов (1) 500 релизов (1) За 2000 полученных спасибо (1) За 4000 полученных спасибо (1) 30 рипов (1) 50 рипов (1) 200 кармы (1) 500 кармы (1) Халява №3 (1)
Карма: 842
-2--2--2--2--2-

Сообщение Download more» 23 дек 2017, 23:20
















































Раздаю свой рипы со скоростью отдачи 100 кБ/с - Скачал сам?! Дай скачать другим, не уходи с раздачи!!!

"Не уходи со злостью на душе, не отворачивайся с ненавистью в сердце".


Вернуться в Зарубежные фильмы после 2000го года...



Кто сейчас на конференции

Сейчас этот форум просматривают: нет зарегистрированных пользователей

Ресурс не предоставляет электронные версии произведений, а занимается лишь коллекционированием и каталогизацией ссылок, присылаемых и публикуемых на форуме нашими читателями. Если вы являетесь правообладателем какого-либо представленного материала и не желаете чтобы ссылка на него находилась в нашем каталоге, свяжитесь с нами и мы незамедлительно удалим её. Файлы для обмена на трекере предоставлены пользователями сайта, и администрация не несёт ответственности за их содержание. Просьба не заливать файлы, защищенные авторскими правами, а также файлы нелегального содержания!