Матрица / The Matrix [1999-2003, фантастика, боевик, BDRip 1080р] D, А | Коллекция - Скачать торрент бесплатно

Модераторы: Модераторы Фильмы, мультфильмы, Союз Риперов

Поделиться ВКонтакте Поделиться Facebook Поделиться Twitter Поделиться Mail.RU
АвторСообщение
Download more
Аватара пользователя
Модератор Фильмов
Модератор Фильмов
 
Раздал: 6.47 ТБ
Скачал: 3.58 ТБ
Ратио: 14.845
Сообщения: 475
Зарегистрирован: 19 ноя 2016, 16:36
Откуда: г. Астана, Казахстан Encoded by daniyar.esmuhanov
Награды: 7
За 100 сообщений (1) За 500 сообщений (1) 5 Тб отданного (1) 250 релизов (1) За 2000 полученных спасибо (1) 30 рипов (1) 200 кармы (1)
Карма: 404
-2--2--2-

Сообщение Download more » 14 апр 2018, 22:21

Матрица / The Matrix [1999-2003, фантастика, боевик, BDRip 1080р] D, А | Коллекция - Скачать торрент

Жанр: фантастика, боевик
Режиссер: Энди Вачовски, Ларри Вачовски
В ролях: :Киану Ривз, Лоренс Фишбёрн, Кэрри-Энн Мосс, Хьюго Уивинг, Джо Пантольяно, Глория Фостер, Маркус Чонг, Джулиан Араханга, Мэтт Доран, Белинда МакКлори, Энтони Рэй Паркер
О фильме: Жизнь Томаса Андерсона разделена на две части: днём он самый обычный офисный работник, получающий нагоняи от начальства, а ночью превращается в хакера по имени Нео, и нет места в сети, куда он не смог бы дотянуться. Но однажды всё меняется — герой, сам того не желая, узнаёт страшную правду: всё, что его окружает — не более, чем иллюзия, Матрица, а люди — всего лишь источник питания для искусственного интеллекта, поработившего человечество. И только Нео под силу изменить расстановку сил в этом ставшем вдруг чужим и страшным мире.



Выпущено: США
Продолжительность: 02:16:17
Озвучивание: Профессиональный (полное дублирование), Авторский (одноголосый закадровый)
Субтитры: русские, английские

Файл
Формат: MKV
Качество: BDRip 1080р
Видео: 1920x800, MPEG4/AVC, High@L4, 23,976 (24000/1001) кадра/сек, ~3851 Кбит/сек
Аудио: 48,0 КГц, AC3 Dolby Digital, 3/2 (L,C,R,l,r) + LFE ch, 448 kbps Авторский (одноголосый закадровый) Д.Есарев
Аудио: 48,0 КГц, AC3 Dolby Digital, 3/2 (L,C,R,l,r) + LFE ch, 448 kbps Авторский (одноголосый закадровый) Гоблин Д.Пучков
Аудио: 48,0 КГц, AC3 Dolby Digital, 3/2 (L,C,R,l,r) + LFE ch, 448 kbps Профессиональный (полное дублирование) Blu-ray CEE
Аудио: 48,0 КГц, AC3 Dolby Digital, 3/2 (L,C,R,l,r) + LFE ch, 448 kbps Оригинальная аудиодорожка: английский
Общее
Уникальный идентификатор : 209991419249633167682696318889415423377 (0x9DFAE0513F1F35F3B3A40A04E1C83591)
Полное имя : J:\The Matrix Collection.daniyar.esmuhanov\Матрица (фантастика, боевик) 1999.mkv
Формат : Matroska
Версия формата : Version 4 / Version 2
Размер файла : 3,47 Гбайт
Продолжительность : 2 ч. 16 м.
Название фильма : Исходник: Blu-ray Disc | Автор рипа: Есмуханов Данияр Исламбекович | daniyar.esmuhanov
Программа кодирования : mkvmerge v8.3.0 ('Over the Horizon') 64bit
Библиотека кодирования : libebml v1.3.1 + libmatroska v1.4.2

Видео
Идентификатор : 1
Формат : AVC
Формат/Информация : Advanced Video Codec
Профиль формата : High@L4
Настройки формата : CABAC / 5 Ref Frames
Параметр CABAC формата : Да
Параметр RefFrames формата : 5 кадров
Идентификатор кодека : V_MPEG4/ISO/AVC
Продолжительность : 2 ч. 16 м.
Вид битрейта : Переменный
Переменный битрейт : 62,5 Мбит/сек | 1851 Кбит/сек | 3851 Кбит/сек
Битрейт : 3851 Кбит/сек
Ширина : 1920 пикселей
Высота : 800 пикселей
Соотношение сторон : 2,40:1
Режим частоты кадров : Постоянный
Частота кадров : 23,976 (24000/1001) кадра/сек
Цветовое пространство : YUV
Субдискретизация насыщенности : 4:2:0
Битовая глубина : 8 бит
Тип развёртки : Прогрессивная
Бит/(Пиксели*Кадры) : 0.050
Размер потока : 1,76 Гбайт (51%)
Заголовок : Исходник: Blu-ray Disc | Автор рипа: Есмуханов Данияр Исламбекович | daniyar.esmuhanov
Библиотека кодирования : x264 core 120 r2164 da19765
Настройки программы : cabac=1 / ref=5 / deblock=1:-2:-1 / analyse=0x3:0x133 / me=umh / subme=9 / psy=1 / psy_rd=1.00:0.15 / mixed_ref=1 / me_range=16 / chroma_me=1 / trellis=2 / 8x8dct=1 / cqm=0 / deadzone=21,11 / fast_pskip=1 / chroma_qp_offset=-3 / threads=12 / sliced_threads=0 / nr=0 / decimate=1 / interlaced=0 / bluray_compat=0 / constrained_intra=0 / bframes=3 / b_pyramid=2 / b_adapt=2 / b_bias=0 / direct=3 / weightb=1 / open_gop=0 / weightp=2 / keyint=240 / keyint_min=23 / scenecut=40 / intra_refresh=0 / rc_lookahead=60 / rc=2pass / mbtree=1 / bitrate=3851 / ratetol=1.0 / qcomp=0.60 / qpmin=10 / qpmax=51 / qpstep=4 / cplxblur=20.0 / qblur=0.5 / ip_ratio=1.40 / aq=1:1.00
Язык : English
Default : Да
Forced : Да

Аудио #1
Идентификатор : 2
Формат : AC-3
Формат/Информация : Audio Coding 3
Идентификатор кодека : A_AC3
Продолжительность : 2 ч. 16 м.
Вид битрейта : Постоянный
Битрейт : 448 Кбит/сек
Каналы : 6 каналов
Расположение каналов : Front: L C R, Side: L R, LFE
Частота : 48,0 КГц
Частота кадров : 31,250 кадров/сек (1536 SPF)
Битовая глубина : 16 бит
Метод сжатия : С потерями
Размер потока : 437 Мбайт (12%)
Заголовок : Авторский (одноголосый закадровый) Д.Есарев
Язык : Russian
ServiceKind/String : Complete Main
Default : Да
Forced : Да

Аудио #2
Идентификатор : 3
Формат : AC-3
Формат/Информация : Audio Coding 3
Идентификатор кодека : A_AC3
Продолжительность : 2 ч. 16 м.
Вид битрейта : Постоянный
Битрейт : 448 Кбит/сек
Каналы : 6 каналов
Расположение каналов : Front: L C R, Side: L R, LFE
Частота : 48,0 КГц
Частота кадров : 31,250 кадров/сек (1536 SPF)
Битовая глубина : 16 бит
Метод сжатия : С потерями
Размер потока : 437 Мбайт (12%)
Заголовок : Авторский (одноголосый закадровый) Гоблин Д.Пучков
Язык : Russian
ServiceKind/String : Complete Main
Default : Нет
Forced : Нет

Аудио #3
Идентификатор : 4
Формат : AC-3
Формат/Информация : Audio Coding 3
Идентификатор кодека : A_AC3
Продолжительность : 2 ч. 16 м.
Вид битрейта : Постоянный
Битрейт : 448 Кбит/сек
Каналы : 6 каналов
Расположение каналов : Front: L C R, Side: L R, LFE
Частота : 48,0 КГц
Частота кадров : 31,250 кадров/сек (1536 SPF)
Битовая глубина : 16 бит
Метод сжатия : С потерями
Размер потока : 437 Мбайт (12%)
Заголовок : Профессиональный (полное дублирование) Blu-ray CEE
Язык : Russian
ServiceKind/String : Complete Main
Default : Нет
Forced : Нет

Аудио #4
Идентификатор : 5
Формат : AC-3
Формат/Информация : Audio Coding 3
Идентификатор кодека : A_AC3
Продолжительность : 2 ч. 16 м.
Вид битрейта : Постоянный
Битрейт : 448 Кбит/сек
Каналы : 6 каналов
Расположение каналов : Front: L C R, Side: L R, LFE
Частота : 48,0 КГц
Частота кадров : 31,250 кадров/сек (1536 SPF)
Битовая глубина : 16 бит
Метод сжатия : С потерями
Размер потока : 437 Мбайт (12%)
Язык : English
ServiceKind/String : Complete Main
Default : Нет
Forced : Нет

Текст #1
Идентификатор : 6
Формат : UTF-8
Идентификатор кодека : S_TEXT/UTF8
Идентификатор кодека/Информация : UTF-8 Plain Text
Продолжительность : 2 ч. 8 м.
Битрейт : 66 бит/сек
ElementCount : 1378
Размер потока : 62,8 Кбайт (0%)
Заголовок : Гоблин Д.Пучков
Язык : Russian
Default : Нет
Forced : Нет

Текст #2
Идентификатор : 7
Формат : UTF-8
Идентификатор кодека : S_TEXT/UTF8
Идентификатор кодека/Информация : UTF-8 Plain Text
Продолжительность : 2 ч. 8 м.
Битрейт : 67 бит/сек
ElementCount : 1369
Размер потока : 62,9 Кбайт (0%)
Заголовок : SDI Media
Язык : Russian
Default : Нет
Forced : Нет

Текст #3
Идентификатор : 8
Формат : UTF-8
Идентификатор кодека : S_TEXT/UTF8
Идентификатор кодека/Информация : UTF-8 Plain Text
Продолжительность : 2 ч. 7 м.
Битрейт : 42 бит/сек
ElementCount : 1371
Размер потока : 40,0 Кбайт (0%)
Язык : English
Default : Нет
Forced : Нет

Текст #4
Идентификатор : 9
Формат : UTF-8
Идентификатор кодека : S_TEXT/UTF8
Идентификатор кодека/Информация : UTF-8 Plain Text
Продолжительность : 2 ч. 7 м.
Битрейт : 41 бит/сек
ElementCount : 1343
Размер потока : 38,8 Кбайт (0%)
Язык : English
Default : Нет
Forced : Нет

Меню
00:00:00.000 : en:CHAPTER 01
00:03:25.789 : en:CHAPTER 02
00:06:35.645 : en:CHAPTER 03
00:09:42.665 : en:CHAPTER 04
00:11:58.301 : en:CHAPTER 05
00:16:47.423 : en:CHAPTER 06
00:21:33.542 : en:CHAPTER 07
00:25:08.590 : en:CHAPTER 08
00:28:51.146 : en:CHAPTER 09
00:32:25.193 : en:CHAPTER 10
00:35:21.870 : en:CHAPTER 11
00:38:40.902 : en:CHAPTER 12
00:44:22.577 : en:CHAPTER 13
00:46:33.541 : en:CHAPTER 14
00:48:57.852 : en:CHAPTER 15
00:53:31.291 : en:CHAPTER 16
00:56:32.139 : en:CHAPTER 17
00:59:01.288 : en:CHAPTER 18
01:01:08.582 : en:CHAPTER 19
01:05:16.496 : en:CHAPTER 20
01:07:46.813 : en:CHAPTER 21
01:12:33.432 : en:CHAPTER 22
01:17:49.582 : en:CHAPTER 23
01:21:03.108 : en:CHAPTER 24
01:25:05.350 : en:CHAPTER 25
01:29:45.130 : en:CHAPTER 26
01:31:27.565 : en:CHAPTER 27
01:37:25.256 : en:CHAPTER 28
01:41:04.976 : en:CHAPTER 29
01:44:20.337 : en:CHAPTER 30
01:47:00.497 : en:CHAPTER 31
01:50:18.529 : en:CHAPTER 32
01:52:56.687 : en:CHAPTER 33
01:56:36.907 : en:CHAPTER 34
01:58:49.372 : en:CHAPTER 35
02:02:27.423 : en:CHAPTER 36
02:05:41.784 : en:CHAPTER 37
02:08:46.802 : en:CHAPTER 38
02:09:30.262 : en:CHAPTER 39
02:11:20.164 : en:CHAPTER 40






Жанр: фантастика, боевик
Режиссер: Энди Вачовски, Ларри Вачовски
В ролях: :Киану Ривз, Кэрри-Энн Мосс, Лоренс Фишбёрн, Хьюго Уивинг, Моника Беллуччи, Ламбер Вильсон, Энтони Вон, Гарри Дж. Ленникс, Рэндолл Дак Ким, Глория Фостер
О фильме: Борцы за свободу Нео, Тринити и Морфеус продолжают руководить восстанием людей против Армии Машин. Для уничтожения системы репрессий и эксплуатации они вынуждены прибегнуть не только к арсеналу превосходного оружия, но и к своим выдающимся навыкам.

Участие в миссии по спасению человеческой расы от ее полного истребления приносит им более глубокое понимание конструкции Матрицы и осознание центральной роли Нео в судьбе человечества.



Выпущено: США
Продолжительность: 02:18:15
Озвучивание: Профессиональный (полное дублирование), Авторский (одноголосый закадровый)
Субтитры: русские, английские

Файл
Формат: MKV
Качество: BDRip 1080р
Видео: 1920x800, MPEG4/AVC, High@L4, 23,976 (24000/1001) кадра/сек, ~3825 Кбит/сек
Аудио: 48,0 КГц, AC3 Dolby Digital, 3/2 (L,C,R,l,r) + LFE ch, 448 kbps Авторский (одноголосый закадровый) Д.Есарев
Аудио: 48,0 КГц, AC3 Dolby Digital, 3/2 (L,C,R,l,r) + LFE ch, 448 kbps Профессиональный (полное дублирование) Blu-ray CEE
Аудио: 48,0 КГц, AC3 Dolby Digital, 3/2 (L,C,R,l,r) + LFE ch, 448 kbps Оригинальная аудиодорожка: английский
Общее
Уникальный идентификатор : 254234705124961876776367960914898205355 (0xBF43D2B9F9C0545DBE7954D1DB5C3AAB)
Полное имя : J:\The Matrix Collection.daniyar.esmuhanov\Матрица Перезагрузка (фантастика, боевик) 2003.mkv
Формат : Matroska
Версия формата : Version 4 / Version 2
Размер файла : 3,06 Гбайт
Продолжительность : 2 ч. 18 м.
Название фильма : Исходник: Blu-ray Disc | Автор рипа: Есмуханов Данияр Исламбекович | daniyar.esmuhanov
Дата кодирования : UTC 2018-03-18 17:52:09
Программа кодирования : mkvmerge v8.3.0 ('Over the Horizon') 64bit
Библиотека кодирования : libebml v1.3.1 + libmatroska v1.4.2

Видео
Идентификатор : 1
Формат : AVC
Формат/Информация : Advanced Video Codec
Профиль формата : High@L4
Настройки формата : CABAC / 4 Ref Frames
Параметр CABAC формата : Да
Параметр RefFrames формата : 4 кадра
Идентификатор кодека : V_MPEG4/ISO/AVC
Продолжительность : 2 ч. 18 м.
Вид битрейта : Переменный
Переменный битрейт : 62,5 Мбит/сек | 1825 Кбит/сек | 3825 Кбит/сек
Битрейт : 3825 Кбит/сек
Ширина : 1920 пикселей
Высота : 800 пикселей
Соотношение сторон : 2,40:1
Режим частоты кадров : Постоянный
Частота кадров : 23,976 (24000/1001) кадра/сек
Цветовое пространство : YUV
Субдискретизация насыщенности : 4:2:0
Битовая глубина : 8 бит
Тип развёртки : Прогрессивная
Бит/(Пиксели*Кадры) : 0.050
Размер потока : 1,76 Гбайт (58%)
Заголовок : Исходник: Blu-ray Disc | Автор рипа: Есмуханов Данияр Исламбекович | daniyar.esmuhanov
Библиотека кодирования : x264 core 120 r2164 da19765
Настройки программы : cabac=1 / ref=3 / deblock=1:-2:-1 / analyse=0x3:0x113 / me=hex / subme=7 / psy=1 / psy_rd=1.00:0.00 / mixed_ref=1 / me_range=16 / chroma_me=1 / trellis=1 / 8x8dct=1 / cqm=0 / deadzone=21,11 / fast_pskip=1 / chroma_qp_offset=-2 / threads=12 / sliced_threads=0 / nr=0 / decimate=1 / interlaced=0 / bluray_compat=0 / constrained_intra=0 / bframes=3 / b_pyramid=2 / b_adapt=1 / b_bias=0 / direct=1 / weightb=1 / open_gop=0 / weightp=2 / keyint=240 / keyint_min=23 / scenecut=40 / intra_refresh=0 / rc_lookahead=40 / rc=2pass / mbtree=1 / bitrate=3825 / ratetol=1.0 / qcomp=0.60 / qpmin=10 / qpmax=51 / qpstep=4 / cplxblur=20.0 / qblur=0.5 / ip_ratio=1.40 / aq=1:1.00
Язык : English
Default : Да
Forced : Да

Аудио #1
Идентификатор : 2
Формат : AC-3
Формат/Информация : Audio Coding 3
Идентификатор кодека : A_AC3
Продолжительность : 2 ч. 18 м.
Вид битрейта : Постоянный
Битрейт : 448 Кбит/сек
Каналы : 6 каналов
Расположение каналов : Front: L C R, Side: L R, LFE
Частота : 48,0 КГц
Частота кадров : 31,250 кадров/сек (1536 SPF)
Битовая глубина : 16 бит
Метод сжатия : С потерями
Размер потока : 443 Мбайт (14%)
Заголовок : Авторский (одноголосый закадровый) Д.Есарев
Язык : Russian
ServiceKind/String : Complete Main
Default : Да
Forced : Да

Аудио #2
Идентификатор : 3
Формат : AC-3
Формат/Информация : Audio Coding 3
Идентификатор кодека : A_AC3
Продолжительность : 2 ч. 18 м.
Вид битрейта : Постоянный
Битрейт : 448 Кбит/сек
Каналы : 6 каналов
Расположение каналов : Front: L C R, Side: L R, LFE
Частота : 48,0 КГц
Частота кадров : 31,250 кадров/сек (1536 SPF)
Битовая глубина : 16 бит
Метод сжатия : С потерями
Размер потока : 443 Мбайт (14%)
Заголовок : Профессиональный (полное дублирование) Blu-ray CEE
Язык : Russian
ServiceKind/String : Complete Main
Default : Нет
Forced : Нет

Аудио #3
Идентификатор : 4
Формат : AC-3
Формат/Информация : Audio Coding 3
Идентификатор кодека : A_AC3
Продолжительность : 2 ч. 18 м.
Вид битрейта : Постоянный
Битрейт : 448 Кбит/сек
Каналы : 6 каналов
Расположение каналов : Front: L C R, Side: L R, LFE
Частота : 48,0 КГц
Частота кадров : 31,250 кадров/сек (1536 SPF)
Битовая глубина : 16 бит
Метод сжатия : С потерями
Размер потока : 443 Мбайт (14%)
Язык : English
ServiceKind/String : Complete Main
Default : Нет
Forced : Нет

Текст #1
Идентификатор : 5
Формат : UTF-8
Идентификатор кодека : S_TEXT/UTF8
Идентификатор кодека/Информация : UTF-8 Plain Text
Продолжительность : 2 ч. 16 м.
Битрейт : 78 бит/сек
ElementCount : 1180
Размер потока : 78,2 Кбайт (0%)
Язык : Russian
Default : Нет
Forced : Нет

Текст #2
Идентификатор : 6
Формат : UTF-8
Идентификатор кодека : S_TEXT/UTF8
Идентификатор кодека/Информация : UTF-8 Plain Text
Продолжительность : 2 ч. 17 м.
Битрейт : 67 бит/сек
ElementCount : 1185
Размер потока : 67,8 Кбайт (0%)
Язык : Russian
Default : Нет
Forced : Нет

Текст #3
Идентификатор : 7
Формат : UTF-8
Идентификатор кодека : S_TEXT/UTF8
Идентификатор кодека/Информация : UTF-8 Plain Text
Продолжительность : 2 ч. 15 м.
Битрейт : 44 бит/сек
ElementCount : 1178
Размер потока : 44,3 Кбайт (0%)
Язык : English
Default : Нет
Forced : Нет

Текст #4
Идентификатор : 8
Формат : UTF-8
Идентификатор кодека : S_TEXT/UTF8
Идентификатор кодека/Информация : UTF-8 Plain Text
Продолжительность : 2 ч. 15 м.
Битрейт : 45 бит/сек
ElementCount : 1226
Размер потока : 45,3 Кбайт (0%)
Язык : English
Default : Нет
Forced : Нет

Меню
00:00:00.000 : en:CHAPTER 01
00:03:50.230 : en:CHAPTER 02
00:08:55.368 : en:CHAPTER 03
00:12:16.903 : en:CHAPTER 04
00:16:24.317 : en:CHAPTER 05
00:19:43.182 : en:CHAPTER 06
00:23:29.408 : en:CHAPTER 07
00:27:26.812 : en:CHAPTER 08
00:32:01.253 : en:CHAPTER 09
00:33:43.188 : en:CHAPTER 10
00:37:57.442 : en:CHAPTER 11
00:40:55.620 : en:CHAPTER 12
00:43:44.956 : en:CHAPTER 13
00:50:42.706 : en:CHAPTER 14
00:55:08.472 : en:CHAPTER 15
01:00:03.099 : en:CHAPTER 16
01:02:49.766 : en:CHAPTER 17
01:08:52.295 : en:CHAPTER 18
01:13:06.882 : en:CHAPTER 19
01:16:21.410 : en:CHAPTER 20
01:20:31.827 : en:CHAPTER 21
01:22:47.129 : en:CHAPTER 22
01:26:12.501 : en:CHAPTER 23
01:29:52.887 : en:CHAPTER 24
01:32:50.899 : en:CHAPTER 25
01:37:10.825 : en:CHAPTER 26
01:40:51.379 : en:CHAPTER 27
01:44:57.791 : en:CHAPTER 28
01:48:12.152 : en:CHAPTER 29
01:52:25.572 : en:CHAPTER 30
01:55:42.936 : en:CHAPTER 31
01:57:37.550 : en:CHAPTER 32
02:01:51.471 : en:CHAPTER 33
02:04:18.451 : en:CHAPTER 34
02:07:04.116 : en:CHAPTER 35
02:16:29.681 : en:CHAPTER 36






Жанр: фантастика, боевик
Режиссер: Энди Вачовски, Ларри Вачовски
В ролях: :Киану Ривз, Кэрри-Энн Мосс, Лоренс Фишбёрн, Хьюго Уивинг, Моника Беллуччи, Брюс Спенс, Джада Пинкетт Смит, Хэролд Перрино, Гарри Дж. Ленникс, Хельмут Бакайтис
О фильме: Пока армия Машин пытается уничтожить Зион, его жители из последних сил держат оборону. Но удастся ли им предотвратить полное вторжение в город кишащей орды беспощадных машин до того, как Нео соберет все свои силы и положит конец войне?



Выпущено: США
Продолжительность: 02:09:16
Озвучивание: Профессиональный (полное дублирование), Авторский (одноголосый закадровый)
Субтитры: русские, английские

Файл
Формат: MKV
Качество: BDRip 1080р
Видео: 1920x800, MPEG4/AVC, High@L4, 23,976 (24000/1001) кадра/сек, ~3957 Кбит/сек
Аудио: 48,0 КГц, AC3 Dolby Digital, 3/2 (L,C,R,l,r) + LFE ch, 448 kbps Авторский (одноголосый закадровый) Д.Есарев
Аудио: 48,0 КГц, AC3 Dolby Digital, 3/2 (L,C,R,l,r) + LFE ch, 448 kbps Профессиональный (полное дублирование) Blu-ray CEE
Аудио: 48,0 КГц, AC3 Dolby Digital, 3/2 (L,C,R,l,r) + LFE ch, 448 kbps Оригинальная аудиодорожка: английский
Общее
Уникальный идентификатор : 242883557150470436438914853414441204833 (0xB6B9ABEC1CC070C9A55129F5A8EA3C61)
Полное имя : J:\The Matrix Collection.daniyar.esmuhanov\Матрица Революция (фантастика, боевик, приключения) 2003.mkv
Формат : Matroska
Версия формата : Version 4 / Version 2
Размер файла : 2,98 Гбайт
Продолжительность : 2 ч. 9 м.
Название фильма : Исходник: Blu-ray Disc | Автор рипа: Есмуханов Данияр Исламбекович | daniyar.esmuhanov
Дата кодирования : UTC 2018-03-18 17:54:45
Программа кодирования : mkvmerge v8.3.0 ('Over the Horizon') 64bit
Библиотека кодирования : libebml v1.3.1 + libmatroska v1.4.2

Видео
Идентификатор : 1
Формат : AVC
Формат/Информация : Advanced Video Codec
Профиль формата : High@L4
Настройки формата : CABAC / 4 Ref Frames
Параметр CABAC формата : Да
Параметр RefFrames формата : 4 кадра
Идентификатор кодека : V_MPEG4/ISO/AVC
Продолжительность : 2 ч. 9 м.
Вид битрейта : Переменный
Переменный битрейт : 62,5 Мбит/сек | 1957 Кбит/сек | 3957 Кбит/сек
Битрейт : 3957 Кбит/сек
Ширина : 1920 пикселей
Высота : 800 пикселей
Соотношение сторон : 2,40:1
Режим частоты кадров : Постоянный
Частота кадров : 23,976 (24000/1001) кадра/сек
Цветовое пространство : YUV
Субдискретизация насыщенности : 4:2:0
Битовая глубина : 8 бит
Тип развёртки : Прогрессивная
Бит/(Пиксели*Кадры) : 0.053
Размер потока : 1,77 Гбайт (59%)
Заголовок : Исходник: Blu-ray Disc | Автор рипа: Есмуханов Данияр Исламбекович | daniyar.esmuhanov
Библиотека кодирования : x264 core 120 r2164 da19765
Настройки программы : cabac=1 / ref=3 / deblock=1:-2:-1 / analyse=0x3:0x113 / me=hex / subme=7 / psy=1 / psy_rd=1.00:0.00 / mixed_ref=1 / me_range=16 / chroma_me=1 / trellis=1 / 8x8dct=1 / cqm=0 / deadzone=21,11 / fast_pskip=1 / chroma_qp_offset=-2 / threads=12 / sliced_threads=0 / nr=0 / decimate=1 / interlaced=0 / bluray_compat=0 / constrained_intra=0 / bframes=3 / b_pyramid=2 / b_adapt=1 / b_bias=0 / direct=1 / weightb=1 / open_gop=0 / weightp=2 / keyint=240 / keyint_min=23 / scenecut=40 / intra_refresh=0 / rc_lookahead=40 / rc=2pass / mbtree=1 / bitrate=3957 / ratetol=1.0 / qcomp=0.60 / qpmin=10 / qpmax=51 / qpstep=4 / cplxblur=20.0 / qblur=0.5 / ip_ratio=1.40 / aq=1:1.00
Язык : English
Default : Да
Forced : Да

Аудио #1
Идентификатор : 2
Формат : AC-3
Формат/Информация : Audio Coding 3
Идентификатор кодека : A_AC3
Продолжительность : 2 ч. 9 м.
Вид битрейта : Постоянный
Битрейт : 448 Кбит/сек
Каналы : 6 каналов
Расположение каналов : Front: L C R, Side: L R, LFE
Частота : 48,0 КГц
Частота кадров : 31,250 кадров/сек (1536 SPF)
Битовая глубина : 16 бит
Метод сжатия : С потерями
Размер потока : 414 Мбайт (14%)
Заголовок : Авторский (одноголосый закадровый) Д.Есарев
Язык : Russian
ServiceKind/String : Complete Main
Default : Да
Forced : Да

Аудио #2
Идентификатор : 3
Формат : AC-3
Формат/Информация : Audio Coding 3
Идентификатор кодека : A_AC3
Продолжительность : 2 ч. 9 м.
Вид битрейта : Постоянный
Битрейт : 448 Кбит/сек
Каналы : 6 каналов
Расположение каналов : Front: L C R, Side: L R, LFE
Частота : 48,0 КГц
Частота кадров : 31,250 кадров/сек (1536 SPF)
Битовая глубина : 16 бит
Метод сжатия : С потерями
Размер потока : 414 Мбайт (14%)
Заголовок : Профессиональный (полное дублирование) Blu-ray CEE
Язык : Russian
ServiceKind/String : Complete Main
Default : Нет
Forced : Нет

Аудио #3
Идентификатор : 4
Формат : AC-3
Формат/Информация : Audio Coding 3
Идентификатор кодека : A_AC3
Продолжительность : 2 ч. 9 м.
Вид битрейта : Постоянный
Битрейт : 448 Кбит/сек
Каналы : 6 каналов
Расположение каналов : Front: L C R, Side: L R, LFE
Частота : 48,0 КГц
Частота кадров : 31,250 кадров/сек (1536 SPF)
Битовая глубина : 16 бит
Метод сжатия : С потерями
Размер потока : 414 Мбайт (14%)
Язык : English
ServiceKind/String : Complete Main
Default : Нет
Forced : Нет

Текст #1
Идентификатор : 5
Формат : UTF-8
Идентификатор кодека : S_TEXT/UTF8
Идентификатор кодека/Информация : UTF-8 Plain Text
Продолжительность : 1 ч. 59 м.
Битрейт : 65 бит/сек
ElementCount : 1082
Размер потока : 57,4 Кбайт (0%)
Язык : Russian
Default : Нет
Forced : Нет

Текст #2
Идентификатор : 6
Формат : UTF-8
Идентификатор кодека : S_TEXT/UTF8
Идентификатор кодека/Информация : UTF-8 Plain Text
Продолжительность : 2 ч. 8 м.
Битрейт : 51 бит/сек
ElementCount : 1078
Размер потока : 48,4 Кбайт (0%)
Заголовок : SDl Media
Язык : Russian
Default : Нет
Forced : Нет

Текст #3
Идентификатор : 7
Формат : UTF-8
Идентификатор кодека : S_TEXT/UTF8
Идентификатор кодека/Информация : UTF-8 Plain Text
Продолжительность : 1 ч. 58 м.
Битрейт : 42 бит/сек
ElementCount : 1056
Размер потока : 36,5 Кбайт (0%)
Язык : English
Default : Нет
Forced : Нет

Текст #4
Идентификатор : 8
Формат : UTF-8
Идентификатор кодека : S_TEXT/UTF8
Идентификатор кодека/Информация : UTF-8 Plain Text
Продолжительность : 1 ч. 58 м.
Битрейт : 41 бит/сек
ElementCount : 1055
Размер потока : 36,4 Кбайт (0%)
Язык : English
Default : Нет
Forced : Нет

Меню
00:00:00.000 : en:CHAPTER 01
00:03:55.402 : en:CHAPTER 02
00:07:33.119 : en:CHAPTER 03
00:10:19.953 : en:CHAPTER 04
00:14:44.383 : en:CHAPTER 05
00:17:58.744 : en:CHAPTER 06
00:23:33.245 : en:CHAPTER 07
00:30:06.304 : en:CHAPTER 08
00:35:35.633 : en:CHAPTER 09
00:39:34.205 : en:CHAPTER 10
00:42:58.910 : en:CHAPTER 11
00:46:43.300 : en:CHAPTER 12
00:49:02.606 : en:CHAPTER 13
00:51:53.610 : en:CHAPTER 14
00:58:00.644 : en:CHAPTER 15
01:00:19.115 : en:CHAPTER 16
01:02:29.746 : en:CHAPTER 17
01:08:00.910 : en:CHAPTER 18
01:10:29.225 : en:CHAPTER 19
01:14:33.803 : en:CHAPTER 20
01:18:23.365 : en:CHAPTER 21
01:23:08.984 : en:CHAPTER 22
01:25:55.817 : en:CHAPTER 23
01:29:13.348 : en:CHAPTER 24
01:31:51.673 : en:CHAPTER 25
01:36:51.472 : en:CHAPTER 26
01:41:55.276 : en:CHAPTER 27
01:44:53.120 : en:CHAPTER 28
01:48:06.647 : en:CHAPTER 29
01:51:30.851 : en:CHAPTER 30
01:55:05.899 : en:CHAPTER 31
01:57:31.211 : en:CHAPTER 32
02:00:12.372 : en:CHAPTER 33






Rip by Есмуханов Данияр Исламбекович | daniyar.esmuhanov
Как качать, Как раздавать - Правила и инструкции
Торрент14 апр 2018, 22:21 [ 14 апр 2018, 22:21 ]

СКАЧАТЬ с просмотром рекламы
СтатусПроверен Download more
.torrent скачан25 раз
Размер9.52 ГБ (10 219 237 640)
Раздаю свой рипы со скоростью отдачи 100 кБ/с - Скачал сам?! Дай скачать другим, не уходи с раздачи!!!


AXIOMA

Аватара пользователя
Опытный пользователь
Опытный пользователь
 

Сообщения: 134

Зарегистрирован: 01 мар 2018, 19:21

Откуда: London

Награды: 1
За 100 сообщений (1)
Карма: 33

Сообщение AXIOMA» 15 апр 2018, 00:15

Download more Cпасибо за раздачу дружище.... *ага


Вернуться в Зарубежные фильмы после 2000го года...



Кто сейчас на конференции

Сейчас этот форум просматривают: leopold48

Ресурс не предоставляет электронные версии произведений, а занимается лишь коллекционированием и каталогизацией ссылок, присылаемых и публикуемых на форуме нашими читателями. Если вы являетесь правообладателем какого-либо представленного материала и не желаете чтобы ссылка на него находилась в нашем каталоге, свяжитесь с нами и мы незамедлительно удалим её. Файлы для обмена на трекере предоставлены пользователями сайта, и администрация не несёт ответственности за их содержание. Просьба не заливать файлы, защищенные авторскими правами, а также файлы нелегального содержания!