Мужчина и женщина: Лучшие годы / Les plus belles années d'une vie / The Best Years of a Life [2019, Драма, HDRip-AVC | iTunes] - Скачать торрент бесплатно

Модераторы: Модераторы Фильмы, мультфильмы, Союз Риперов

Поделиться ВКонтакте Поделиться Facebook Поделиться Twitter Поделиться Mail.RU
АвторСообщение
wolf1245
Аватара пользователя
V.I.P.
V.I.P.
 
Раздал: 199.27 ТБ
Скачал: 14.07 ТБ
Ратио: 30.594
Сообщения: 4403
Зарегистрирован: 14 апр 2012, 23:34
Откуда: Вильнюс
Награды: 42
За 100 сообщений (1) За 500 сообщений (1) За 1000 сообщений (1) За 1500 сообщений (1) За 2000 сообщений (1) За 3000 сообщений (1) 5 Тб отданного (1) 10 Тб отданного (1) 15 Тб отданного (1) 20 Тб отданного (1) 30 Тб отданного (1) 10 Тб скаченного (1) 15 Тб скаченного (1) 20 Тб скаченного (1) 30 Тб скаченного (1) 50 Тб скаченного (1) Размер созданных раздач 3 Тб (1) Размер созданных раздач 5 Тб (1) Размер созданных раздач 10 Тб (1) Размер созданных раздач 15 Тб (1) 250 релизов (1) 500 релизов (1) 1000 релизов (1) 1500 релизов (1) 2000 релизов (1) 3000 релизов (1) За новинки фильмов (1) За новинки сериалов (1) За новинки музыки (1) За 2000 полученных спасибо (1) За 4000 полученных спасибо (1) За 8000 полученных спасибо (1) За 10000 полученных спасибо (1) За 15000 полученных спасибо (1) За вступление в группу VK (1) За вступление в Telegram (1) 200 кармы (1) 500 кармы (1) 1000 кармы (1) Орден от Админа (1) Халява №3 (1) Верный пользователь (1)

Сообщение wolf1245 » 13 янв 2021, 22:46

Мужчина и женщина: Лучшие годы / Les plus belles années d'une vie / The Best Years of a Life [2019, Драма, HDRip-AVC | iTunes] - Скачать торрент

Информация о фильме:
Название: Мужчина и женщина: Лучшие годы
Оригинальное название: Les plus belles années d'une vie / The Best Years of a Life
Год выхода: 2019
Жанр: Драма
Режиссер: Клод Лелуш

В ролях: Жан-Луи Трентиньян, Анук Эме, Суад Амиду, Антуан Сир, Марианн Деникур, Моника Беллуччи, Тесс Ловернь, Лорен Прудом, Жан-Ив Крессенвиль, Бернар Варна

Описание: История великой любви возвращается. Спустя много лет Жан-Луи и Анна снова встретятся, чтобы погрузиться в прошлое и вспомнить лучшие годы своей жизни. Неожиданно сильное и волнующее чувство вырвет героев из холодных оков одиночества.



Страна: Франция
Студия: Davis-Films, France 2 Cinéma, France Télévision, Les Films 13, SofiTVciné 6
Продолжительность: 01:30:32
Перевод: Дублированный - iTunes



Информация о файле:
Кодек: AVC
Формат: MKV
Качество: HDRip-AVC
Видео: MPEG-4 AVC, 1024x428, 23.976 fps, 1910 kbps
Аудио RU: 48 kHz, AC3, 5.1, 384 Kbps
Субтитры: Английские
Навигация по главам: Да




General
Unique ID : 246349216685017584566151879702395838854 (0xB955222131AF642EFB9364C94AFD6186)
Complete name : D:uTorrentРипы_от_wolf1245_MediaBitLes.Plus.Belles.Annees.D.Une.Vie.2019.iTunes.1.45Gb.HDRip-AVC_wolf1245_MediaBit.mkv
Format : Matroska
Format version : Version 4
File size : 1.45 GiB
Duration : 1 h 30 min
Overall bit rate : 2 296 kb/s
Movie name : Les.Plus.Belles.Annees.D.Une.Vie.2019.iTunes.1.45Gb.HDRip-AVC_wolf1245_MediaBit
Encoded date : UTC 2021-01-13 19:41:20
Writing application : mkvmerge v52.0.0 ('Secret For The Mad') 64-bit
Writing library : libebml v1.4.1 + libmatroska v1.6.2
Video
ID : 1
Format : AVC
Format/Info : Advanced Video Codec
Format profile : High@L4.1
Format settings : CABAC / 12 Ref Frames
Format settings, CABAC : Yes
Format settings, Reference frames : 12 frames
Codec ID : V_MPEG4/ISO/AVC
Duration : 1 h 30 min
Bit rate : 1 910 kb/s
Width : 1 024 pixels
Height : 428 pixels
Display aspect ratio : 2.40:1
Frame rate mode : Constant
Frame rate : 23.976 (24000/1001) FPS
Color space : YUV
Chroma subsampling : 4:2:0
Bit depth : 8 bits
Scan type : Progressive
Bits/(Pixel*Frame) : 0.182
Stream size : 1.21 GiB (83%)
Title : _wolf1245_MediaBit
Writing library : x264 core 157 r2958 57baac4
Encoding settings : cabac=1 / ref=12 / deblock=1:-3:-3 / analyse=0x3:0x133 / me=umh / subme=11 / psy=1 / psy_rd=1.05:0.05 / mixed_ref=1 / me_range=48 / chroma_me=1 / trellis=2 / 8x8dct=1 / cqm=0 / deadzone=21,11 / fast_pskip=0 / chroma_qp_offset=-3 / threads=10 / lookahead_threads=2 / sliced_threads=0 / nr=0 / decimate=0 / interlaced=0 / bluray_compat=0 / constrained_intra=0 / bframes=12 / b_pyramid=2 / b_adapt=2 / b_bias=0 / direct=3 / weightb=1 / open_gop=0 / weightp=2 / keyint=240 / keyint_min=24 / scenecut=40 / intra_refresh=0 / rc_lookahead=100 / rc=2pass / mbtree=0 / bitrate=1910 / ratetol=1.0 / qcomp=0.60 / qpmin=0 / qpmax=69 / qpstep=4 / cplxblur=20.0 / qblur=0.5 / vbv_maxrate=50000 / vbv_bufsize=62500 / nal_hrd=none / filler=0 / ip_ratio=1.40 / pb_ratio=1.30 / aq=3:0.80
Language : French
Default : Yes
Forced : No
Audio
ID : 2
Format : AC-3
Format/Info : Audio Coding 3
Commercial name : Dolby Digital
Codec ID : A_AC3
Duration : 1 h 30 min
Bit rate mode : Constant
Bit rate : 384 kb/s
Channel(s) : 6 channels
Channel layout : L R C LFE Ls Rs
Sampling rate : 48.0 kHz
Frame rate : 31.250 FPS (1536 SPF)
Compression mode : Lossy
Stream size : 249 MiB (17%)
Title : DUB | iTunes
Language : Russian
Service kind : Complete Main
Default : Yes
Forced : No
Text
ID : 3
Format : UTF-8
Codec ID : S_TEXT/UTF8
Codec ID/Info : UTF-8 Plain Text
Duration : 1 h 29 min
Bit rate : 49 b/s
Count of elements : 1244
Stream size : 32.4 KiB (0%)
Language : English
Default : No
Forced : No
Menu
00:00:00.000 : :Chapitre 01
00:08:45.734 : :Chapitre 02
00:15:22.338 : :Chapitre 03
00:24:30.302 : :Chapitre 04
00:32:26.570 : :Chapitre 05
00:39:33.496 : :Chapitre 06
00:45:18.716 : :Chapitre 07
00:51:58.240 : :Chapitre 08
01:00:44.099 : :Chapitre 09
01:07:22.664 : :Chapitre 10
01:15:55.718 : :Chapitre 11
01:26:14.795 : :Chapitre 12

Релиз от: & &
Как качать, Как раздавать - Правила и инструкции
Торрент13 янв 2021, 22:46 [ 13 янв 2021, 22:46 ]

СКАЧАТЬ с просмотром рекламы
СтатусПроверен dm1805
.torrent скачан0 раз
Размер1.45 ГБ (1 558 951 645)


Вернуться в Зарубежные фильмы после 2000го года...



Кто сейчас на конференции

Сейчас этот форум просматривают: нет зарегистрированных пользователей

Ресурс не предоставляет электронные версии произведений, а занимается лишь коллекционированием и каталогизацией ссылок, присылаемых и публикуемых на форуме нашими читателями. Если вы являетесь правообладателем какого-либо представленного материала и не желаете чтобы ссылка на него находилась в нашем каталоге, свяжитесь с нами и мы незамедлительно удалим её. Файлы для обмена на трекере предоставлены пользователями сайта, и администрация не несёт ответственности за их содержание. Просьба не заливать файлы, защищенные авторскими правами, а также файлы нелегального содержания!