Неоспоримый / Обсуждению не подлежит / Undisputed [2002-2016, боевик, драма, криминал, спорт, BDRip 1080р] Коллекция - Скачать торрент бесплатно

Модераторы: Модераторы Фильмы, мультфильмы, Союз Риперов

Поделиться ВКонтакте Поделиться Facebook Поделиться Twitter Поделиться Mail.RU
АвторСообщение
Download more
Аватара пользователя
Модератор Фильмов
Модератор Фильмов
 
Раздал: 58.09 ТБ
Скачал: 19.43 ТБ
Ратио: 504.763
Сообщения: 950
Зарегистрирован: 19 ноя 2016, 16:36
Откуда: г. Астана, Казахстан Рипер: daniyar.esmuhanov Есмуханов Данияр Исламбекович
Награды: 18
За 100 сообщений (1) За 500 сообщений (1) 5 Тб отданного (1) 10 Тб отданного (1) 15 Тб отданного (1) 20 Тб отданного (1) 30 Тб отданного (1) 10 Тб скаченного (1) 250 релизов (1) 500 релизов (1) За 2000 полученных спасибо (1) За 4000 полученных спасибо (1) 30 рипов (1) 50 рипов (1) 200 кармы (1) 500 кармы (1) 1000 кармы (1) Халява №3 (1)
Карма: 1132
-2--2--2--2--2--2-

Сообщение Download more » 07 дек 2017, 21:43

Неоспоримый / Обсуждению не подлежит / Undisputed [2002-2016, боевик, драма, криминал, спорт, BDRip 1080р] Коллекция - Скачать торрент

Название: Обсуждению не подлежит / Неоспоримый
Оригинальное название: Undisputed
Год выхода: 2002
Жанр: боевик, драма, криминал, спорт
Режиссер: Уолтер Хилл / Walter Hill
В ролях: Уэсли Снайпс, Винг Реймз, Питер Фальк, Майкл Рукер, Джон Седа, Уэс Студи, Фишер Стивенс, Дэйтон Калли, Мастер Пи, Джонни Уильямс, Дэнис Арндт, Брюс А. Янг, Эми Акино, Эд Ловер, Джо Д’Анджерио, Роуз Роллинз, Морин О'Бойл

О фильме: Получив срок за изнасилование и лишившись своего звездного титула, чемпион по боксу в тяжелом весе Джордж Чемберс оказывается в знаменитой своими жестокими порядками тюрьме Свитуотэр, где уже 10 лет неприкасаемым чемпионом является грозный Монро Хатчинс.

Непобедимый Чемберс знает, что в мире нет боксера лучше него, и он готов это доказать. Но и Хатчинс не собирается проигрывать. Это поединок не на жизнь, а на смерть.


Выпущено: США, Германия
Продолжительность: 01:33:36
Озвучивание: Профессиональный (двухголосый закадровый) Blu-ray CEE, Профессиональный (двухголосый закадровый) DVD
Субтитры: русские, английские

Файл
Формат: MKV
Качество: BDRip 1080р
Видео: 1920x800, MPEG4/ISO/AVC, High@L4.1, 23,976 (24000/1001) кадра/сек, ~3050 Кбит/сек
Аудио: 48,0 КГц, AC3 Dolby Digital, 3/2 (L,C,R,l,r) + LFE ch, 448 kbps Профессиональный (двухголосый закадровый) Blu-ray CEE
Аудио: 48,0 КГц, AC3 Dolby Digital, 3/2 (L,C,R,l,r) + LFE ch, 448 kbps Профессиональный (двухголосый закадровый) DVD
Аудио: 48,0 КГц, AC3 Dolby Digital, 3/2 (L,C,R,l,r) + LFE ch, 448 kbps Оригинальная аудиодорожка: Английский
Видео
Идентификатор : 1
Формат : AVC
Формат/Информация : Advanced Video Codec
Профиль формата : High@L4.1
Настройки формата : CABAC / 4 Ref Frames
Параметр CABAC формата : Да
Параметр RefFrames формата : 4 кадра
Идентификатор кодека : V_MPEG4/ISO/AVC
Продолжительность : 1 ч. 33 м.
Переменный битрейт : 5050 Кбит/сек | 2050 Кбит/сек | 3050 Кбит/сек
Битрейт : 3050 Кбит/сек
Ширина : 1920 пикселей
Высота : 800 пикселей
Соотношение сторон : 2,40:1
Режим частоты кадров : Постоянный
Частота кадров : 23,976 (24000/1001) кадра/сек
Цветовое пространство : YUV
Субдискретизация насыщенности : 4:2:0
Битовая глубина : 8 бит
Тип развёртки : Прогрессивная
Бит/(Пиксели*Кадры) : 0.056
Размер потока : 1,34 Гбайт (60%)
Заголовок : Исходник: Blu-ray Disc | Автор рипа: Есмуханов Данияр Исламбекович | daniyar.esmuhanov
Библиотека кодирования : x264 core 148
Настройки программы : cabac=1 / ref=4 / deblock=1:-1:-1 / analyse=0x3:0x133 / me=umh / subme=9 / psy=1 / psy_rd=1.00:0.15 / mixed_ref=1 / me_range=24 / chroma_me=1 / trellis=2 / 8x8dct=1 / cqm=0 / deadzone=21,11 / fast_pskip=0 / chroma_qp_offset=-3 / threads=12 / lookahead_threads=1 / sliced_threads=0 / nr=0 / decimate=1 / interlaced=0 / bluray_compat=0 / constrained_intra=0 / bframes=3 / b_pyramid=2 / b_adapt=2 / b_bias=0 / direct=3 / weightb=1 / open_gop=0 / weightp=2 / keyint=250 / keyint_min=23 / scenecut=40 / intra_refresh=0 / rc_lookahead=60 / rc=2pass / mbtree=1 / bitrate=3050 / ratetol=1.0 / qcomp=0.60 / qpmin=0 / qpmax=69 / qpstep=4 / cplxblur=20.0 / qblur=0.5 / vbv_maxrate=31250 / vbv_bufsize=31250 / nal_hrd=none / filler=0 / ip_ratio=1.40 / aq=1:1.00
Язык : English
Default : Да
Forced : Да

Аудио #1
Идентификатор : 2
Формат : AC-3
Формат/Информация : Audio Coding 3
Параметр Endianness формата : Big
Идентификатор кодека : A_AC3
Продолжительность : 1 ч. 33 м.
Вид битрейта : Постоянный
Битрейт : 448 Кбит/сек
Каналы : 6 каналов
Расположение каналов : Front: L C R, Side: L R, LFE
Частота : 48,0 КГц
Частота кадров : 31,250 кадров/сек (1536 SPF)
Битовая глубина : 16 бит
Метод сжатия : С потерями
Размер потока : 300 Мбайт (13%)
Заголовок : Профессиональный (двухголосый закадровый) Blu-ray CEE
Язык : Russian
ServiceKind/String : Complete Main
Default : Да
Forced : Да

Аудио #2
Идентификатор : 3
Формат : AC-3
Формат/Информация : Audio Coding 3
Параметр Endianness формата : Big
Идентификатор кодека : A_AC3
Продолжительность : 1 ч. 33 м.
Вид битрейта : Постоянный
Битрейт : 448 Кбит/сек
Каналы : 6 каналов
Расположение каналов : Front: L C R, Side: L R, LFE
Частота : 48,0 КГц
Частота кадров : 31,250 кадров/сек (1536 SPF)
Битовая глубина : 16 бит
Метод сжатия : С потерями
Размер потока : 300 Мбайт (13%)
Заголовок : Профессиональный (двухголосый закадровый) DVD
Язык : Russian
ServiceKind/String : Complete Main
Default : Нет
Forced : Нет

Аудио #3
Идентификатор : 4
Формат : AC-3
Формат/Информация : Audio Coding 3
Параметр Endianness формата : Big
Идентификатор кодека : A_AC3
Продолжительность : 1 ч. 33 м.
Вид битрейта : Постоянный
Битрейт : 448 Кбит/сек
Каналы : 6 каналов
Расположение каналов : Front: L C R, Side: L R, LFE
Частота : 48,0 КГц
Частота кадров : 31,250 кадров/сек (1536 SPF)
Битовая глубина : 16 бит
Метод сжатия : С потерями
Размер потока : 300 Мбайт (13%)
Язык : English
ServiceKind/String : Complete Main
Default : Нет
Forced : Нет

Текст #1
Идентификатор : 5
Формат : UTF-8
Идентификатор кодека : S_TEXT/UTF8
Идентификатор кодека/Информация : UTF-8 Plain Text
Продолжительность : 1 ч. 28 м.
Битрейт : 118 бит/сек
ElementCount : 1148
Размер потока : 76,8 Кбайт (0%)
Язык : Russian
Default : Нет
Forced : Нет

Текст #2
Идентификатор : 6
Формат : UTF-8
Идентификатор кодека : S_TEXT/UTF8
Идентификатор кодека/Информация : UTF-8 Plain Text
Продолжительность : 1 ч. 30 м.
Битрейт : 87 бит/сек
ElementCount : 1812
Размер потока : 58,3 Кбайт (0%)
Язык : English
Default : Нет
Forced : Нет

Меню
00:00:00.000 : en:00:00:00.000
00:07:59.688 : en:00:07:59.688
00:16:05.548 : en:00:16:05.548
00:23:59.813 : en:00:23:59.813
00:31:41.608 : en:00:31:41.608
00:38:46.491 : en:00:38:46.491
00:46:55.896 : en:00:46:55.896
00:54:42.863 : en:00:54:42.863
01:02:23.865 : en:01:02:23.865
01:10:53.082 : en:01:10:53.082
01:17:12.002 : en:01:17:12.002
01:26:25.931 : en:01:26:25.931


Название: Неоспоримый 2 / Обсуждению не подлежит 2
Оригинальное название: Undisputed II: Last Man Standing
Год выхода: 2006
Жанр: боевик, драма, криминал, спорт
Режиссер: Айзек Флорентайн / Isaac Florentine
В ролях: Майкл Джей Уайт, Скотт Эдкинс, Бен Кросс, Эли Данкер, Марк Иванир, Кен Лернер, Дэйзи Лэнг, Сильвио Шимач, Ивайло Герасков, Валентин Ганев

О фильме: Бывший чемпион мира по боксу во время визита в Россию случайно попадает в криминальную разборку, связанную с высшими правительственными чинами и против него фабрикуется ложное дело. Дорога домой будет долгой и трудной, проходящей через суровую российскую тюрьму…

Выпущено: США
Продолжительность: 01:37:36
Озвучивание: Профессиональный (многоголосый закадровый) Blu-ray CEE, Профессиональный (двухголосый закадровый) DVD
Субтитры: русские, английские

Файл
Формат: MKV
Качество: BDRip 1080р
Видео: 1920x1024, MPEG4/ISO/AVC, High@L4.1, 23,976 (24000/1001) кадра/сек, ~3050 Кбит/сек
Аудио: 48,0 КГц, AC3 Dolby Digital, 3/2 (L,C,R,l,r) + LFE ch, 448 kbps Профессиональный (многоголосый закадровый) Blu-ray CEE
Аудио: 48,0 КГц, AC3 Dolby Digital, 2 канала, 192 Кбит/сек Профессиональный (двухголосый закадровый) DVD
Аудио: 48,0 КГц, AC3 Dolby Digital, 3/2 (L,C,R,l,r) + LFE ch, 448 kbps Оригинальная аудиодорожка: Английский
Видео
Идентификатор : 1
Формат : AVC
Формат/Информация : Advanced Video Codec
Профиль формата : High@L4.1
Настройки формата : CABAC / 4 Ref Frames
Параметр CABAC формата : Да
Параметр RefFrames формата : 4 кадра
Идентификатор кодека : V_MPEG4/ISO/AVC
Продолжительность : 1 ч. 37 м.
Переменный битрейт : 5050 Кбит/сек | 2050 Кбит/сек | 3050 Кбит/сек
Битрейт : 3050 Кбит/сек
Ширина : 1920 пикселей
Высота : 1024 пикселя
Соотношение сторон : 1,85:1
Режим частоты кадров : Постоянный
Частота кадров : 23,976 (24000/1001) кадра/сек
Цветовое пространство : YUV
Субдискретизация насыщенности : 4:2:0
Битовая глубина : 8 бит
Тип развёртки : Прогрессивная
Бит/(Пиксели*Кадры) : 0.043
Размер потока : 1,40 Гбайт (65%)
Заголовок : Исходник: Blu-ray Disc | Автор рипа: Есмуханов Данияр Исламбекович | daniyar.esmuhanov
Библиотека кодирования : x264 core 148
Настройки программы : cabac=1 / ref=4 / deblock=1:-1:-1 / analyse=0x3:0x133 / me=umh / subme=9 / psy=1 / psy_rd=1.00:0.15 / mixed_ref=1 / me_range=24 / chroma_me=1 / trellis=2 / 8x8dct=1 / cqm=0 / deadzone=21,11 / fast_pskip=0 / chroma_qp_offset=-3 / threads=12 / lookahead_threads=1 / sliced_threads=0 / nr=0 / decimate=1 / interlaced=0 / bluray_compat=0 / constrained_intra=0 / bframes=3 / b_pyramid=2 / b_adapt=2 / b_bias=0 / direct=3 / weightb=1 / open_gop=0 / weightp=2 / keyint=250 / keyint_min=23 / scenecut=40 / intra_refresh=0 / rc_lookahead=60 / rc=2pass / mbtree=1 / bitrate=3050 / ratetol=1.0 / qcomp=0.60 / qpmin=0 / qpmax=69 / qpstep=4 / cplxblur=20.0 / qblur=0.5 / vbv_maxrate=31250 / vbv_bufsize=31250 / nal_hrd=none / filler=0 / ip_ratio=1.40 / aq=1:1.00
Язык : English
Default : Да
Forced : Да

Аудио #1
Идентификатор : 2
Формат : AC-3
Формат/Информация : Audio Coding 3
Параметр Endianness формата : Big
Идентификатор кодека : A_AC3
Продолжительность : 1 ч. 37 м.
Вид битрейта : Постоянный
Битрейт : 448 Кбит/сек
Каналы : 6 каналов
Расположение каналов : Front: L C R, Side: L R, LFE
Частота : 48,0 КГц
Частота кадров : 31,250 кадров/сек (1536 SPF)
Битовая глубина : 16 бит
Метод сжатия : С потерями
Размер потока : 313 Мбайт (14%)
Заголовок : Профессиональный (многоголосый закадровый) Blu-ray CEE
Язык : Russian
ServiceKind/String : Complete Main
Default : Да
Forced : Да

Аудио #2
Идентификатор : 3
Формат : AC-3
Формат/Информация : Audio Coding 3
Параметр Endianness формата : Big
Идентификатор кодека : A_AC3
Продолжительность : 1 ч. 37 м.
Вид битрейта : Постоянный
Битрейт : 192 Кбит/сек
Каналы : 2 канала
Расположение каналов : Front: L R
Частота : 48,0 КГц
Частота кадров : 31,250 кадров/сек (1536 SPF)
Битовая глубина : 16 бит
Метод сжатия : С потерями
Размер потока : 134 Мбайт (6%)
Заголовок : Профессиональный (двухголосый закадровый) DVD
Язык : Russian
ServiceKind/String : Complete Main
Default : Нет
Forced : Нет

Аудио #3
Идентификатор : 4
Формат : AC-3
Формат/Информация : Audio Coding 3
Параметр Endianness формата : Big
Идентификатор кодека : A_AC3
Продолжительность : 1 ч. 37 м.
Вид битрейта : Постоянный
Битрейт : 448 Кбит/сек
Каналы : 6 каналов
Расположение каналов : Front: L C R, Side: L R, LFE
Частота : 48,0 КГц
Частота кадров : 31,250 кадров/сек (1536 SPF)
Битовая глубина : 16 бит
Метод сжатия : С потерями
Размер потока : 313 Мбайт (14%)
Язык : English
ServiceKind/String : Complete Main
Default : Нет
Forced : Нет

Текст #1
Идентификатор : 5
Формат : UTF-8
Идентификатор кодека : S_TEXT/UTF8
Идентификатор кодека/Информация : UTF-8 Plain Text
Продолжительность : 1 ч. 35 м.
Битрейт : 50 бит/сек
ElementCount : 886
Размер потока : 35,6 Кбайт (0%)
Язык : Russian
Default : Нет
Forced : Нет

Текст #2
Идентификатор : 6
Формат : UTF-8
Идентификатор кодека : S_TEXT/UTF8
Идентификатор кодека/Информация : UTF-8 Plain Text
Продолжительность : 1 ч. 34 м.
Битрейт : 46 бит/сек
ElementCount : 1376
Размер потока : 32,0 Кбайт (0%)
Язык : English
Default : Нет
Forced : Нет

Меню
00:00:00.000 : en:00:00:00.000
00:12:48.893 : en:00:12:48.893
00:20:02.118 : en:00:20:02.118
00:26:09.067 : en:00:26:09.067
00:30:53.351 : en:00:30:53.351
00:39:56.936 : en:00:39:56.936
00:48:14.058 : en:00:48:14.058
00:52:31.648 : en:00:52:31.648
00:58:56.533 : en:00:58:56.533
01:03:05.907 : en:01:03:05.907
01:11:07.305 : en:01:11:07.305
01:15:51.464 : en:01:15:51.464
01:19:19.755 : en:01:19:19.755
01:21:45.567 : en:01:21:45.567
01:28:16.625 : en:01:28:16.625
01:34:01.219 : en:01:34:01.219


Название: Неоспоримый 3 / Обсуждению не подлежит 3
Оригинальное название: Undisputed III: Redemption
Год выхода: 2010
Жанр: боевик, драма, криминал, спорт
Режиссер: Айзек Флорентайн / Isaac Florentine

В ролях: Скотт Эдкинс / Scott Adkins, Майкл Шеннон Дженкинс / Mykel Shannon Jenkins, Марк Иванир / Mark Ivanir, Христо Шопов / Hristo Shopov, Марко Зарор / Marko Zaror, Майкл Бэрал / Michael Baral, Илрам Чои / Ilram Choi, Роберт Костанцо / Robert Costanzo, Латиф Кроудер / Lateef Crowder, Эстебан Куето / Esteban Cueto

О фильме: Юрий Бойка - российский чемпион подпольных боев без правил, постепенно оправляющийся от полученной в последнем поединке травмы, решает вернуться на ринг. Победив в бою нынешнего чемпиона тюрьмы «Чёрные Холмы», его босс - Гага - решает отправить его на международный чемпионат тюремных поединков. Поврежденное колено дает о себе знать в каждом бою и беспокоит Бойку, но он готов пройти до конца, чтобы сразиться с колумбийским бойцом и доказать, что он неоспоримый.

Выпущено: США
Продолжительность: 01:36:01
Озвучивание: Профессиональный (многоголосый закадровый) Blu-ray CEE
Субтитры: русские, английские

Файл
Формат: MKV
Качество: BDRip 1080р
Видео: 1920x1080, MPEG4/ISO/AVC, High@L4.1, 23,976 (24000/1001) кадра/сек, ~3500 Кбит/сек
Аудио: 48,0 КГц, AC3 Dolby Digital, 3/2 (L,C,R,l,r) + LFE ch, 448 kbps Профессиональный (многоголосый закадровый) Blu-ray CEE
Аудио: 48,0 КГц, AC3 Dolby Digital, 3/2 (L,C,R,l,r) + LFE ch, 448 kbps Оригинальная аудиодорожка: Английский
Видео
Идентификатор : 1
Формат : AVC
Формат/Информация : Advanced Video Codec
Профиль формата : High@L4.1
Настройки формата : CABAC / 4 Ref Frames
Параметр CABAC формата : Да
Параметр RefFrames формата : 4 кадра
Идентификатор кодека : V_MPEG4/ISO/AVC
Продолжительность : 1 ч. 36 м.
Переменный битрейт : 5500 Кбит/сек | 2500 Кбит/сек | 3500 Кбит/сек
Битрейт : 3500 Кбит/сек
Ширина : 1920 пикселей
Высота : 1080 пикселей
Соотношение сторон : 16:9
Режим частоты кадров : Постоянный
Частота кадров : 23,976 (23976/1000) кадра/сек
Цветовое пространство : YUV
Субдискретизация насыщенности : 4:2:0
Битовая глубина : 8 бит
Тип развёртки : Прогрессивная
Бит/(Пиксели*Кадры) : 0.050
Размер потока : 1,68 Гбайт (74%)
Заголовок : Исходник: Blu-ray Disc | Автор рипа: Есмуханов Данияр Исламбекович | daniyar.esmuhanov
Библиотека кодирования : x264 core 142 r2453kMod ea0ca51
Настройки программы : cabac=1 / ref=4 / deblock=1:-1:-1 / analyse=0x3:0x113 / me=umh / subme=9 / psy=1 / fade_compensate=0.00 / psy_rd=1.00:0.15 / mixed_ref=1 / me_range=24 / chroma_me=1 / trellis=2 / 8x8dct=1 / cqm=0 / deadzone=21,11 / fast_pskip=1 / chroma_qp_offset=-3 / threads=12 / lookahead_threads=4 / sliced_threads=0 / nr=0 / decimate=1 / interlaced=0 / bluray_compat=0 / constrained_intra=0 / fgo=0 / bframes=3 / b_pyramid=2 / b_adapt=1 / b_bias=0 / direct=1 / weightb=1 / open_gop=0 / weightp=2 / keyint=250 / keyint_min=25 / scenecut=40 / intra_refresh=0 / rc_lookahead=50 / rc=2pass / mbtree=1 / bitrate=3500 Кбит/сек / ratetol=1.0 / qcomp=0.60 / qpmin=0 / qpmax=69 / qpstep=4 / cplxblur=20.0 / qblur=0.5 / vbv_maxrate=31250 / vbv_bufsize=31250 / nal_hrd=none / filler=0 / ip_ratio=1.40 / aq=3:1.00
Язык : English
Default : Да
Forced : Да

Аудио #1
Идентификатор : 2
Формат : AC-3
Формат/Информация : Audio Coding 3
Параметр Endianness формата : Big
Идентификатор кодека : A_AC3
Продолжительность : 1 ч. 36 м.
Вид битрейта : Постоянный
Битрейт : 448 Кбит/сек
Каналы : 6 каналов
Расположение каналов : Front: L C R, Side: L R, LFE
Частота : 48,0 КГц
Частота кадров : 31,250 кадров/сек (1536 SPF)
Битовая глубина : 16 бит
Метод сжатия : С потерями
Размер потока : 308 Мбайт (13%)
Заголовок : Профессиональный (многоголосый закадровый) Blu-ray CEE
Язык : Russian
ServiceKind/String : Complete Main
Default : Да
Forced : Да

Аудио #2
Идентификатор : 3
Формат : AC-3
Формат/Информация : Audio Coding 3
Параметр Endianness формата : Big
Идентификатор кодека : A_AC3
Продолжительность : 1 ч. 36 м.
Вид битрейта : Постоянный
Битрейт : 448 Кбит/сек
Каналы : 6 каналов
Расположение каналов : Front: L C R, Side: L R, LFE
Частота : 48,0 КГц
Частота кадров : 31,250 кадров/сек (1536 SPF)
Битовая глубина : 16 бит
Метод сжатия : С потерями
Размер потока : 308 Мбайт (13%)
Язык : English
ServiceKind/String : Complete Main
Default : Нет
Forced : Нет

Текст #1
Идентификатор : 4
Формат : UTF-8
Идентификатор кодека : S_TEXT/UTF8
Идентификатор кодека/Информация : UTF-8 Plain Text
Продолжительность : 1 ч. 32 м.
Битрейт : 52 бит/сек
ElementCount : 791
Размер потока : 35,2 Кбайт (0%)
Язык : Russian
Default : Нет
Forced : Нет

Текст #2
Идентификатор : 5
Формат : UTF-8
Идентификатор кодека : S_TEXT/UTF8
Идентификатор кодека/Информация : UTF-8 Plain Text
Продолжительность : 1 ч. 35 м.
Битрейт : 36 бит/сек
ElementCount : 944
Размер потока : 25,8 Кбайт (0%)
Язык : English
Default : Нет
Forced : Нет

Меню
00:00:00.000 : en:00:00:00.000
00:11:31.231 : en:00:11:31.231
00:19:26.455 : en:00:19:26.455
00:28:14.275 : en:00:28:14.275
00:40:06.695 : en:00:40:06.695
00:49:29.340 : en:00:49:29.340
01:01:16.463 : en:01:01:16.463
01:12:28.844 : en:01:12:28.844
01:25:33.336 : en:01:25:33.336
01:32:27.082 : en:01:32:27.082


Название: Неоспоримый 4 / Обсуждению не подлежит 4
Оригинальное название: Boyka: Undisputed IV
Год выхода: 2016
Жанр:боевик, драма, криминал, спорт
Режиссер: Тодор Чапканов / Todor Chapkanov

В ролях: Скотт Эдкинс, Теодора Духовникова, Алон Абутбул, Юлиан Вергов, Брахим Ачаббаке, Пол Чахиди, Валентин Ганев, Владо Мажанаов, Мартин Форд

О фильме: Бойка пробует свои силы в высшей лиге, но случайная смерть на ринге заставляет его подвергнуть сомнению всё, во что он верит.

Выпущено: США, Болгария
Продолжительность: 01:30:11
Озвучивание: Профессиональный (многоголосый закадровый) DVD | Blu-ray CEE, Профессиональный (многоголосый закадровый) Paradox & Omskbird records
Субтитры: английские

Файл
Формат: MKV
Качество: BDRip 1080р
Видео: 1920x1024, MPEG4/ISO/AVC, High@L4.1, 23,976 (24000/1001) кадра/сек, ~3050 Кбит/сек
Аудио: 48,0 КГц, AC3 Dolby Digital, 3/2 (L,C,R,l,r) + LFE ch, 448 kbps Профессиональный (многоголосый закадровый) DVD | Blu-ray CEE
Аудио: 48,0 КГц, AC3 Dolby Digital, 2 канала, 192 Кбит/сек Профессиональный (многоголосый закадровый) Paradox & Omskbird records
Аудио: 48,0 КГц, AC3 Dolby Digital, 3/2 (L,C,R,l,r) + LFE ch, 448 kbps Оригинальная аудиодорожка: Английский
Видео
Идентификатор : 1
Формат : AVC
Формат/Информация : Advanced Video Codec
Профиль формата : High@L4.1
Настройки формата : CABAC / 4 Ref Frames
Параметр CABAC формата : Да
Параметр RefFrames формата : 4 кадра
Идентификатор кодека : V_MPEG4/ISO/AVC
Продолжительность : 1 ч. 30 м.
Переменный битрейт : 5050 Кбит/сек | 2050 Кбит/сек | 3050 Кбит/сек
Битрейт : 3050 Кбит/сек
Ширина : 1920 пикселей
Высота : 1024 пикселя
Соотношение сторон : 1,85:1
Режим частоты кадров : Постоянный
Частота кадров : 23,976 (24000/1001) кадра/сек
Цветовое пространство : YUV
Субдискретизация насыщенности : 4:2:0
Битовая глубина : 8 бит
Тип развёртки : Прогрессивная
Бит/(Пиксели*Кадры) : 0.043
Размер потока : 1,29 Гбайт (65%)
Заголовок : Исходник: Blu-ray Disc | Автор рипа: Есмуханов Данияр Исламбекович | daniyar.esmuhanov
Библиотека кодирования : x264 core 148
Настройки программы : cabac=1 / ref=4 / deblock=1:-1:-1 / analyse=0x3:0x133 / me=umh / subme=9 / psy=1 / psy_rd=1.00:0.15 / mixed_ref=1 / me_range=24 / chroma_me=1 / trellis=2 / 8x8dct=1 / cqm=0 / deadzone=21,11 / fast_pskip=0 / chroma_qp_offset=-3 / threads=12 / lookahead_threads=1 / sliced_threads=0 / nr=0 / decimate=1 / interlaced=0 / bluray_compat=0 / constrained_intra=0 / bframes=3 / b_pyramid=2 / b_adapt=2 / b_bias=0 / direct=3 / weightb=1 / open_gop=0 / weightp=2 / keyint=250 / keyint_min=23 / scenecut=40 / intra_refresh=0 / rc_lookahead=60 / rc=2pass / mbtree=1 / bitrate=3050 / ratetol=1.0 / qcomp=0.60 / qpmin=0 / qpmax=69 / qpstep=4 / cplxblur=20.0 / qblur=0.5 / vbv_maxrate=31250 / vbv_bufsize=31250 / nal_hrd=none / filler=0 / ip_ratio=1.40 / aq=1:1.00
Язык : English
Default : Да
Forced : Да

Аудио #1
Идентификатор : 2
Формат : AC-3
Формат/Информация : Audio Coding 3
Параметр Endianness формата : Big
Идентификатор кодека : A_AC3
Продолжительность : 1 ч. 29 м.
Вид битрейта : Постоянный
Битрейт : 448 Кбит/сек
Каналы : 6 каналов
Расположение каналов : Front: L C R, Side: L R, LFE
Частота : 48,0 КГц
Частота кадров : 31,250 кадров/сек (1536 SPF)
Битовая глубина : 16 бит
Метод сжатия : С потерями
Размер потока : 288 Мбайт (14%)
Заголовок : Профессиональный (многоголосый закадровый) Blu-ray CEE
Язык : Russian
ServiceKind/String : Complete Main
Default : Да
Forced : Да

Аудио #2
Идентификатор : 3
Формат : AC-3
Формат/Информация : Audio Coding 3
Параметр Endianness формата : Big
Идентификатор кодека : A_AC3
Продолжительность : 1 ч. 29 м.
Вид битрейта : Постоянный
Битрейт : 192 Кбит/сек
Каналы : 2 канала
Расположение каналов : Front: L R
Частота : 48,0 КГц
Частота кадров : 31,250 кадров/сек (1536 SPF)
Битовая глубина : 16 бит
Метод сжатия : С потерями
Размер потока : 123 Мбайт (6%)
Заголовок : Профессиональный (многоголосый закадровый) Paradox & Omskbird records
Язык : Russian
ServiceKind/String : Complete Main
Default : Нет
Forced : Нет

Аудио #3
Идентификатор : 4
Формат : AC-3
Формат/Информация : Audio Coding 3
Параметр Endianness формата : Big
Идентификатор кодека : A_AC3
Продолжительность : 1 ч. 30 м.
Вид битрейта : Постоянный
Битрейт : 448 Кбит/сек
Каналы : 6 каналов
Расположение каналов : Front: L C R, Side: L R, LFE
Частота : 48,0 КГц
Частота кадров : 31,250 кадров/сек (1536 SPF)
Битовая глубина : 16 бит
Метод сжатия : С потерями
Задержка видео : 24 с. 300 мс.
Размер потока : 289 Мбайт (14%)
Язык : English
ServiceKind/String : Complete Main
Default : Нет
Forced : Нет

Текст
Идентификатор : 5
Формат : UTF-8
Идентификатор кодека : S_TEXT/UTF8
Идентификатор кодека/Информация : UTF-8 Plain Text
Продолжительность : 1 ч. 24 м.
Битрейт : 30 бит/сек
ElementCount : 618
Размер потока : 18,9 Кбайт (0%)
Язык : English
Default : Нет
Forced : Нет

Меню
00:00:00.000 : :Chapter 1
00:12:32.710 : :Chapter 2
00:20:16.424 : :Chapter 3
00:32:57.726 : :Chapter 4
00:43:08.795 : :Chapter 5
00:50:12.218 : :Chapter 6
01:03:27.262 : :Chapter 7
01:11:19.150 : :Chapter 8
01:18:29.204 : :Chapter 9
01:26:03.992 : :Chapter 10


Rip by Есмуханов Данияр Исламбекович | daniyar.esmuhanov











Как качать, Как раздавать - Правила и инструкции
Торрент07 дек 2017, 21:43 [ 07 дек 2017, 21:43 ]

СКАЧАТЬ с просмотром рекламы
СтатусПроверен Download more
.torrent скачан109 раз
Размер8.61 ГБ (9 249 794 120)

Скачал сам?! Дай скачать другим, не уходи с раздачи!!!

Download more

Аватара пользователя
Модератор Фильмов
Модератор Фильмов
 

Сообщения: 950

Зарегистрирован: 19 ноя 2016, 16:36

Откуда: г. Астана, Казахстан Рипер: daniyar.esmuhanov Есмуханов Данияр Исламбекович

Награды: 18
За 100 сообщений (1) За 500 сообщений (1) 5 Тб отданного (1) 10 Тб отданного (1) 15 Тб отданного (1) 20 Тб отданного (1) 30 Тб отданного (1) 10 Тб скаченного (1) 250 релизов (1) 500 релизов (1) За 2000 полученных спасибо (1) За 4000 полученных спасибо (1) 30 рипов (1) 50 рипов (1) 200 кармы (1) 500 кармы (1) 1000 кармы (1) Халява №3 (1)
Карма: 1132
-2--2--2--2--2--2-

Сообщение Download more» 07 дек 2017, 22:28

















































Скачал сам?! Дай скачать другим, не уходи с раздачи!!!


Вернуться в Зарубежные фильмы после 2000го года...



Кто сейчас на конференции

Сейчас этот форум просматривают: нет зарегистрированных пользователей

Ресурс не предоставляет электронные версии произведений, а занимается лишь коллекционированием и каталогизацией ссылок, присылаемых и публикуемых на форуме нашими читателями. Если вы являетесь правообладателем какого-либо представленного материала и не желаете чтобы ссылка на него находилась в нашем каталоге, свяжитесь с нами и мы незамедлительно удалим её. Файлы для обмена на трекере предоставлены пользователями сайта, и администрация не несёт ответственности за их содержание. Просьба не заливать файлы, защищенные авторскими правами, а также файлы нелегального содержания!