Омен / The Omen [1976-2006, ужасы, BDRip 1080р] D, Р, Р2, А | Коллекция - Скачать торрент бесплатно

Модераторы: Модераторы Фильмы, мультфильмы, Союз Риперов

Поделиться ВКонтакте Поделиться Facebook Поделиться Twitter Поделиться Mail.RU
АвторСообщение
Download more
Аватара пользователя
Модератор Фильмов
Модератор Фильмов
 
Раздал: 6.47 ТБ
Скачал: 3.58 ТБ
Ратио: 14.844
Сообщения: 475
Зарегистрирован: 19 ноя 2016, 16:36
Откуда: г. Астана, Казахстан Encoded by daniyar.esmuhanov
Награды: 7
За 100 сообщений (1) За 500 сообщений (1) 5 Тб отданного (1) 250 релизов (1) За 2000 полученных спасибо (1) 30 рипов (1) 200 кармы (1)
Карма: 404
-2--2--2-

Сообщение Download more » 04 фев 2018, 13:40

Омен / The Omen [1976-2006, ужасы, BDRip 1080р] D, Р, Р2, А | Коллекция - Скачать торрент

Название: Омен
Оригинальное название: /The Omen
Год выхода: 1976
Жанр: ужасы
Режиссер: Ричард Доннер
В ролях: : Грегори Пек, Ли Ремик, Дэвид Уорнер, Билли Уайтлоу, Харви Стефенс, Патрик Тротон, Мартин Бенсон, Роберт Ритти
О фильме: Он был рожден в 6 часов 6-го дня 6-го месяца. Как предсказано в Книге Откровений, настанет Конец света, последнее противостояние сил добра и зла, и началом его будет рождение сына Сатаны в облике человеческом..

У жены американского дипломата Роберта Торна рождается мертвый ребенок, и ее муж неспособный сообщить ей эту трагическую новость, усыновляет младенца с непонятным родимым пятном в виде трех шестерок — числа зверя. Подробности рождения ребенка остаются в секрете, но со временем становится ясно, что это необычный ребенок.

Вокруг постоянно, при загадочных обстоятельствах, умирают люди и происходят таинственные события, после которых Роберт Торн начинает панически бояться усыновленного мальчика, за невинным ангельским лицом которого прячется безжалостная дьявольская сущность.



Выпущено: Великобритания, США
Продолжительность: 01:51:02
Озвучивание: Профессиональный (многоголосый закадровый), Профессиональный (двухголосый закадровый), Авторский (одноголосый закадровый)
Субтитры: русские, английские

Файл
Формат: MKV
Качество: BDRip 1080р
Видео: 1920x816, MPEG4/ISO/AVC, High@L4, 23,976 (24000/1001) кадра/сек, ~3096 Кбит/сек
Аудио: 48,0 КГц, AC3 Dolby Digital, 3/2 (L,C,R,l,r) + LFE ch, 448 kbps Профессиональный (многоголосый закадровый) Blu-ray CEE
Аудио: 48,0 КГц, AC3 Dolby Digital, 2 канала, 192 Кбит/сек Профессиональный (двухголосый закадровый) Премьер Видео Фильм
Аудио: 48,0 КГц, AC3 Dolby Digital, 2 канала, 192 Кбит/сек Профессиональный (многоголосый закадровый) Первый Канал | ОРТ
Аудио: 48,0 КГц, AC3 Dolby Digital, 2 канала, 192 Кбит/сек Профессиональный (двухголосый закадровый) НТВ
Аудио: 48,0 КГц, AC3 Dolby Digital, 3/2 (L,C,R,l,r) + LFE ch, 448 kbps Авторский (одноголосый закадровый) А.Михалев
Аудио: 48,0 КГц, AC3 Dolby Digital, 2 канала, 192 Кбит/сек Комментарий директора Ричарда Доннера и Брайана Хельгеланда
Аудио: 48,0 КГц, AC3 Dolby Digital, 2 канала, 192 Кбит/сек Комментарий директора Ричарда Доннера и редактора Стюарта Бэйрда
Аудио: 48,0 КГц, AC3 Dolby Digital, 2 канала, 192 Кбит/сек Введение директора Ричарда Доннера 2006
Аудио: 48,0 КГц, AC3 Dolby Digital, 2 канала, 192 Кбит/сек Ричард Доннер Омен
Аудио: 48,0 КГц, AC3 Dolby Digital, 3/2 (L,C,R,l,r) + LFE ch, 448 kbps Оригинальная аудиодорожка: английский
Программа кодирования : mkvmerge v8.3.0 ('Over the Horizon') 64bit
Библиотека кодирования : libebml v1.3.1 + libmatroska v1.4.2

Видео
Идентификатор : 1
Формат : AVC
Формат/Информация : Advanced Video Codec
Профиль формата : High@L4
Настройки формата : CABAC / 4 Ref Frames
Параметр CABAC формата : Да
Параметр RefFrames формата : 4 кадра
Идентификатор кодека : V_MPEG4/ISO/AVC
Продолжительность : 1 ч. 51 м.
Максимальный битрейт : 62,5 Мбит/сек
Вид битрейта : Переменный
Переменный битрейт : 5096 Кбит/сек | 2096 Кбит/сек | 3096 Кбит/сек
Битрейт : 3096 Кбит/сек
Ширина : 1920 пикселей
Высота : 816 пикселей
Соотношение сторон : 2,35:1
Режим частоты кадров : Постоянный
Частота кадров : 23,976 (24000/1001) кадра/сек
Цветовое пространство : YUV
Субдискретизация насыщенности : 4:2:0
Битовая глубина : 8 бит
Тип развёртки : Прогрессивная
Бит/(Пиксели*Кадры) : 0.056
Размер потока : 1,63 Гбайт (44%)
Заголовок : Исходник: Blu-ray Disc | Автор рипа: Есмуханов Данияр Исламбекович | daniyar.esmuhanov
Библиотека кодирования : x264 core 125 r2200 999b753
Настройки программы : cabac=1 / ref=5 / deblock=1:0:0 / analyse=0x3:0x133 / me=umh / subme=9 / psy=1 / psy_rd=1.00:0.00 / mixed_ref=1 / me_range=16 / chroma_me=1 / trellis=2 / 8x8dct=1 / cqm=0 / deadzone=21,11 / fast_pskip=1 / chroma_qp_offset=-2 / threads=12 / lookahead_threads=2 / sliced_threads=0 / nr=0 / decimate=1 / interlaced=0 / bluray_compat=0 / constrained_intra=0 / bframes=8 / b_pyramid=1 / b_adapt=2 / b_bias=2 / direct=3 / weightb=1 / open_gop=0 / weightp=2 / keyint=240 / keyint_min=23 / scenecut=40 / intra_refresh=0 / rc_lookahead=60 / rc=2pass / mbtree=1 / bitrate=3096 / ratetol=1.0 / qcomp=0.60 / qpmin=10 / qpmax=51 / qpstep=4 / cplxblur=20.0 / qblur=0.5 / ip_ratio=1.40 / aq=1:1.00
Язык : English
Default : Да
Forced : Да

Аудио #1
Идентификатор : 2
Формат : AC-3
Формат/Информация : Audio Coding 3
Параметр Endianness формата : Big
Идентификатор кодека : A_AC3
Продолжительность : 1 ч. 51 м.
Вид битрейта : Постоянный
Битрейт : 448 Кбит/сек
Каналы : 6 каналов
Расположение каналов : Front: L C R, Side: L R, LFE
Частота : 48,0 КГц
Частота кадров : 31,250 кадров/сек (1536 SPF)
Битовая глубина : 16 бит
Метод сжатия : С потерями
Размер потока : 356 Мбайт (9%)
Заголовок : Профессиональный (многоголосый закадровый) Blu-ray CEE
Язык : Russian
ServiceKind/String : Complete Main
Default : Да
Forced : Да

Аудио #2
Идентификатор : 3
Формат : AC-3
Формат/Информация : Audio Coding 3
Параметр Endianness формата : Big
Идентификатор кодека : A_AC3
Продолжительность : 1 ч. 51 м.
Вид битрейта : Постоянный
Битрейт : 192 Кбит/сек
Каналы : 2 канала
Расположение каналов : Front: L R
Частота : 48,0 КГц
Частота кадров : 31,250 кадров/сек (1536 SPF)
Битовая глубина : 16 бит
Метод сжатия : С потерями
Размер потока : 152 Мбайт (4%)
Заголовок : Профессиональный (двухголосый закадровый) Премьер Видео Фильм
Язык : Russian
ServiceKind/String : Complete Main
Default : Нет
Forced : Нет

Аудио #3
Идентификатор : 4
Формат : AC-3
Формат/Информация : Audio Coding 3
Параметр Endianness формата : Big
Идентификатор кодека : A_AC3
Продолжительность : 1 ч. 51 м.
Вид битрейта : Постоянный
Битрейт : 192 Кбит/сек
Каналы : 2 канала
Расположение каналов : Front: L R
Частота : 48,0 КГц
Частота кадров : 31,250 кадров/сек (1536 SPF)
Битовая глубина : 16 бит
Метод сжатия : С потерями
Размер потока : 152 Мбайт (4%)
Заголовок : Профессиональный (многоголосый закадровый) Первый Канал | ОРТ
Язык : Russian
ServiceKind/String : Complete Main
Default : Нет
Forced : Нет

Аудио #4
Идентификатор : 5
Формат : AC-3
Формат/Информация : Audio Coding 3
Параметр Endianness формата : Big
Идентификатор кодека : A_AC3
Продолжительность : 1 ч. 51 м.
Вид битрейта : Постоянный
Битрейт : 192 Кбит/сек
Каналы : 2 канала
Расположение каналов : Front: L R
Частота : 48,0 КГц
Частота кадров : 31,250 кадров/сек (1536 SPF)
Битовая глубина : 16 бит
Метод сжатия : С потерями
Размер потока : 152 Мбайт (4%)
Заголовок : Профессиональный (двухголосый закадровый) НТВ
Язык : Russian
ServiceKind/String : Complete Main
Default : Нет
Forced : Нет

Аудио #5
Идентификатор : 6
Формат : AC-3
Формат/Информация : Audio Coding 3
Параметр Endianness формата : Big
Идентификатор кодека : A_AC3
Продолжительность : 1 ч. 51 м.
Вид битрейта : Постоянный
Битрейт : 448 Кбит/сек
Каналы : 6 каналов
Расположение каналов : Front: L C R, Side: L R, LFE
Частота : 48,0 КГц
Частота кадров : 31,250 кадров/сек (1536 SPF)
Битовая глубина : 16 бит
Метод сжатия : С потерями
Размер потока : 356 Мбайт (9%)
Заголовок : Авторский (одноголосый закадровый) А.Михалев
Язык : Russian
ServiceKind/String : Complete Main
Default : Нет
Forced : Нет

Аудио #6
Идентификатор : 7
Формат : AC-3
Формат/Информация : Audio Coding 3
Параметр Endianness формата : Big
Идентификатор кодека : A_AC3
Продолжительность : 1 ч. 51 м.
Вид битрейта : Постоянный
Битрейт : 192 Кбит/сек
Каналы : 2 канала
Расположение каналов : Front: L R
Частота : 48,0 КГц
Частота кадров : 31,250 кадров/сек (1536 SPF)
Битовая глубина : 16 бит
Метод сжатия : С потерями
Размер потока : 152 Мбайт (4%)
Заголовок : Комментарий директора Ричарда Доннера и Брайана Хельгеланда
Язык : English
ServiceKind/String : Complete Main
Default : Нет
Forced : Нет

Аудио #7
Идентификатор : 8
Формат : AC-3
Формат/Информация : Audio Coding 3
Параметр Endianness формата : Big
Идентификатор кодека : A_AC3
Продолжительность : 1 ч. 51 м.
Вид битрейта : Постоянный
Битрейт : 192 Кбит/сек
Каналы : 2 канала
Расположение каналов : Front: L R
Частота : 48,0 КГц
Частота кадров : 31,250 кадров/сек (1536 SPF)
Битовая глубина : 16 бит
Метод сжатия : С потерями
Размер потока : 152 Мбайт (4%)
Заголовок : Комментарий директора Ричарда Доннера и редактора Стюарта Бэйрда
Язык : English
ServiceKind/String : Complete Main
Default : Нет
Forced : Нет

Аудио #8
Идентификатор : 9
Формат : AC-3
Формат/Информация : Audio Coding 3
Параметр Endianness формата : Big
Идентификатор кодека : A_AC3
Продолжительность : 1 ч. 51 м.
Вид битрейта : Постоянный
Битрейт : 192 Кбит/сек
Каналы : 2 канала
Расположение каналов : Front: L R
Частота : 48,0 КГц
Частота кадров : 31,250 кадров/сек (1536 SPF)
Битовая глубина : 16 бит
Метод сжатия : С потерями
Размер потока : 152 Мбайт (4%)
Заголовок : Введение директора Ричарда Доннера 2006
Язык : English
ServiceKind/String : Complete Main
Default : Нет
Forced : Нет

Аудио #9
Идентификатор : 10
Формат : AC-3
Формат/Информация : Audio Coding 3
Параметр Endianness формата : Big
Идентификатор кодека : A_AC3
Продолжительность : 1 ч. 51 м.
Вид битрейта : Постоянный
Битрейт : 192 Кбит/сек
Каналы : 2 канала
Расположение каналов : Front: L R
Частота : 48,0 КГц
Частота кадров : 31,250 кадров/сек (1536 SPF)
Битовая глубина : 16 бит
Метод сжатия : С потерями
Размер потока : 152 Мбайт (4%)
Заголовок : Ричард Доннер Омен
Язык : English
ServiceKind/String : Complete Main
Default : Нет
Forced : Нет

Аудио #10
Идентификатор : 11
Формат : AC-3
Формат/Информация : Audio Coding 3
Параметр Endianness формата : Big
Идентификатор кодека : A_AC3
Продолжительность : 1 ч. 51 м.
Вид битрейта : Постоянный
Битрейт : 448 Кбит/сек
Каналы : 6 каналов
Расположение каналов : Front: L C R, Side: L R, LFE
Частота : 48,0 КГц
Частота кадров : 31,250 кадров/сек (1536 SPF)
Битовая глубина : 16 бит
Метод сжатия : С потерями
Размер потока : 356 Мбайт (9%)
Язык : English
ServiceKind/String : Complete Main
Default : Нет
Forced : Нет

Текст #1
Идентификатор : 12
Формат : UTF-8
Идентификатор кодека : S_TEXT/UTF8
Идентификатор кодека/Информация : UTF-8 Plain Text
Продолжительность : 1 ч. 49 м.
Битрейт : 47 бит/сек
ElementCount : 577
Размер потока : 37,8 Кбайт (0%)
Язык : Russian
Default : Нет
Forced : Нет

Текст #2
Идентификатор : 13
Формат : UTF-8
Идентификатор кодека : S_TEXT/UTF8
Идентификатор кодека/Информация : UTF-8 Plain Text
Продолжительность : 1 ч. 49 м.
Битрейт : 47 бит/сек
ElementCount : 577
Размер потока : 37,8 Кбайт (0%)
Язык : Russian
Default : Нет
Forced : Нет

Текст #3
Идентификатор : 14
Формат : UTF-8
Идентификатор кодека : S_TEXT/UTF8
Идентификатор кодека/Информация : UTF-8 Plain Text
Продолжительность : 1 ч. 48 м.
Битрейт : 32 бит/сек
ElementCount : 680
Размер потока : 25,7 Кбайт (0%)
Язык : English
Default : Нет
Forced : Нет

Текст #4
Идентификатор : 15
Формат : UTF-8
Идентификатор кодека : S_TEXT/UTF8
Идентификатор кодека/Информация : UTF-8 Plain Text
Продолжительность : 1 ч. 46 м.
Битрейт : 34 бит/сек
ElementCount : 712
Размер потока : 26,7 Кбайт (0%)
Язык : English
Default : Нет
Forced : Нет

Меню
00:00:00.000 : :Chapter 01
00:01:24.500 : :Chapter 02
00:05:02.719 : :Chapter 03
00:05:39.214 : :Chapter 04
00:07:03.380 : :Chapter 05
00:10:50.232 : :Chapter 06
00:12:31.000 : :Chapter 07
00:15:44.109 : :Chapter 08
00:20:16.590 : :Chapter 09
00:24:01.022 : :Chapter 10
00:27:17.427 : :Chapter 11
00:29:11.123 : :Chapter 12
00:31:06.989 : :Chapter 13
00:34:43.039 : :Chapter 14
00:36:20.678 : :Chapter 15
00:38:54.958 : :Chapter 16
00:41:41.998 : :Chapter 17
00:44:48.936 : :Chapter 18
00:48:00.503 : :Chapter 19
00:49:27.172 : :Chapter 20
00:56:38.270 : :Chapter 21
01:02:21.988 : :Chapter 22
01:03:53.496 : :Chapter 23
01:06:53.384 : :Chapter 24
01:08:27.020 : :Chapter 25
01:14:05.024 : :Chapter 26
01:22:21.478 : :Chapter 27
01:26:00.863 : :Chapter 28
01:28:12.120 : :Chapter 29
01:32:47.562 : :Chapter 30
01:35:07.285 : :Chapter 31
01:41:10.481 : :Chapter 32
01:43:54.228 : :Chapter 33
01:45:38.958 : :Chapter 34
01:46:43.647 : :Chapter 35
01:48:59.533 : :Chapter 36













Название: Омен 2: Дэмиен
Оригинальное название: /Damien: Omen II
Год выхода: 1978
Жанр: ужасы
Режиссер: Дон Тейлор, Майк Ходжис
В ролях: : Уильям Холден, Ли Грант, Джонатан Скот-Тэйлор, Роберт Фоксворф, Николас Прайор, Лью Эйрс, Сильвия Сидни, Лэнс Хенриксен, Элизабет Шеперд, Лукас Донат, Аллан Арбус, Фриц Форд
О фильме: Семь лет прошло с того дня, как Дэмиен чудом избежал смерти от руки своего отца. Теперь ему 13, и он живет вместе со своим дядей Ричардом Торном, тетей и двоюродным братом Марком. Пока юный Антихрист познает свою чудовищную силу и как ею пользоваться, за его безопасностью следят множество служителей Дьявола, жестоко уничтожая всех неугодных.

Его дядя постепенно понимает, что мальчик не так невинен как может показаться, и ему открывается чудовищная правда. Вооружившись семью древними кинжалами, Торн собирается очистить мир от самой страшной нечисти на земле, но многие пытались убить сына Сатаны, и теперь все они в могиле. Сможет ли это сделать Ричард Торн или присоединится к своим предшественникам в качестве трупа?



Выпущено: США
Продолжительность: 01:46:51
Озвучивание: Профессиональный (многоголосый закадровый), Профессиональный (двухголосый закадровый)

Файл
Формат: MKV
Качество: BDRip 1080р
Видео: 1920x816, MPEG4/ISO/AVC, High@L4.1, 23,976 (24000/1001) кадра/сек, ~3135 Кбит/сек
Аудио: 48,0 КГц, AC3 Dolby Digital, 3/2 (L,C,R,l,r) + LFE ch, 448 kbps Профессиональный (многоголосый закадровый) Blu-ray CEE
Аудио: 48,0 КГц, AC3 Dolby Digital, 2 канала, 192 Кбит/сек Профессиональный (двухголосый закадровый) Премьер Видео Фильм
Аудио: 48,0 КГц, AC3 Dolby Digital, 2 канала, 192 Кбит/сек Профессиональный (многоголосый закадровый) Первый Канал | ОРТ
Аудио: 48,0 КГц, AC3 Dolby Digital, 2 канала, 192 Кбит/сек Профессиональный (двухголосый закадровый) НТВ
Аудио: 48,0 КГц, AC3 Dolby Digital, 3/2 (L,C,R,l,r) + LFE ch, 448 kbps Оригинальная аудиодорожка: английский
Программа кодирования : mkvmerge v8.3.0 ('Over the Horizon') 64bit
Библиотека кодирования : libebml v1.3.1 + libmatroska v1.4.2

Видео
Идентификатор : 1
Формат : AVC
Формат/Информация : Advanced Video Codec
Профиль формата : High@L4.1
Настройки формата : CABAC / 4 Ref Frames
Параметр CABAC формата : Да
Параметр RefFrames формата : 4 кадра
Идентификатор кодека : V_MPEG4/ISO/AVC
Продолжительность : 1 ч. 46 м.
Максимальный битрейт : 62,5 Мбит/сек
Вид битрейта : Переменный
Переменный битрейт : 5135 Кбит/сек | 2135 Кбит/сек | 3135 Кбит/сек
Битрейт : 3135 Кбит/сек
Ширина : 1920 пикселей
Высота : 816 пикселей
Соотношение сторон : 2,35:1
Режим частоты кадров : Постоянный
Частота кадров : 23,976 (24000/1001) кадра/сек
Цветовое пространство : YUV
Субдискретизация насыщенности : 4:2:0
Битовая глубина : 8 бит
Тип развёртки : Прогрессивная
Бит/(Пиксели*Кадры) : 0.057
Размер потока : 1,59 Гбайт (59%)
Заголовок : Исходник: Blu-ray Disc | Автор рипа: Есмуханов Данияр Исламбекович | daniyar.esmuhanov
Библиотека кодирования : x264 core 142 r2409 d6b4e63
Настройки программы : cabac=1 / ref=3 / deblock=1:0:0 / analyse=0x3:0x113 / me=hex / subme=7 / psy=1 / psy_rd=1.00:0.00 / mixed_ref=1 / me_range=16 / chroma_me=1 / trellis=1 / 8x8dct=1 / cqm=0 / deadzone=21,11 / fast_pskip=1 / chroma_qp_offset=-2 / threads=12 / lookahead_threads=2 / sliced_threads=0 / nr=0 / decimate=1 / interlaced=0 / bluray_compat=0 / constrained_intra=0 / bframes=4 / b_pyramid=2 / b_adapt=1 / b_bias=0 / direct=1 / weightb=1 / open_gop=0 / weightp=2 / keyint=240 / keyint_min=23 / scenecut=40 / intra_refresh=0 / rc_lookahead=40 / rc=2pass / mbtree=1 / bitrate=3135 / ratetol=1.0 / qcomp=0.60 / qpmin=0 / qpmax=69 / qpstep=4 / cplxblur=20.0 / qblur=0.5 / vbv_maxrate=62500 / vbv_bufsize=78125 / nal_hrd=none / filler=0 / ip_ratio=1.40 / aq=1:1.00
Язык : English
Default : Да
Forced : Да

Аудио #1
Идентификатор : 2
Формат : AC-3
Формат/Информация : Audio Coding 3
Параметр Endianness формата : Big
Идентификатор кодека : A_AC3
Продолжительность : 1 ч. 46 м.
Вид битрейта : Постоянный
Битрейт : 448 Кбит/сек
Каналы : 6 каналов
Расположение каналов : Front: L C R, Side: L R, LFE
Частота : 48,0 КГц
Частота кадров : 31,250 кадров/сек (1536 SPF)
Битовая глубина : 16 бит
Метод сжатия : С потерями
Размер потока : 342 Мбайт (12%)
Заголовок : Профессиональный (многоголосый закадровый) Blu-ray CEE
Язык : Russian
ServiceKind/String : Complete Main
Default : Да
Forced : Да

Аудио #2
Идентификатор : 3
Формат : AC-3
Формат/Информация : Audio Coding 3
Параметр Endianness формата : Big
Идентификатор кодека : A_AC3
Продолжительность : 1 ч. 46 м.
Вид битрейта : Постоянный
Битрейт : 192 Кбит/сек
Каналы : 2 канала
Расположение каналов : Front: L R
Частота : 48,0 КГц
Частота кадров : 31,250 кадров/сек (1536 SPF)
Битовая глубина : 16 бит
Метод сжатия : С потерями
Размер потока : 147 Мбайт (5%)
Заголовок : Профессиональный (двухголосый закадровый) Премьер Видео Фильм
Язык : Russian
ServiceKind/String : Complete Main
Default : Нет
Forced : Нет

Аудио #3
Идентификатор : 4
Формат : AC-3
Формат/Информация : Audio Coding 3
Параметр Endianness формата : Big
Идентификатор кодека : A_AC3
Продолжительность : 1 ч. 46 м.
Вид битрейта : Постоянный
Битрейт : 192 Кбит/сек
Каналы : 2 канала
Расположение каналов : Front: L R
Частота : 48,0 КГц
Частота кадров : 31,250 кадров/сек (1536 SPF)
Битовая глубина : 16 бит
Метод сжатия : С потерями
Размер потока : 147 Мбайт (5%)
Заголовок : Профессиональный (многоголосый закадровый) Первый Канал | ОРТ
Язык : Russian
ServiceKind/String : Complete Main
Default : Нет
Forced : Нет

Аудио #4
Идентификатор : 5
Формат : AC-3
Формат/Информация : Audio Coding 3
Параметр Endianness формата : Big
Идентификатор кодека : A_AC3
Продолжительность : 1 ч. 46 м.
Вид битрейта : Постоянный
Битрейт : 192 Кбит/сек
Каналы : 2 канала
Расположение каналов : Front: L R
Частота : 48,0 КГц
Частота кадров : 31,250 кадров/сек (1536 SPF)
Битовая глубина : 16 бит
Метод сжатия : С потерями
Размер потока : 147 Мбайт (5%)
Заголовок : Профессиональный (двухголосый закадровый) НТВ
Язык : Russian
ServiceKind/String : Complete Main
Default : Нет
Forced : Нет

Аудио #5
Идентификатор : 6
Формат : AC-3
Формат/Информация : Audio Coding 3
Параметр Endianness формата : Big
Идентификатор кодека : A_AC3
Продолжительность : 1 ч. 46 м.
Вид битрейта : Постоянный
Битрейт : 448 Кбит/сек
Каналы : 6 каналов
Расположение каналов : Front: L C R, Side: L R, LFE
Частота : 48,0 КГц
Частота кадров : 31,250 кадров/сек (1536 SPF)
Битовая глубина : 16 бит
Метод сжатия : С потерями
Размер потока : 342 Мбайт (12%)
Язык : English
ServiceKind/String : Complete Main
Default : Нет
Forced : Нет

Текст #1
Идентификатор : 7
Формат : UTF-8
Идентификатор кодека : S_TEXT/UTF8
Идентификатор кодека/Информация : UTF-8 Plain Text
Продолжительность : 1 ч. 42 м.
Битрейт : 67 бит/сек
ElementCount : 685
Размер потока : 51,0 Кбайт (0%)
Язык : Russian
Default : Нет
Forced : Нет

Текст #2
Идентификатор : 8
Формат : UTF-8
Идентификатор кодека : S_TEXT/UTF8
Идентификатор кодека/Информация : UTF-8 Plain Text
Продолжительность : 1 ч. 44 м.
Битрейт : 66 бит/сек
ElementCount : 687
Размер потока : 51,0 Кбайт (0%)
Язык : Russian
Default : Нет
Forced : Нет

Текст #3
Идентификатор : 9
Формат : UTF-8
Идентификатор кодека : S_TEXT/UTF8
Идентификатор кодека/Информация : UTF-8 Plain Text
Продолжительность : 1 ч. 42 м.
Битрейт : 52 бит/сек
ElementCount : 967
Размер потока : 39,6 Кбайт (0%)
Язык : English
Default : Нет
Forced : Нет

Меню
00:00:00.000 : :Chapter 01
00:02:04.499 : :Chapter 02
00:04:46.035 : :Chapter 03
00:09:26.566 : :Chapter 04
00:13:16.128 : :Chapter 05
00:19:16.530 : :Chapter 06
00:22:20.089 : :Chapter 07
00:26:43.893 : :Chapter 08
00:30:56.897 : :Chapter 09
00:39:25.989 : :Chapter 10
00:46:14.939 : :Chapter 11
00:49:39.935 : :Chapter 12
00:51:33.465 : :Chapter 13
01:00:11.399 : :Chapter 14
01:07:53.278 : :Chapter 15
01:14:07.485 : :Chapter 16
01:23:04.104 : :Chapter 17
01:31:15.053 : :Chapter 18
01:39:07.149 : :Chapter 19
01:44:14.622 : :Chapter 20












Название: Омен III: Последний конфликт
Оригинальное название: /The Final Conflict
Год выхода: 1981
Жанр: ужасы
Режиссер: Грэм Бейкер
В ролях: : Сэм Нилл, Россано Браззи, Дон Гордон, Лиза Хэрроу, Барнеби Холм, Мэйсон Адамс, Роберт Арден
О фильме: Дэмиену Торну теперь 32. Стремясь к власти над всем миром он предан только себе и своему родному отцу — Сатане. Чтобы достичь своей цели, он убивает всех на своем пути — будь то друг, враг, верный слуга или любовница.

Темным силам противостоит лишь поклявшийся уничтожить дьявольское отродье старый монах с семью святыми кинжалами, выкованными специально для этого дела. Но хватит ли у него сил для осуществления своего плана или умрет как все, и мир повергнется в пучину хаоса?



Выпущено: США
Продолжительность: 01:48:20
Озвучивание: Профессиональный (многоголосый закадровый), Профессиональный (двухголосый закадровый)
Субтитры: русские, английские

Файл
Формат: MKV
Качество: BDRip 1080р
Видео: 1920x816, MPEG4/ISO/AVC, High@L4.1, 23,976 (24000/1001) кадра/сек, ~3136 Кбит/сек
Аудио: 48,0 КГц, AC3 Dolby Digital, 3/2 (L,C,R,l,r) + LFE ch, 448 kbps Профессиональный (многоголосый закадровый) Blu-ray CEE
Аудио: 48,0 КГц, AC3 Dolby Digital, 2 канала, 192 Кбит/сек Профессиональный (двухголосый закадровый) Премьер Видео Фильм
Аудио: 48,0 КГц, AC3 Dolby Digital, 2 канала, 192 Кбит/сек Профессиональный (многоголосый закадровый) Первый Канал | ОРТ
Аудио: 48,0 КГц, AC3 Dolby Digital, 2 канала, 192 Кбит/сек Профессиональный (двухголосый закадровый) НТВ
Аудио: 48,0 КГц, AC3 Dolby Digital, 3/2 (L,C,R,l,r) + LFE ch, 448 kbps Оригинальная аудиодорожка: английский
Программа кодирования : mkvmerge v8.3.0 ('Over the Horizon') 64bit
Библиотека кодирования : libebml v1.3.1 + libmatroska v1.4.2

Видео
Идентификатор : 1
Формат : AVC
Формат/Информация : Advanced Video Codec
Профиль формата : High@L4.1
Настройки формата : CABAC / 4 Ref Frames
Параметр CABAC формата : Да
Параметр RefFrames формата : 4 кадра
Идентификатор кодека : V_MPEG4/ISO/AVC
Продолжительность : 1 ч. 48 м.
Максимальный битрейт : 62,5 Мбит/сек
Вид битрейта : Переменный
Переменный битрейт : 5136 Кбит/сек | 2136 Кбит/сек | 3136 Кбит/сек
Битрейт : 3136 Кбит/сек
Ширина : 1920 пикселей
Высота : 816 пикселей
Соотношение сторон : 2,35:1
Режим частоты кадров : Постоянный
Частота кадров : 23,976 (24000/1001) кадра/сек
Цветовое пространство : YUV
Субдискретизация насыщенности : 4:2:0
Битовая глубина : 8 бит
Тип развёртки : Прогрессивная
Бит/(Пиксели*Кадры) : 0.057
Размер потока : 1,62 Гбайт (59%)
Заголовок : Исходник: Blu-ray Disc | Автор рипа: Есмуханов Данияр Исламбекович | daniyar.esmuhanov
Библиотека кодирования : x264 core 142 r2409 d6b4e63
Настройки программы : cabac=1 / ref=3 / deblock=1:0:0 / analyse=0x3:0x113 / me=hex / subme=7 / psy=1 / psy_rd=1.00:0.00 / mixed_ref=1 / me_range=16 / chroma_me=1 / trellis=1 / 8x8dct=1 / cqm=0 / deadzone=21,11 / fast_pskip=1 / chroma_qp_offset=-2 / threads=12 / lookahead_threads=2 / sliced_threads=0 / nr=0 / decimate=1 / interlaced=0 / bluray_compat=0 / constrained_intra=0 / bframes=4 / b_pyramid=2 / b_adapt=1 / b_bias=0 / direct=1 / weightb=1 / open_gop=0 / weightp=2 / keyint=240 / keyint_min=23 / scenecut=40 / intra_refresh=0 / rc_lookahead=40 / rc=2pass / mbtree=1 / bitrate=3136 / ratetol=1.0 / qcomp=0.60 / qpmin=0 / qpmax=69 / qpstep=4 / cplxblur=20.0 / qblur=0.5 / vbv_maxrate=62500 / vbv_bufsize=78125 / nal_hrd=none / filler=0 / ip_ratio=1.40 / aq=1:1.00
Язык : English
Default : Да
Forced : Да

Аудио #1
Идентификатор : 2
Формат : AC-3
Формат/Информация : Audio Coding 3
Параметр Endianness формата : Big
Идентификатор кодека : A_AC3
Продолжительность : 1 ч. 48 м.
Вид битрейта : Постоянный
Битрейт : 448 Кбит/сек
Каналы : 6 каналов
Расположение каналов : Front: L C R, Side: L R, LFE
Частота : 48,0 КГц
Частота кадров : 31,250 кадров/сек (1536 SPF)
Битовая глубина : 16 бит
Метод сжатия : С потерями
Размер потока : 347 Мбайт (12%)
Заголовок : Профессиональный (многоголосый закадровый) Blu-ray CEE
Язык : Russian
ServiceKind/String : Complete Main
Default : Да
Forced : Да

Аудио #2
Идентификатор : 3
Формат : AC-3
Формат/Информация : Audio Coding 3
Параметр Endianness формата : Big
Идентификатор кодека : A_AC3
Продолжительность : 1 ч. 48 м.
Вид битрейта : Постоянный
Битрейт : 192 Кбит/сек
Каналы : 2 канала
Расположение каналов : Front: L R
Частота : 48,0 КГц
Частота кадров : 31,250 кадров/сек (1536 SPF)
Битовая глубина : 16 бит
Метод сжатия : С потерями
Размер потока : 149 Мбайт (5%)
Заголовок : Профессиональный (двухголосый закадровый) Премьер Видео Фильм
Язык : Russian
ServiceKind/String : Complete Main
Default : Нет
Forced : Нет

Аудио #3
Идентификатор : 4
Формат : AC-3
Формат/Информация : Audio Coding 3
Параметр Endianness формата : Big
Идентификатор кодека : A_AC3
Продолжительность : 1 ч. 48 м.
Вид битрейта : Постоянный
Битрейт : 192 Кбит/сек
Каналы : 2 канала
Расположение каналов : Front: L R
Частота : 48,0 КГц
Частота кадров : 31,250 кадров/сек (1536 SPF)
Битовая глубина : 16 бит
Метод сжатия : С потерями
Размер потока : 149 Мбайт (5%)
Заголовок : Профессиональный (многоголосый закадровый) ОРТ | Первый канал
Язык : Russian
ServiceKind/String : Complete Main
Default : Нет
Forced : Нет

Аудио #4
Идентификатор : 5
Формат : AC-3
Формат/Информация : Audio Coding 3
Параметр Endianness формата : Big
Идентификатор кодека : A_AC3
Продолжительность : 1 ч. 48 м.
Вид битрейта : Постоянный
Битрейт : 192 Кбит/сек
Каналы : 2 канала
Расположение каналов : Front: L R
Частота : 48,0 КГц
Частота кадров : 31,250 кадров/сек (1536 SPF)
Битовая глубина : 16 бит
Метод сжатия : С потерями
Размер потока : 149 Мбайт (5%)
Заголовок : Профессиональный (двухголосый закадровый) НТВ
Язык : Russian
ServiceKind/String : Complete Main
Default : Нет
Forced : Нет

Аудио #5
Идентификатор : 6
Формат : AC-3
Формат/Информация : Audio Coding 3
Параметр Endianness формата : Big
Идентификатор кодека : A_AC3
Продолжительность : 1 ч. 48 м.
Вид битрейта : Постоянный
Битрейт : 448 Кбит/сек
Каналы : 6 каналов
Расположение каналов : Front: L C R, Side: L R, LFE
Частота : 48,0 КГц
Частота кадров : 31,250 кадров/сек (1536 SPF)
Битовая глубина : 16 бит
Метод сжатия : С потерями
Размер потока : 347 Мбайт (12%)
Язык : English
ServiceKind/String : Complete Main
Default : Нет
Forced : Нет

Текст #1
Идентификатор : 7
Формат : UTF-8
Идентификатор кодека : S_TEXT/UTF8
Идентификатор кодека/Информация : UTF-8 Plain Text
Продолжительность : 1 ч. 47 м.
Битрейт : 68 бит/сек
ElementCount : 709
Размер потока : 54,1 Кбайт (0%)
Язык : Russian
Default : Нет
Forced : Нет

Текст #2
Идентификатор : 8
Формат : UTF-8
Идентификатор кодека : S_TEXT/UTF8
Идентификатор кодека/Информация : UTF-8 Plain Text
Продолжительность : 1 ч. 40 м.
Битрейт : 51 бит/сек
ElementCount : 886
Размер потока : 38,2 Кбайт (0%)
Язык : English
Default : Нет
Forced : Нет

Меню
00:00:00.000 : :Chapter 01
00:04:09.832 : :Chapter 02
00:08:27.924 : :Chapter 03
00:13:40.819 : :Chapter 04
00:17:29.090 : :Chapter 05
00:19:35.590 : :Chapter 06
00:22:45.114 : :Chapter 07
00:28:40.260 : :Chapter 08
00:37:54.772 : :Chapter 09
00:41:36.536 : :Chapter 10
00:47:36.437 : :Chapter 11
00:53:53.730 : :Chapter 12
01:02:33.083 : :Chapter 13
01:08:28.979 : :Chapter 14
01:18:35.294 : :Chapter 15
01:24:10.420 : :Chapter 16
01:32:19.533 : :Chapter 17
01:36:56.477 : :Chapter 18
01:41:55.359 : :Chapter 19
01:46:11.532 : :Chapter 20












Название: Омен
Оригинальное название: /The Omen
Год выхода: 2006
Жанр: ужасы
Режиссер: Джон Мур
В ролях: :Лив Шрайбер, Джулия Стайлз, Симус Дэви-Фицпатрик, Эми Хак, Дэвид Тьюлис, Педжа Бьелак, Карло Сабатини, Бохумил Сварч, Джованни Ломбардо Радице, Томас Вулер
О фильме: Многие верят в то, что страшное будущее человечества начинает сбываться в наши дни. Атаки террористов, экстремальные изменения климата… Ещё чуть-чуть, и появится антихрист, который несёт на себе печать «666»: знак апокалипсического зверя. Антихрист получит власть от сатаны, чтобы установить на земле царство обмана и приблизить наступление Армагеддона.

Роберт Торн, американский дипломат высокого ранга, не интересуется мрачными предсказаниями. Он занят совсем другими мыслями: его жена Кэтрин перенесла тяжёлые роды и ещё не знает, что их новорожденный ребёнок умер. Торн боится, что Кэтрин, перенёсшая ранее два выкидыша, не выдержит такого удара…



Выпущено: США
Продолжительность: 01:49:49
Озвучивание: Профессиональный (полное дублирование)
Субтитры: русские, английские

Файл
Формат: MKV
Качество: BDRip 1080р
Видео: 1920x1040, MPEG4/ISO/AVC, High@L4.1, 23,976 (24000/1001) кадра/сек, ~3139 Кбит/сек
Аудио: 48,0 КГц, AC3 Dolby Digital, 3/2 (L,C,R,l,r) + LFE ch, 448 kbps Профессиональный (полное дублирование) Blu-ray CEE
Аудио: 48,0 КГц, AC3 Dolby Digital, 3/2 (L,C,R,l,r) + LFE ch, 448 kbps Оригинальная аудиодорожка: английский
Программа кодирования : mkvmerge v8.3.0 ('Over the Horizon') 64bit
Библиотека кодирования : libebml v1.3.1 + libmatroska v1.4.2

Видео
Идентификатор : 1
Формат : AVC
Формат/Информация : Advanced Video Codec
Профиль формата : High@L4.1
Настройки формата : CABAC / 4 Ref Frames
Параметр CABAC формата : Да
Параметр RefFrames формата : 4 кадра
Идентификатор кодека : V_MPEG4/ISO/AVC
Продолжительность : 1 ч. 49 м.
Максимальный битрейт : 62,5 Мбит/сек
Вид битрейта : Переменный
Переменный битрейт : 5139 Кбит/сек | 2139 Кбит/сек | 3139 Кбит/сек
Битрейт : 3139 Кбит/сек
Ширина : 1920 пикселей
Высота : 1040 пикселей
Соотношение сторон : 1,85:1
Режим частоты кадров : Постоянный
Частота кадров : 23,976 (24000/1001) кадра/сек
Цветовое пространство : YUV
Субдискретизация насыщенности : 4:2:0
Битовая глубина : 8 бит
Тип развёртки : Прогрессивная
Бит/(Пиксели*Кадры) : 0.045
Размер потока : 1,64 Гбайт (70%)
Заголовок : Исходник: Blu-ray Disc | Автор рипа: Есмуханов Данияр Исламбекович | daniyar.esmuhanov
Библиотека кодирования : x264 core 142 r2409 d6b4e63
Настройки программы : cabac=1 / ref=3 / deblock=1:0:0 / analyse=0x3:0x113 / me=hex / subme=7 / psy=1 / psy_rd=1.00:0.00 / mixed_ref=1 / me_range=16 / chroma_me=1 / trellis=1 / 8x8dct=1 / cqm=0 / deadzone=21,11 / fast_pskip=1 / chroma_qp_offset=-2 / threads=12 / lookahead_threads=2 / sliced_threads=0 / nr=0 / decimate=1 / interlaced=0 / bluray_compat=0 / constrained_intra=0 / bframes=4 / b_pyramid=2 / b_adapt=1 / b_bias=0 / direct=1 / weightb=1 / open_gop=0 / weightp=2 / keyint=240 / keyint_min=23 / scenecut=40 / intra_refresh=0 / rc_lookahead=40 / rc=2pass / mbtree=1 / bitrate=3139 / ratetol=1.0 / qcomp=0.60 / qpmin=0 / qpmax=69 / qpstep=4 / cplxblur=20.0 / qblur=0.5 / vbv_maxrate=62500 / vbv_bufsize=78125 / nal_hrd=none / filler=0 / ip_ratio=1.40 / aq=1:1.00
Язык : English
Default : Да
Forced : Да

Аудио #1
Идентификатор : 2
Формат : AC-3
Формат/Информация : Audio Coding 3
Параметр Endianness формата : Big
Идентификатор кодека : A_AC3
Продолжительность : 1 ч. 49 м.
Вид битрейта : Постоянный
Битрейт : 448 Кбит/сек
Каналы : 6 каналов
Расположение каналов : Front: L C R, Side: L R, LFE
Частота : 48,0 КГц
Частота кадров : 31,250 кадров/сек (1536 SPF)
Битовая глубина : 16 бит
Метод сжатия : С потерями
Размер потока : 352 Мбайт (15%)
Заголовок : Профессиональный (полное дублирование) Blu-ray CEE
Язык : Russian
ServiceKind/String : Complete Main
Default : Да
Forced : Да

Аудио #2
Идентификатор : 3
Формат : AC-3
Формат/Информация : Audio Coding 3
Параметр Endianness формата : Big
Идентификатор кодека : A_AC3
Продолжительность : 1 ч. 49 м.
Вид битрейта : Постоянный
Битрейт : 448 Кбит/сек
Каналы : 6 каналов
Расположение каналов : Front: L C R, Side: L R, LFE
Частота : 48,0 КГц
Частота кадров : 31,250 кадров/сек (1536 SPF)
Битовая глубина : 16 бит
Метод сжатия : С потерями
Размер потока : 352 Мбайт (15%)
Язык : English
ServiceKind/String : Complete Main
Default : Нет
Forced : Нет

Текст #1
Идентификатор : 4
Формат : UTF-8
Идентификатор кодека : S_TEXT/UTF8
Идентификатор кодека/Информация : UTF-8 Plain Text
Продолжительность : 1 ч. 44 м.
Битрейт : 52 бит/сек
ElementCount : 821
Размер потока : 40,3 Кбайт (0%)
Язык : Russian
Default : Нет
Forced : Нет

Текст #2
Идентификатор : 5
Формат : UTF-8
Идентификатор кодека : S_TEXT/UTF8
Идентификатор кодека/Информация : UTF-8 Plain Text
Продолжительность : 1 ч. 40 м.
Битрейт : 29 бит/сек
ElementCount : 698
Размер потока : 21,5 Кбайт (0%)
Язык : English
Default : Нет
Forced : Нет

Меню
00:00:00.000 : en:Chapter 01
00:03:17.739 : en:Chapter 02
00:05:05.471 : en:Chapter 03
00:09:51.966 : en:Chapter 04
00:13:05.576 : en:Chapter 05
00:16:59.935 : en:Chapter 06
00:20:06.038 : en:Chapter 07
00:24:58.705 : en:Chapter 08
00:30:00.006 : en:Chapter 09
00:32:42.251 : en:Chapter 10
00:37:44.387 : en:Chapter 11
00:42:04.396 : en:Chapter 12
00:46:11.518 : en:Chapter 13
00:50:50.130 : en:Chapter 14
00:54:58.628 : en:Chapter 15
00:58:51.903 : en:Chapter 16
01:08:05.664 : en:Chapter 17
01:12:31.221 : en:Chapter 18
01:16:56.570 : en:Chapter 19
01:22:41.289 : en:Chapter 20
01:30:13.866 : en:Chapter 21
01:36:55.059 : en:Chapter 22
01:41:48.268 : en:Chapter 23
01:45:52.596 : en:Chapter 24













Rip by Есмуханов Данияр Исламбекович | daniyar.esmuhanov
Как качать, Как раздавать - Правила и инструкции
Торрент05 фев 2018, 08:30 [ 05 фев 2018, 08:30 ]

СКАЧАТЬ с просмотром рекламы
СтатусПроверен Download more
.torrent скачан137 раз
Размер11.47 ГБ (12 315 010 071)
Раздаю свой рипы со скоростью отдачи 100 кБ/с - Скачал сам?! Дай скачать другим, не уходи с раздачи!!!


Вернуться в Зарубежные фильмы после 2000го года...



Кто сейчас на конференции

Сейчас этот форум просматривают: нет зарегистрированных пользователей

Ресурс не предоставляет электронные версии произведений, а занимается лишь коллекционированием и каталогизацией ссылок, присылаемых и публикуемых на форуме нашими читателями. Если вы являетесь правообладателем какого-либо представленного материала и не желаете чтобы ссылка на него находилась в нашем каталоге, свяжитесь с нами и мы незамедлительно удалим её. Файлы для обмена на трекере предоставлены пользователями сайта, и администрация не несёт ответственности за их содержание. Просьба не заливать файлы, защищенные авторскими правами, а также файлы нелегального содержания!