Пираты Карибского моря / Pirates of the Caribbean [2003-2017, Фэнтези, Боевик, Комедия, Приключения, BDRip 1080р] Коллекция - Скачать торрент бесплатно

Модераторы: Модераторы Фильмы, мультфильмы, Союз Риперов

Поделиться ВКонтакте Поделиться Facebook Поделиться Twitter Поделиться Mail.RU
АвторСообщение
Download more
Аватара пользователя
Модератор Фильмов
Модератор Фильмов
 
Раздал: 41.75 ТБ
Скачал: 14.87 ТБ
Ратио: 305.004
Сообщения: 788
Зарегистрирован: 19 ноя 2016, 16:36
Откуда: г. Астана, Казахстан Encoded by daniyar.esmuhanov
Награды: 17
За 100 сообщений (1) За 500 сообщений (1) 5 Тб отданного (1) 10 Тб отданного (1) 15 Тб отданного (1) 20 Тб отданного (1) 30 Тб отданного (1) 10 Тб скаченного (1) 250 релизов (1) 500 релизов (1) За 2000 полученных спасибо (1) За 4000 полученных спасибо (1) 30 рипов (1) 50 рипов (1) 200 кармы (1) 500 кармы (1) Халява №3 (1)
Карма: 842
-2--2--2--2--2-

Сообщение Download more » 04 дек 2017, 20:38

Пираты Карибского моря / Pirates of the Caribbean [2003-2017, Фэнтези, Боевик, Комедия, Приключения, BDRip 1080р] Коллекция - Скачать торрент

Название: Пираты Карибского моря: Проклятие Черной жемчужины
Оригинальное название: Pirates of the Caribbean: The Curse of the Black Pearl
Год выпуска: 2003
Страна: США
Жанр: фэнтези, боевик, приключения
Продолжительность: 02:23:15

Перевод: Профессиональный (полное дублирование) Blu-ray CEE, Профессиональный (многоголосый закадровый) DVD, Профессиональный (двухголосый закадровый) Петр Гланц и Инна Королева, Профессиональный (двухголосый закадровый) Парус видео
Оригинальная аудиодорожка: Есть
Субтитры: русские, английские

Режиссёр: Гор Вербински
Сценарий: Тед Эллиот, Терри Россио, Стюарт Битти
Продюсер: Джерри Брукхаймер, Пол Дисон, Брюс Хендрикс
Оператор: Дариуш Вольски
Композитор: Клаус Баделт
Художник: Брайан Моррис, Дерек Р. Хилл, Джеймс Е. Точчи
Монтаж: Стивен Е. Ривкин, Артур Шмидт, Крэйг Вуд
В ролях: Джонни Депп, Джеффри Раш, Орландо Блум, Кира Найтли, Джек Девенпорт, Кевин МакНэлли, Джонатан Прайс, Ли Аренберг, Макензи Крук, Дэвид Бэйли
Роли дублировали: Александр Баргман, Виктор Костецкий, Андрей Зайцев, Евгения Игумнова, Евгений Дятлов

Бюджет: $140 000 000
Сборы в США: $305 413 918
Сборы в мире: + $348 850 097 = $654 264 015
Сборы в России: $9 060 000

Мировая премьера: 28 июня 2003
Премьера (РФ): 20 августа 2003, Каскад
Релиз на Blu-Ray: 1 октября 2009, Уолт Дисней Компани СНГ
Релиз на DVD: 26 апреля 2011, Уолт Дисней Компани СНГ
Описание: Жизнь харизматичного авантюриста, капитана Джека Воробья, полная увлекательных приключений, резко меняется, когда его заклятый враг - капитан Барбосса - похищает корабль Джека, Черную Жемчужину, а затем нападает на Порт Ройал и крадет прекрасную дочь губернатора, Элизабет Свонн.
Друг детства Элизабет, Уилл Тернер, вместе с Джеком возглавляет спасательную экспедицию на самом быстром корабле Британии, в попытке вызволить девушку из плена и заодно отобрать у злодея Черную Жемчужину. Вслед за этой парочкой отправляется амбициозный коммодор Норрингтон, который к тому же числится женихом Элизабет.
Однако Уилл не знает, что над Барбоссой висит вечное проклятие, при лунном свете превращающее его с командой в живых скелетов. Проклятье будет снято лишь тогда, когда украденное золото Ацтеков будет возвращено пиратами на старое место.


Файл
Формат: MKV
Качество: BDRip 1080р
Видео: 1920x816, MPEG4/ISO/AVC, High@L4, 23,976 (24000/1001) кадра/сек, ~3039 Кбит/сек
Аудио: 48,0 КГц, AC3 Dolby Digital, 3/2 (L,C,R,l,r) + LFE ch, 448 kbps Профессиональный (полное дублирование) Blu-ray CEE, Профессиональный (многоголосый закадровый) DVD, Профессиональный (двухголосый закадровый) Петр Гланц и Инна Королева, Профессиональный (двухголосый закадровый) Парус видео, Оригинальная аудиодорожка: английский
Видео
Идентификатор : 1
Формат : AVC
Формат/Информация : Advanced Video Codec
Профиль формата : High@L4
Настройки формата : CABAC / 5 Ref Frames
Параметр CABAC формата : Да
Параметр RefFrames формата : 5 кадров
Идентификатор кодека : V_MPEG4/ISO/AVC
Продолжительность : 2 ч. 13 м.
Переменный битрейт : 5039 Кбит/сек | 2039 Кбит/сек | 3039 Кбит/сек
Битрейт : 3039 Кбит/сек
Ширина : 1920 пикселей
Высота : 816 пикселей
Соотношение сторон : 2,35:1
Режим частоты кадров : Постоянный
Частота кадров : 23,976 (24000/1001) кадра/сек
Цветовое пространство : YUV
Субдискретизация насыщенности : 4:2:0
Битовая глубина : 8 бит
Тип развёртки : Прогрессивная
Бит/(Пиксели*Кадры) : 0.054
Размер потока : 1,90 Гбайт (46%)
Заголовок : Исходник: Blu-ray Disc | Автор рипа: Есмуханов Данияр Исламбекович | daniyar.esmuhanov
Библиотека кодирования : x264 core 129 r2245 bc13772
Настройки программы : cabac=1 / ref=5 / deblock=1:-1:-1 / analyse=0x3:0x133 / me=umh / subme=9 / psy=1 / psy_rd=1.00:0.15 / mixed_ref=1 / me_range=16 / chroma_me=1 / trellis=2 / 8x8dct=1 / cqm=0 / deadzone=21,11 / fast_pskip=1 / chroma_qp_offset=-3 / threads=12 / lookahead_threads=2 / sliced_threads=0 / nr=0 / decimate=1 / interlaced=0 / bluray_compat=0 / constrained_intra=0 / bframes=3 / b_pyramid=2 / b_adapt=2 / b_bias=0 / direct=3 / weightb=1 / open_gop=0 / weightp=2 / keyint=240 / keyint_min=23 / scenecut=40 / intra_refresh=0 / rc_lookahead=60 / rc=2pass / mbtree=1 / bitrate=3039 / ratetol=1.0 / qcomp=0.60 / qpmin=10 / qpmax=51 / qpstep=4 / cplxblur=20.0 / qblur=0.5 / ip_ratio=1.40 / aq=1:1.00
Язык : English
Default : Да
Forced : Да

Аудио #1
Идентификатор : 2
Формат : AC-3
Формат/Информация : Audio Coding 3
Параметр Endianness формата : Big
Идентификатор кодека : A_AC3
Продолжительность : 2 ч. 23 м.
Вид битрейта : Постоянный
Битрейт : 448 Кбит/сек
Каналы : 6 каналов
Расположение каналов : Front: L C R, Side: L R, LFE
Частота : 48,0 КГц
Частота кадров : 31,250 кадров/сек (1536 SPF)
Битовая глубина : 16 бит
Метод сжатия : С потерями
Размер потока : 459 Мбайт (11%)
Заголовок : Профессиональный (полное дублирование) Blu-ray CEE
Язык : Russian
ServiceKind/String : Complete Main
Default : Да
Forced : Да

Аудио #2
Идентификатор : 3
Формат : AC-3
Формат/Информация : Audio Coding 3
Параметр Endianness формата : Big
Идентификатор кодека : A_AC3
Продолжительность : 2 ч. 23 м.
Вид битрейта : Постоянный
Битрейт : 448 Кбит/сек
Каналы : 6 каналов
Расположение каналов : Front: L C R, Side: L R, LFE
Частота : 48,0 КГц
Частота кадров : 31,250 кадров/сек (1536 SPF)
Битовая глубина : 16 бит
Метод сжатия : С потерями
Размер потока : 459 Мбайт (11%)
Заголовок : Профессиональный (многоголосый закадровый) DVD
Язык : Russian
ServiceKind/String : Complete Main
Default : Нет
Forced : Нет

Аудио #3
Идентификатор : 4
Формат : AC-3
Формат/Информация : Audio Coding 3
Параметр Endianness формата : Big
Идентификатор кодека : A_AC3
Продолжительность : 2 ч. 23 м.
Вид битрейта : Постоянный
Битрейт : 448 Кбит/сек
Каналы : 6 каналов
Расположение каналов : Front: L C R, Side: L R, LFE
Частота : 48,0 КГц
Частота кадров : 31,250 кадров/сек (1536 SPF)
Битовая глубина : 16 бит
Метод сжатия : С потерями
Размер потока : 459 Мбайт (11%)
Заголовок : Профессиональный (двухголосый закадровый) Петр Гланц и Инна Королева
Язык : Russian
ServiceKind/String : Complete Main
Default : Нет
Forced : Нет

Аудио #4
Идентификатор : 5
Формат : AC-3
Формат/Информация : Audio Coding 3
Параметр Endianness формата : Big
Идентификатор кодека : A_AC3
Продолжительность : 2 ч. 23 м.
Вид битрейта : Постоянный
Битрейт : 448 Кбит/сек
Каналы : 6 каналов
Расположение каналов : Front: L C R, Side: L R, LFE
Частота : 48,0 КГц
Частота кадров : 31,250 кадров/сек (1536 SPF)
Битовая глубина : 16 бит
Метод сжатия : С потерями
Размер потока : 459 Мбайт (11%)
Заголовок : Профессиональный (двухголосый закадровый) Парус видео
Язык : Russian
ServiceKind/String : Complete Main
Default : Нет
Forced : Нет

Аудио #5
Идентификатор : 6
Формат : AC-3
Формат/Информация : Audio Coding 3
Параметр Endianness формата : Big
Идентификатор кодека : A_AC3
Продолжительность : 2 ч. 23 м.
Вид битрейта : Постоянный
Битрейт : 448 Кбит/сек
Каналы : 6 каналов
Расположение каналов : Front: L C R, Side: L R, LFE
Частота : 48,0 КГц
Частота кадров : 31,250 кадров/сек (1536 SPF)
Битовая глубина : 16 бит
Метод сжатия : С потерями
Размер потока : 459 Мбайт (11%)
Язык : English
ServiceKind/String : Complete Main
Default : Нет
Forced : Нет

Текст #1
Идентификатор : 7
Формат : UTF-8
Идентификатор кодека : S_TEXT/UTF8
Идентификатор кодека/Информация : UTF-8 Plain Text
Продолжительность : 2 ч. 13 м.
Битрейт : 69 бит/сек
ElementCount : 1329
Размер потока : 68,0 Кбайт (0%)
Язык : Russian
Default : Нет
Forced : Нет

Текст #2
Идентификатор : 8
Формат : UTF-8
Идентификатор кодека : S_TEXT/UTF8
Идентификатор кодека/Информация : UTF-8 Plain Text
Продолжительность : 2 ч. 13 м.
Битрейт : 73 бит/сек
ElementCount : 1271
Размер потока : 71,9 Кбайт (0%)
Язык : Russian
Default : Нет
Forced : Нет

Текст #3
Идентификатор : 9
Формат : UTF-8
Идентификатор кодека : S_TEXT/UTF8
Идентификатор кодека/Информация : UTF-8 Plain Text
Продолжительность : 2 ч. 12 м.
Битрейт : 47 бит/сек
ElementCount : 1619
Размер потока : 46,1 Кбайт (0%)
Язык : English
Default : Нет
Forced : Нет

Название: Пираты Карибского моря: Сундук мертвеца
Оригинальное название: Pirates of the Caribbean: Dead Man's Chest
Год выпуска: 2006
Страна: США
Жанр: фэнтези, боевик, приключения
Продолжительность: 02:30:40

Перевод: Профессиональный (полное дублирование) Blu-ray CEE, Профессиональный (двухголосый закадровый) Tycoon, Профессиональный (двухголосый закадровый) Петр Гланц и Инна Королева, Авторский (одноголосый закадровый) В.Королев
Оригинальная аудиодорожка: Есть
Субтитры: русские, английские

Режиссёр: Гор Вербински
Сценарий: Тед Эллиот, Терри Россио, Стюарт Битти
Продюсер: Джерри Брукхаймер, Брюс Хендрикс, Джек Ни
Оператор: Дариуш Вольски
Композитор: Ханс Циммер
Художник: Рик Хайнрихс, Брюс Кроун, Джон Декстер
Монтаж: Стивен Е. Ривкин, Крэйг Вуд
В ролях: Джонни Депп, Орландо Блум, Кира Найтли, Джек Девенпорт, Билл Найи, Стеллан Скарсгард, Кевин МакНэлли, Ли Аренберг, Макензи Крук, Том Холландер
Роли дублировали: Александр Баргман, Александр Хомик, Белла Ко, Екатерина Кабашова, Марк Макаренков

Бюджет: $225 000 000
Сборы в США: $423 315 812
Сборы в мире: + $642 863 913 = $1 066 179 725
Сборы в России: $27 512 316

Мировая премьера: 24 июня 2006
Премьера (РФ): 13 июля 2006, Каскад
Релиз на Blu-Ray: 1 октября 2009, Уолт Дисней Компани СНГ
Релиз на DVD: 3 апреля 2012, ВС трейд
Описание: Вновь оказавшись в ирреальном мире, лихой капитан Джек Воробей неожиданно узнает, что является должником легендарного капитана "Летучего Голландца" Дэйви Джонса. Джек должен в кратчайшие сроки решить эту проблему, иначе ему грозит вечное проклятие и рабское существование после смерти. Вдобавок ко всему, срывается свадьба Уилла Тернера и Элизабет Суонн, которые вынуждены составить Джеку компанию в его злоключениях...

Файл
Формат: MKV
Качество: BDRip 1080р
Видео: 1920x800, MPEG4/ISO/AVC, High@L4, 23,976 (24000/1001) кадра/сек, ~3020 Кбит/сек
Аудио: 48,0 КГц, AC3 Dolby Digital, 3/2 (L,C,R,l,r) + LFE ch, 448 kbps Профессиональный (полное дублирование) Blu-ray CEE, Профессиональный (двухголосый закадровый) Tycoon, Профессиональный (двухголосый закадровый) Петр Гланц и Инна Королева, Авторский (одноголосый закадровый) В.Королев, Оригинальная аудиодорожка: английский
Видео
Идентификатор : 1
Формат : AVC
Формат/Информация : Advanced Video Codec
Профиль формата : High@L4
Настройки формата : CABAC / 5 Ref Frames
Параметр CABAC формата : Да
Параметр RefFrames формата : 5 кадров
Идентификатор кодека : V_MPEG4/ISO/AVC
Продолжительность : 2 ч. 21 м.
Переменный битрейт : 5020 Кбит/сек | 1020 Кбит/сек | 3020 Кбит/сек
Битрейт : 3020 Кбит/сек
Ширина : 1920 пикселей
Высота : 800 пикселей
Соотношение сторон : 2,40:1
Режим частоты кадров : Постоянный
Частота кадров : 23,976 (24000/1001) кадра/сек
Цветовое пространство : YUV
Субдискретизация насыщенности : 4:2:0
Битовая глубина : 8 бит
Тип развёртки : Прогрессивная
Бит/(Пиксели*Кадры) : 0.055
Размер потока : 2,00 Гбайт (46%)
Заголовок : Исходник: Blu-ray Disc | Автор рипа: Есмуханов Данияр Исламбекович | daniyar.esmuhanov
Библиотека кодирования : x264 core 129 r2245 bc13772
Настройки программы : cabac=1 / ref=5 / deblock=1:-1:-1 / analyse=0x3:0x133 / me=umh / subme=9 / psy=1 / psy_rd=1.00:0.15 / mixed_ref=1 / me_range=16 / chroma_me=1 / trellis=2 / 8x8dct=1 / cqm=0 / deadzone=21,11 / fast_pskip=1 / chroma_qp_offset=-3 / threads=12 / lookahead_threads=2 / sliced_threads=0 / nr=0 / decimate=1 / interlaced=0 / bluray_compat=0 / constrained_intra=0 / bframes=3 / b_pyramid=2 / b_adapt=2 / b_bias=0 / direct=3 / weightb=1 / open_gop=0 / weightp=2 / keyint=240 / keyint_min=23 / scenecut=40 / intra_refresh=0 / rc_lookahead=60 / rc=2pass / mbtree=1 / bitrate=3020 / ratetol=1.0 / qcomp=0.60 / qpmin=10 / qpmax=51 / qpstep=4 / cplxblur=20.0 / qblur=0.5 / ip_ratio=1.40 / aq=1:1.00
Язык : English
Default : Да
Forced : Да

Аудио #1
Идентификатор : 2
Формат : AC-3
Формат/Информация : Audio Coding 3
Параметр Endianness формата : Big
Идентификатор кодека : A_AC3
Продолжительность : 2 ч. 30 м.
Вид битрейта : Постоянный
Битрейт : 448 Кбит/сек
Каналы : 6 каналов
Расположение каналов : Front: L C R, Side: L R, LFE
Частота : 48,0 КГц
Частота кадров : 31,250 кадров/сек (1536 SPF)
Битовая глубина : 16 бит
Метод сжатия : С потерями
Размер потока : 483 Мбайт (11%)
Заголовок : Профессиональный (полное дублирование) Blu-ray CEE
Язык : Russian
ServiceKind/String : Complete Main
Default : Да
Forced : Да

Аудио #2
Идентификатор : 3
Формат : AC-3
Формат/Информация : Audio Coding 3
Параметр Endianness формата : Big
Идентификатор кодека : A_AC3
Продолжительность : 2 ч. 30 м.
Вид битрейта : Постоянный
Битрейт : 448 Кбит/сек
Каналы : 6 каналов
Расположение каналов : Front: L C R, Side: L R, LFE
Частота : 48,0 КГц
Частота кадров : 31,250 кадров/сек (1536 SPF)
Битовая глубина : 16 бит
Метод сжатия : С потерями
Размер потока : 483 Мбайт (11%)
Заголовок : Профессиональный (двухголосый закадровый) Tycoon
Язык : Russian
ServiceKind/String : Complete Main
Default : Нет
Forced : Нет

Аудио #3
Идентификатор : 4
Формат : AC-3
Формат/Информация : Audio Coding 3
Параметр Endianness формата : Big
Идентификатор кодека : A_AC3
Продолжительность : 2 ч. 30 м.
Вид битрейта : Постоянный
Битрейт : 448 Кбит/сек
Каналы : 6 каналов
Расположение каналов : Front: L C R, Side: L R, LFE
Частота : 48,0 КГц
Частота кадров : 31,250 кадров/сек (1536 SPF)
Битовая глубина : 16 бит
Метод сжатия : С потерями
Размер потока : 483 Мбайт (11%)
Заголовок : Профессиональный (двухголосый закадровый) Петр Гланц и Инна Королева
Язык : Russian
ServiceKind/String : Complete Main
Default : Нет
Forced : Нет

Аудио #4
Идентификатор : 5
Формат : AC-3
Формат/Информация : Audio Coding 3
Параметр Endianness формата : Big
Идентификатор кодека : A_AC3
Продолжительность : 2 ч. 30 м.
Вид битрейта : Постоянный
Битрейт : 448 Кбит/сек
Каналы : 6 каналов
Расположение каналов : Front: L C R, Side: L R, LFE
Частота : 48,0 КГц
Частота кадров : 31,250 кадров/сек (1536 SPF)
Битовая глубина : 16 бит
Метод сжатия : С потерями
Размер потока : 483 Мбайт (11%)
Заголовок : Авторский (одноголосый закадровый) В.Королев
Язык : Russian
ServiceKind/String : Complete Main
Default : Нет
Forced : Нет

Аудио #5
Идентификатор : 6
Формат : AC-3
Формат/Информация : Audio Coding 3
Параметр Endianness формата : Big
Идентификатор кодека : A_AC3
Продолжительность : 2 ч. 30 м.
Вид битрейта : Постоянный
Битрейт : 448 Кбит/сек
Каналы : 6 каналов
Расположение каналов : Front: L C R, Side: L R, LFE
Частота : 48,0 КГц
Частота кадров : 31,250 кадров/сек (1536 SPF)
Битовая глубина : 16 бит
Метод сжатия : С потерями
Размер потока : 483 Мбайт (11%)
Язык : English
ServiceKind/String : Complete Main
Default : Нет
Forced : Нет

Текст #1
Идентификатор : 7
Формат : UTF-8
Идентификатор кодека : S_TEXT/UTF8
Идентификатор кодека/Информация : UTF-8 Plain Text
Продолжительность : 2 ч. 20 м.
Битрейт : 56 бит/сек
ElementCount : 1140
Размер потока : 58,2 Кбайт (0%)
Язык : Russian
Default : Нет
Forced : Нет

Текст #2
Идентификатор : 8
Формат : UTF-8
Идентификатор кодека : S_TEXT/UTF8
Идентификатор кодека/Информация : UTF-8 Plain Text
Продолжительность : 2 ч. 18 м.
Битрейт : 41 бит/сек
ElementCount : 1259
Размер потока : 41,7 Кбайт (0%)
Язык : English
Default : Нет
Forced : Нет

Информация о фильме
Название: Пираты Карибского моря: На краю Света
Оригинальное название: Pirates of the Caribbean: At World's End
Год выпуска: 2007
Страна: США
Жанр: фэнтези, боевик, приключения
Продолжительность: 02:48:30

Перевод: Профессиональный (полное дублирование) Blu-ray CEE, Профессиональный (двухголосый закадровый) Петр Гланц и Инна Королева, Авторский (одноголосый закадровый) В.Королев
Оригинальная аудиодорожка: Есть
Субтитры: русские, английские
Режиссёр: Гор Вербински
Сценарий: Тед Эллиот, Терри Россио, Стюарт Битти
Продюсер: Джерри Брукхаймер, Брюс Хендрикс, Джек Ни
Оператор: Дариуш Вольски
Композитор: Ханс Циммер
Художник: Рик Хайнрихс, Брюс Кроун, Джон Декстер
Монтаж: Стивен Е. Ривкин, Крэйг Вуд
В ролях: Джонни Депп, Джеффри Раш, Орландо Блум, Кира Найтли, Том Холландер, Билл Найи, Стеллан Скарсгард, Наоми Харрис, Джек Девенпорт, Чоу Юнь-Фат
Роли дублировали: Сергей Дьячков, Виктор Костецкий, Андрей Зайцев, Евгения Игумнова, Олег Куликович

Бюджет: $300 000 000
Сборы в США: $309 420 425
Сборы в мире: + $654 000 000 = $963 420 425
Сборы в России: $30 850 884

Мировая премьера: 19 мая 2007
Премьера (РФ): 24 мая 2007, BVSPR
Релиз на Blu-Ray: 1 октября 2009, Уолт Дисней Компани СНГ
Релиз на DVD: 3 апреля 2012, ВС трейд
Описание: Новые приключения Джека Воробья и его друзей Уилла Тернера и Элизабет Суонн. На этот раз Уиллу и Элизабет придется объединиться с самим Капитаном Барбоссой для того, чтобы отправиться на край света и спасти своего друга - Джека. Ситуация осложняется тем, что Элизабет попадает к сингапурским пиратам...

Файл
Формат: MKV
Качество: BDRip 1080р
Видео: 1920x800, MPEG4/ISO/AVC, High@L4, 23,976 (24000/1001) кадра/сек, ~3147 Кбит/сек Кбит/сек
Аудио: 48,0 КГц, AC3 Dolby Digital, 3/2 (L,C,R,l,r) + LFE ch, 448 kbps Профессиональный (полное дублирование) Blu-ray CEE, Профессиональный (двухголосый закадровый) Петр Гланц и Инна Королева, Авторский (одноголосый закадровый) В.Королев, Оригинальная аудиодорожка: английский
Видео
Идентификатор : 1
Формат : AVC
Формат/Информация : Advanced Video Codec
Профиль формата : High@L4
Настройки формата : CABAC / 5 Ref Frames
Параметр CABAC формата : Да
Параметр RefFrames формата : 5 кадров
Идентификатор кодека : V_MPEG4/ISO/AVC
Продолжительность : 2 ч. 39 м.
Переменный битрейт : 5147 Кбит/сек | 2147 Кбит/сек | 3147 Кбит/сек
Битрейт : 3147 Кбит/сек
Ширина : 1920 пикселей
Высота : 800 пикселей
Соотношение сторон : 2,40:1
Режим частоты кадров : Постоянный
Частота кадров : 23,976 (24000/1001) кадра/сек
Цветовое пространство : YUV
Субдискретизация насыщенности : 4:2:0
Битовая глубина : 8 бит
Тип развёртки : Прогрессивная
Бит/(Пиксели*Кадры) : 0.058
Размер потока : 2,39 Гбайт (53%)
Заголовок : Исходник: Blu-ray Disc | Автор рипа: Есмуханов Данияр Исламбекович | daniyar.esmuhanov
Библиотека кодирования : x264 core 129 r2245 bc13772
Настройки программы : cabac=1 / ref=5 / deblock=1:-1:-1 / analyse=0x3:0x133 / me=umh / subme=9 / psy=1 / psy_rd=1.00:0.15 / mixed_ref=1 / me_range=16 / chroma_me=1 / trellis=2 / 8x8dct=1 / cqm=0 / deadzone=21,11 / fast_pskip=1 / chroma_qp_offset=-3 / threads=12 / lookahead_threads=2 / sliced_threads=0 / nr=0 / decimate=1 / interlaced=0 / bluray_compat=0 / constrained_intra=0 / bframes=3 / b_pyramid=2 / b_adapt=2 / b_bias=0 / direct=3 / weightb=1 / open_gop=0 / weightp=2 / keyint=240 / keyint_min=23 / scenecut=40 / intra_refresh=0 / rc_lookahead=60 / rc=2pass / mbtree=1 / bitrate=3147 / ratetol=1.0 / qcomp=0.60 / qpmin=10 / qpmax=51 / qpstep=4 / cplxblur=20.0 / qblur=0.5 / ip_ratio=1.40 / aq=1:1.00
Язык : English
Default : Да
Forced : Да

Аудио #1
Идентификатор : 2
Формат : AC-3
Формат/Информация : Audio Coding 3
Параметр Endianness формата : Big
Идентификатор кодека : A_AC3
Продолжительность : 2 ч. 48 м.
Вид битрейта : Постоянный
Битрейт : 448 Кбит/сек
Каналы : 6 каналов
Расположение каналов : Front: L C R, Side: L R, LFE
Частота : 48,0 КГц
Частота кадров : 31,250 кадров/сек (1536 SPF)
Битовая глубина : 16 бит
Метод сжатия : С потерями
Размер потока : 540 Мбайт (12%)
Заголовок : Профессиональный (полное дублирование) Blu-ray CEE
Язык : Russian
ServiceKind/String : Complete Main
Default : Да
Forced : Да

Аудио #2
Идентификатор : 3
Формат : AC-3
Формат/Информация : Audio Coding 3
Параметр Endianness формата : Big
Идентификатор кодека : A_AC3
Продолжительность : 2 ч. 48 м.
Вид битрейта : Постоянный
Битрейт : 448 Кбит/сек
Каналы : 6 каналов
Расположение каналов : Front: L C R, Side: L R, LFE
Частота : 48,0 КГц
Частота кадров : 31,250 кадров/сек (1536 SPF)
Битовая глубина : 16 бит
Метод сжатия : С потерями
Размер потока : 540 Мбайт (12%)
Заголовок : Профессиональный (двухголосый закадровый) Петр Гланц и Инна Королева
Язык : Russian
ServiceKind/String : Complete Main
Default : Нет
Forced : Нет

Аудио #3
Идентификатор : 4
Формат : AC-3
Формат/Информация : Audio Coding 3
Параметр Endianness формата : Big
Идентификатор кодека : A_AC3
Продолжительность : 2 ч. 48 м.
Вид битрейта : Постоянный
Битрейт : 448 Кбит/сек
Каналы : 6 каналов
Расположение каналов : Front: L C R, Side: L R, LFE
Частота : 48,0 КГц
Частота кадров : 31,250 кадров/сек (1536 SPF)
Битовая глубина : 16 бит
Метод сжатия : С потерями
Размер потока : 540 Мбайт (12%)
Заголовок : Авторский (одноголосый закадровый) В.Королев
Язык : Russian
ServiceKind/String : Complete Main
Default : Нет
Forced : Нет

Аудио #4
Идентификатор : 5
Формат : AC-3
Формат/Информация : Audio Coding 3
Параметр Endianness формата : Big
Идентификатор кодека : A_AC3
Продолжительность : 2 ч. 48 м.
Вид битрейта : Постоянный
Битрейт : 448 Кбит/сек
Каналы : 6 каналов
Расположение каналов : Front: L C R, Side: L R, LFE
Частота : 48,0 КГц
Частота кадров : 31,250 кадров/сек (1536 SPF)
Битовая глубина : 16 бит
Метод сжатия : С потерями
Размер потока : 540 Мбайт (12%)
Язык : English
ServiceKind/String : Complete Main
Default : Нет
Forced : Нет

Текст #1
Идентификатор : 6
Формат : UTF-8
Идентификатор кодека : S_TEXT/UTF8
Идентификатор кодека/Информация : UTF-8 Plain Text
Продолжительность : 2 ч. 46 м.
Битрейт : 57 бит/сек
ElementCount : 1507
Размер потока : 69,5 Кбайт (0%)
Язык : Russian
Default : Нет
Forced : Нет

Текст #2
Идентификатор : 7
Формат : UTF-8
Идентификатор кодека : S_TEXT/UTF8
Идентификатор кодека/Информация : UTF-8 Plain Text
Продолжительность : 2 ч. 47 м.
Битрейт : 39 бит/сек
ElementCount : 1531
Размер потока : 48,9 Кбайт (0%)
Язык : English
Default : Нет
Forced : Нет

Название: Пираты Карибского моря: На странных берегах
Оригинальное название: Pirates of the Caribbean: On Stranger Tides
Год выпуска: 2011
Страна: США
Жанр: фэнтези, боевик, комедия, приключения
Продолжительность: 2:16:23

Перевод: Профессиональный (полное дублирование) Blu-ray CEE
Оригинальная аудиодорожка: Есть
Субтитры: русские, английские

Режиссёр: Роб Маршалл
Сценарий: Тед Эллиот, Терри Россио, Стюарт Битти
Продюсер: Джерри Брукхаймер, Джон ДеЛюка, Тед Эллиот
Оператор: Дариуш Вольски
Композитор: Ханс Циммер
Художник: Джон Мир, Дрю Боутон, Джон Чичестер
Монтаж: Дэвид Бреннер, Уайатт Смит
В ролях: Джонни Депп, Пенелопа Крус, Джеффри Раш, Иэн МакШейн, Кевин МакНэлли, Стивен Грэм, Сэм Клафлин, Астрид Берже-Фрисби, Джемма Уорд, Кит Ричардс
Роли дублировали: Александр Баргман, Мария Цветкова-Овсянникова, Виктор Костецкий, Юрий Лазарев, Вадим Яковлев

Бюджет: $250 000 000
Сборы в США: $241 071 802
Сборы в мире: + $804 642 000 = $1 045 713 802
Сборы в России: $63 670 033

Мировая премьера: 7 мая 2011
Премьера (РФ): 18 мая 2011, WDSSPR, 3D, imax
Релиз на Blu-Ray: 6 сентября 2011, Уолт Дисней Компани СНГ
Релиз на DVD: 6 сентября 2011, Уолт Дисней Компани СНГ
Описание: В новой истории о поисках истины, предательстве, вечной молодости и смертельной опасности капитану Джеку Воробью предстоит столкнуться с женщиной из своего прошлого Анжеликой. До самого конца не будет понятно, связывает ли их настоящая любовь, или же Анжелика искусно притворяется, чтобы вместе с Джеком добраться до таинственного источника вечной молодости.
Она силой принуждает капитана Джека Воробья взойти на корабль "Месть Королевы Анны", которым управляет коварный злодей Черная Борода. Наш герой оказывается в ситуации, когда он не знает, чего ему бояться больше - ужасного злодея или же свою давнюю подругу.


Файл
Формат: MKV
Качество: BDRip 1080р
Видео: 1920x800, MPEG4/ISO/AVC, High@L4, 23,976 (24000/1001) кадра/сек, ~3135 Кбит/сек
Аудио: 48,0 КГц, AC3 Dolby Digital, 3/2 (L,C,R,l,r) + LFE ch, 448 kbps Профессиональный (полное дублирование) Blu-ray CEE, Оригинальная аудиодорожка: английский
Видео
Идентификатор : 1
Формат : AVC
Формат/Информация : Advanced Video Codec
Профиль формата : High@L4
Настройки формата : CABAC / 5 Ref Frames
Параметр CABAC формата : Да
Параметр RefFrames формата : 5 кадров
Идентификатор кодека : V_MPEG4/ISO/AVC
Продолжительность : 2 ч. 7 м.
Переменный битрейт : 5135 Кбит/сек | 2135 Кбит/сек | 3135 Кбит/сек
Битрейт : 3135 Кбит/сек
Ширина : 1920 пикселей
Высота : 800 пикселей
Соотношение сторон : 2,40:1
Режим частоты кадров : Постоянный
Частота кадров : 23,976 (24000/1001) кадра/сек
Цветовое пространство : YUV
Субдискретизация насыщенности : 4:2:0
Битовая глубина : 8 бит
Тип развёртки : Прогрессивная
Бит/(Пиксели*Кадры) : 0.058
Размер потока : 1,91 Гбайт (69%)
Заголовок : Исходник: Blu-ray Disc | Автор рипа: Есмуханов Данияр Исламбекович | daniyar.esmuhanov
Библиотека кодирования : x264 core 129 r2245 bc13772
Настройки программы : cabac=1 / ref=5 / deblock=1:-1:-1 / analyse=0x3:0x133 / me=umh / subme=9 / psy=1 / psy_rd=1.00:0.15 / mixed_ref=1 / me_range=16 / chroma_me=1 / trellis=2 / 8x8dct=1 / cqm=0 / deadzone=21,11 / fast_pskip=1 / chroma_qp_offset=-3 / threads=12 / lookahead_threads=2 / sliced_threads=0 / nr=0 / decimate=1 / interlaced=0 / bluray_compat=0 / constrained_intra=0 / bframes=3 / b_pyramid=2 / b_adapt=2 / b_bias=0 / direct=3 / weightb=1 / open_gop=0 / weightp=2 / keyint=240 / keyint_min=23 / scenecut=40 / intra_refresh=0 / rc_lookahead=60 / rc=2pass / mbtree=1 / bitrate=3135 / ratetol=1.0 / qcomp=0.60 / qpmin=10 / qpmax=51 / qpstep=4 / cplxblur=20.0 / qblur=0.5 / ip_ratio=1.40 / aq=1:1.00
Язык : English
Default : Да
Forced : Да

Аудио #1
Идентификатор : 2
Формат : AC-3
Формат/Информация : Audio Coding 3
Параметр Endianness формата : Big
Идентификатор кодека : A_AC3
Продолжительность : 2 ч. 16 м.
Вид битрейта : Постоянный
Битрейт : 448 Кбит/сек
Каналы : 6 каналов
Расположение каналов : Front: L C R, Side: L R, LFE
Частота : 48,0 КГц
Частота кадров : 31,250 кадров/сек (1536 SPF)
Битовая глубина : 16 бит
Метод сжатия : С потерями
Размер потока : 437 Мбайт (15%)
Заголовок : Профессиональный (полное дублирование) Blu-ray CEE
Язык : Russian
ServiceKind/String : Complete Main
Default : Да
Forced : Да

Аудио #2
Идентификатор : 3
Формат : AC-3
Формат/Информация : Audio Coding 3
Параметр Endianness формата : Big
Идентификатор кодека : A_AC3
Продолжительность : 2 ч. 16 м.
Вид битрейта : Постоянный
Битрейт : 448 Кбит/сек
Каналы : 6 каналов
Расположение каналов : Front: L C R, Side: L R, LFE
Частота : 48,0 КГц
Частота кадров : 31,250 кадров/сек (1536 SPF)
Битовая глубина : 16 бит
Метод сжатия : С потерями
Размер потока : 437 Мбайт (15%)
Язык : English
ServiceKind/String : Complete Main
Default : Нет
Forced : Нет

Текст #1
Идентификатор : 4
Формат : UTF-8
Идентификатор кодека : S_TEXT/UTF8
Идентификатор кодека/Информация : UTF-8 Plain Text
Продолжительность : 2 ч. 5 м.
Битрейт : 72 бит/сек
ElementCount : 1169
Размер потока : 67,2 Кбайт (0%)
Язык : Russian
Default : Нет
Forced : Нет

Текст #2
Идентификатор : 5
Формат : UTF-8
Идентификатор кодека : S_TEXT/UTF8
Идентификатор кодека/Информация : UTF-8 Plain Text
Продолжительность : 2 ч. 5 м.
Битрейт : 46 бит/сек
ElementCount : 1329
Размер потока : 43,1 Кбайт (0%)
Язык : English
Default : Нет
Forced : Нет

Меню
00:00:00.000 : en:00:00:00.000
00:03:34.172 : en:00:03:34.172
00:08:46.776 : en:00:08:46.776
00:15:56.080 : en:00:15:56.080
00:18:34.155 : en:00:18:34.155
00:21:15.316 : en:00:21:15.316
00:30:05.512 : en:00:30:05.512
00:36:56.756 : en:00:36:56.756
00:42:05.356 : en:00:42:05.356
00:48:20.022 : en:00:48:20.022
00:53:26.078 : en:00:53:26.078
00:55:42.965 : en:00:55:42.965
00:57:52.844 : en:00:57:52.844
01:00:47.477 : en:01:00:47.477
01:08:22.223 : en:01:08:22.223
01:11:41.339 : en:01:11:41.339
01:13:03.170 : en:01:13:03.170
01:14:16.744 : en:01:14:16.744
01:23:19.995 : en:01:23:19.995
01:26:49.621 : en:01:26:49.621
01:30:16.494 : en:01:30:16.494
01:35:43.738 : en:01:35:43.738
01:40:57.927 : en:01:40:57.927
01:43:07.556 : en:01:43:07.556
01:44:51.660 : en:01:44:51.660
01:48:53.610 : en:01:48:53.610
01:57:41.471 : en:01:57:41.471
02:02:21.376 : en:02:02:21.376
02:05:51.461 : en:02:05:51.461
02:07:26.806 : en:02:07:26.806


Название: Пираты Карибского моря: Мертвецы не рассказывают сказки
Оригинальное название: Pirates of the Caribbean: Dead Men Tell No Tales
Год выпуска: 2017
Страна: США
Жанр: Фэнтези, боевик, комедия, приключения
Продолжительность: 02:09:07

Перевод: Профессиональный (полное дублирование) Blu-ray CEE
Оригинальная аудиодорожка: Есть
Cубтитры: русские, английские
Режиссёр: Эспен Сандберг
Сценарий: Джефф Натансон, Терри Россио, Тед Эллиот
Продюсер: Джерри Брукхаймер, Джозеф М. Карачиоло мл., Чад Оман
Оператор: Пол Кэмерон
Композитор: Джеф Дзанелли
Художник: Найджел Фелпс, Джон Декстер, Йен Грейси
Монтаж: Роджер Бартон, Ли Фолсом
В ролях: Джонни Депп, Хавьер Бардем, Джеффри Раш, Брентон Туэйтс, Кая Скоделарио, Кевин МакНэлли, Голшифте Фарахани, Дэвид Уэнэм, Стивен Грэм, Энгус Барнетт

Бюджет: $230 000 000
Сборы в США: $172 453 475
Сборы в мире: + $621 255 576 = $793 709 051
Сборы в России: $39 035 481

Мировая премьера: 11 мая 2017
Премьера (РФ): 25 мая 2017, «WDSSPR»

Релиз на DVD: 19 сентября 2017, «Уолт Дисней Компани СНГ»
Релиз на Blu-Ray: 19 сентября 2017, «Уолт Дисней Компани СНГ»

Описание: Исчерпавший свою удачу капитан Джек Воробей обнаруживает, что за ним охотится его старый неприятель, ужасный капитан Салазар и его призрачные пираты. Они только что сбежали из Дьявольского треугольника и намерены уничтожить всех пиратов, включая Джека. Поможет спастись лишь могущественный артефакт — трезубец Посейдона, который дарует своему обладателю полный контроль над морями.


Файл
Формат: MKV
Качество: BDRip 1080р
Видео: 1920x800, MPEG4/ISO/AVC, High@L4.1, 23,976 (24000/1001) кадра/сек, ~3050 Кбит/сек
Аудио: 48,0 КГц, AC3 Dolby Digital, 3/2 (L,C,R,l,r) + LFE ch, 448 kbps Профессиональный (полное дублирование) Blu-ray CEE, Оригинальная аудиодорожка: английский
Видео
Идентификатор : 1
Формат : AVC
Формат/Информация : Advanced Video Codec
Профиль формата : High@L4.1
Настройки формата : CABAC / 4 Ref Frames
Параметр CABAC формата : Да
Параметр RefFrames формата : 4 кадра
Идентификатор кодека : V_MPEG4/ISO/AVC
Продолжительность : 2 ч. 9 м.
Переменный битрейт : 5050 Кбит/сек | 2050 Кбит/сек | 3050 Кбит/сек
Битрейт : 3050 Кбит/сек
Ширина : 1920 пикселей
Высота : 800 пикселей
Соотношение сторон : 2,40:1
Режим частоты кадров : Постоянный
Частота кадров : 23,976 (24000/1001) кадра/сек
Цветовое пространство : YUV
Субдискретизация насыщенности : 4:2:0
Битовая глубина : 8 бит
Тип развёртки : Прогрессивная
Бит/(Пиксели*Кадры) : 0.056
Размер потока : 1,85 Гбайт (70%)
Заголовок : Исходник: Blu-ray Disc | Автор рипа: Есмуханов Данияр Исламбекович | daniyar.esmuhanov
Библиотека кодирования : x264 core 148
Настройки программы : cabac=1 / ref=4 / deblock=1:-1:-1 / analyse=0x3:0x133 / me=umh / subme=9 / psy=1 / psy_rd=1.00:0.15 / mixed_ref=1 / me_range=24 / chroma_me=1 / trellis=2 / 8x8dct=1 / cqm=0 / deadzone=21,11 / fast_pskip=0 / chroma_qp_offset=-3 / threads=12 / lookahead_threads=1 / sliced_threads=0 / nr=0 / decimate=1 / interlaced=0 / bluray_compat=0 / constrained_intra=0 / bframes=3 / b_pyramid=2 / b_adapt=2 / b_bias=0 / direct=3 / weightb=1 / open_gop=0 / weightp=2 / keyint=250 / keyint_min=23 / scenecut=40 / intra_refresh=0 / rc_lookahead=60 / rc=2pass / mbtree=1 / bitrate=3050 / ratetol=1.0 / qcomp=0.60 / qpmin=0 / qpmax=69 / qpstep=4 / cplxblur=20.0 / qblur=0.5 / vbv_maxrate=31250 / vbv_bufsize=31250 / nal_hrd=none / filler=0 / ip_ratio=1.40 / aq=1:1.00
Язык : English
Default : Да
Forced : Да

Аудио #1
Идентификатор : 2
Формат : AC-3
Формат/Информация : Audio Coding 3
Параметр Endianness формата : Big
Идентификатор кодека : A_AC3
Продолжительность : 2 ч. 9 м.
Вид битрейта : Постоянный
Битрейт : 448 Кбит/сек
Каналы : 6 каналов
Расположение каналов : Front: L C R, Side: L R, LFE
Частота : 48,0 КГц
Частота кадров : 31,250 кадров/сек (1536 SPF)
Битовая глубина : 16 бит
Метод сжатия : С потерями
Размер потока : 414 Мбайт (15%)
Заголовок : Профессиональный (полное дублирование) Blu-ray CEE
Язык : Russian
ServiceKind/String : Complete Main
Default : Да
Forced : Да

Аудио #2
Идентификатор : 3
Формат : AC-3
Формат/Информация : Audio Coding 3
Параметр Endianness формата : Big
Идентификатор кодека : A_AC3
Продолжительность : 2 ч. 9 м.
Вид битрейта : Постоянный
Битрейт : 448 Кбит/сек
Каналы : 6 каналов
Расположение каналов : Front: L C R, Side: L R, LFE
Частота : 48,0 КГц
Частота кадров : 31,250 кадров/сек (1536 SPF)
Битовая глубина : 16 бит
Метод сжатия : С потерями
Размер потока : 414 Мбайт (15%)
Язык : English
ServiceKind/String : Complete Main
Default : Нет
Forced : Нет

Текст #1
Идентификатор : 4
Формат : UTF-8
Идентификатор кодека : S_TEXT/UTF8
Идентификатор кодека/Информация : UTF-8 Plain Text
Продолжительность : 1 ч. 17 м.
Битрейт : 0 бит/сек
ElementCount : 11
Размер потока : 404 байт (0%)
Заголовок : Форсированные
Язык : Russian
Default : Да
Forced : Да

Текст #2
Идентификатор : 5
Формат : UTF-8
Идентификатор кодека : S_TEXT/UTF8
Идентификатор кодека/Информация : UTF-8 Plain Text
Продолжительность : 1 ч. 59 м.
Битрейт : 72 бит/сек
ElementCount : 1318
Размер потока : 62,9 Кбайт (0%)
Язык : Russian
Default : Нет
Forced : Нет

Текст #3
Идентификатор : 6
Формат : UTF-8
Идентификатор кодека : S_TEXT/UTF8
Идентификатор кодека/Информация : UTF-8 Plain Text
Продолжительность : 1 ч. 55 м.
Битрейт : 45 бит/сек
ElementCount : 1435
Размер потока : 38,2 Кбайт (0%)
Язык : English
Default : Нет
Forced : Нет

Текст #4
Идентификатор : 7
Формат : UTF-8
Идентификатор кодека : S_TEXT/UTF8
Идентификатор кодека/Информация : UTF-8 Plain Text
Продолжительность : 2 ч. 7 м.
Битрейт : 48 бит/сек
ElementCount : 1772
Размер потока : 45,8 Кбайт (0%)
Язык : English
Default : Нет
Forced : Нет

Меню
00:00:00.000 : en:00:00:00.000
00:05:49.516 : en:00:05:49.516
00:08:34.222 : en:00:08:34.222
00:13:40.820 : en:00:13:40.820
00:16:29.155 : en:00:16:29.155
00:22:33.852 : en:00:22:33.852
00:25:19.268 : en:00:25:19.268
00:28:06.101 : en:00:28:06.101
00:31:41.775 : en:00:31:41.775
00:33:44.814 : en:00:33:44.814
00:37:02.053 : en:00:37:02.053
00:42:27.712 : en:00:42:27.712
00:49:09.071 : en:00:49:09.071
00:54:00.279 : en:00:54:00.279
00:57:19.394 : en:00:57:19.394
01:00:38.718 : en:01:00:38.718
01:08:29.939 : en:01:08:29.939
01:11:57.021 : en:01:11:57.021
01:16:50.940 : en:01:16:50.940
01:19:27.471 : en:01:19:27.471
01:25:04.808 : en:01:25:04.808
01:27:42.174 : en:01:27:42.174
01:31:43.790 : en:01:31:43.790
01:38:22.814 : en:01:38:22.814
01:42:36.776 : en:01:42:36.776
01:47:23.562 : en:01:47:23.562
01:52:58.689 : en:01:52:58.689
01:59:09.934 : en:01:59:09.934

Rip by Есмуханов Данияр Исламбекович | daniyar.esmuhanov
Как качать, Как раздавать - Правила и инструкции
Торрент04 дек 2017, 20:38 [ 04 дек 2017, 20:38 ]

СКАЧАТЬ с просмотром рекламы
СтатусПроверен Download more
.torrent скачан357 раз
Размер18.42 ГБ (19 781 840 757)
Раздаю свой рипы со скоростью отдачи 100 кБ/с - Скачал сам?! Дай скачать другим, не уходи с раздачи!!!

"Не уходи со злостью на душе, не отворачивайся с ненавистью в сердце".

-=SxS=-

Аватара пользователя
Администратор
Администратор
 

Сообщения: 866

Зарегистрирован: 27 июн 2014, 11:51

Откуда: Москва

Награды: 22
За 100 сообщений (1) За 500 сообщений (1) За 1000 сообщений (1) 5 Тб отданного (1) Размер созданных раздач 3 Тб (1) Размер созданных раздач 5 Тб (1) 250 релизов (1) 500 релизов (1) За новинки игр (1) За новинки Softa (1) За 2000 полученных спасибо (1) За 4000 полученных спасибо (1) За 8000 полученных спасибо (1) За 10000 полученных спасибо (1) 50 Repack'ов (1) 100 Repack'ов (1) 200 Repack'ов (1) 300 Repack'ов (1) 200 кармы (1) 500 кармы (1) 1000 кармы (1) Халява №3 (1)
Карма: 1672
-2--2--2--2--2--2--2--2--2-

Сообщение -=SxS=-» 04 дек 2017, 20:42

Спасибо, отличная раздача, заберу в коллекцию!!!

Download more

Аватара пользователя
Модератор Фильмов
Модератор Фильмов
 

Сообщения: 788

Зарегистрирован: 19 ноя 2016, 16:36

Откуда: г. Астана, Казахстан Encoded by daniyar.esmuhanov

Награды: 17
За 100 сообщений (1) За 500 сообщений (1) 5 Тб отданного (1) 10 Тб отданного (1) 15 Тб отданного (1) 20 Тб отданного (1) 30 Тб отданного (1) 10 Тб скаченного (1) 250 релизов (1) 500 релизов (1) За 2000 полученных спасибо (1) За 4000 полученных спасибо (1) 30 рипов (1) 50 рипов (1) 200 кармы (1) 500 кармы (1) Халява №3 (1)
Карма: 842
-2--2--2--2--2-

Сообщение Download more» 04 дек 2017, 20:47

-=SxS=- писал(а):

Спасибо, отличная раздача, заберу в коллекцию!!!

Пожалуйста!
Раздаю свой рипы со скоростью отдачи 100 кБ/с - Скачал сам?! Дай скачать другим, не уходи с раздачи!!!

"Не уходи со злостью на душе, не отворачивайся с ненавистью в сердце".

Download more

Аватара пользователя
Модератор Фильмов
Модератор Фильмов
 

Сообщения: 788

Зарегистрирован: 19 ноя 2016, 16:36

Откуда: г. Астана, Казахстан Encoded by daniyar.esmuhanov

Награды: 17
За 100 сообщений (1) За 500 сообщений (1) 5 Тб отданного (1) 10 Тб отданного (1) 15 Тб отданного (1) 20 Тб отданного (1) 30 Тб отданного (1) 10 Тб скаченного (1) 250 релизов (1) 500 релизов (1) За 2000 полученных спасибо (1) За 4000 полученных спасибо (1) 30 рипов (1) 50 рипов (1) 200 кармы (1) 500 кармы (1) Халява №3 (1)
Карма: 842
-2--2--2--2--2-

Сообщение Download more» 04 дек 2017, 20:47
















































Раздаю свой рипы со скоростью отдачи 100 кБ/с - Скачал сам?! Дай скачать другим, не уходи с раздачи!!!

"Не уходи со злостью на душе, не отворачивайся с ненавистью в сердце".

honey2fm


Новичок
Новичок
 

Сообщения: 30

Зарегистрирован: 12 фев 2011, 20:11

Карма: -20

Сообщение honey2fm» 04 дек 2017, 22:49

Однозначно в коллекцию.... Спасибо *круто


Вернуться в Зарубежные фильмы после 2000го года...



Кто сейчас на конференции

Сейчас этот форум просматривают: i4e

Ресурс не предоставляет электронные версии произведений, а занимается лишь коллекционированием и каталогизацией ссылок, присылаемых и публикуемых на форуме нашими читателями. Если вы являетесь правообладателем какого-либо представленного материала и не желаете чтобы ссылка на него находилась в нашем каталоге, свяжитесь с нами и мы незамедлительно удалим её. Файлы для обмена на трекере предоставлены пользователями сайта, и администрация не несёт ответственности за их содержание. Просьба не заливать файлы, защищенные авторскими правами, а также файлы нелегального содержания!