Полтергейст / Poltergeist [1982-2015, ужасы, триллер, BDRip 1080р] D, Р, Р2, А | Коллекция - Скачать торрент бесплатно

Модераторы: Модераторы Фильмы, мультфильмы, Союз Риперов

Поделиться ВКонтакте Поделиться Facebook Поделиться Twitter Поделиться Mail.RU
АвторСообщение
Download more
Аватара пользователя
Модератор Фильмов
Модератор Фильмов
 
Раздал: 24.07 ТБ
Скачал: 9.8 ТБ
Ратио: 139.303
Сообщения: 633
Зарегистрирован: 19 ноя 2016, 16:36
Откуда: г. Астана, Казахстан Encoded by daniyar.esmuhanov
Награды: 14
За 100 сообщений (1) За 500 сообщений (1) 5 Тб отданного (1) 10 Тб отданного (1) 15 Тб отданного (1) 20 Тб отданного (1) 250 релизов (1) За 2000 полученных спасибо (1) За 4000 полученных спасибо (1) 30 рипов (1) 50 рипов (1) 200 кармы (1) 500 кармы (1) Халява №3 (1)
Карма: 608
-2--2--2--2-

Сообщение Download more » 18 фев 2018, 20:54

Полтергейст / Poltergeist [1982-2015, ужасы, триллер, BDRip 1080р] D, Р, Р2, А | Коллекция - Скачать торрент

Название: Полтергейст
Оригинальное название: /Poltergeist
Дата выхода: 1982
Жанр:ужасы, триллер
Страна:США
Субтитры: русские, английские
Перевод: Профессиональный (многоголосый закадровый), Авторский (одноголосый закадровый)
Продолжительность:01:54:28
Режиссёр:Тоуб Хупер, Стивен Спилберг
В ролях:Крэйг Т. Нельсон, ДжоБет Уильямс, Хезер О'Рурк, Беатрис Стрэйт, Оливер Робинс, Вирджиния Кисер, Доминик Данн, Ричард Лоусон, Зелда Рубинстайн, Лу Перри, Джеймс Карен, Дирк Блокер, Мартин Каселла, Аллен Граф, Джозеф Уолш, Хелен Барон
Описание: Они здесь… Сначала они кажутся призрачными, играя в прятки в загородном доме Фрилингов. Но затем становится по-настоящему страшно! Тучи сгущаются, ожившие деревья нападают, а малютку Кэрол Энн Фрилинг засасывает в спектральную пустоту. И пока ее семья борется с вереницей кошмаров и пытается спасти девочку, по соседству, где-то рядом затаилось нечто…



Качество: BDRip 1080р
Формат файла: MKV
Видео: 1918x798, MPEG4/AVC, High@L4, 23,976 (24000/1001) кадра/сек, ~3032 Кбит/сек
Аудио: 48,0 КГц, AC3 Dolby Digital, 3/2 (L,C,R,l,r) + LFE ch, 448 kbps Профессиональный (многоголосый закадровый) Blu-ray CEE
Аудио: 48,0 КГц, AC3 Dolby Digital, 3/2 (L,C,R,l,r) + LFE ch, 448 kbps Авторский (одноголосый закадровый) А.Михалев
Аудио: 48,0 КГц, AC3 Dolby Digital, 2 ch, 192 kbps Профессиональный (многоголосый закадровый) Россия
Аудио: 48,0 КГц, AC3 Dolby Digital, 3/2 (L,C,R,l,r) + LFE ch, 448 kbps Оригинальная аудиодорожка: английский
Общее
Уникальный идентификатор : 204784942565958954987340612497867484863 (0x9A102532B10284F6B166FE4D223F2EBF)
Полное имя : D:\Данияр\Раздача\Poltergeist Collection.daniyar.esmuhanov\Полтергейст (ужасы, фэнтези) 1982.mkv
Формат : Matroska
Версия формата : Version 4 / Version 2
Размер файла : 2,85 Гбайт
Продолжительность : 1 ч. 54 м.
Название фильма : Исходник: Blu-ray Disc | Автор рипа: Есмуханов Данияр Исламбекович | daniyar.esmuhanov
Программа кодирования : mkvmerge v8.3.0 ('Over the Horizon') 64bit
Библиотека кодирования : libebml v1.3.1 + libmatroska v1.4.2

Видео
Идентификатор : 1
Формат : AVC
Формат/Информация : Advanced Video Codec
Профиль формата : High@L4
Настройки формата : CABAC / 5 Ref Frames
Параметр CABAC формата : Да
Параметр RefFrames формата : 5 кадров
Идентификатор кодека : V_MPEG4/ISO/AVC
Продолжительность : 1 ч. 54 м.
Максимальный битрейт : 62,5 Мбит/сек
Вид битрейта : Переменный
Переменный битрейт : 5032 Кбит/сек | 2032 Кбит/сек | 3032 Кбит/сек
Битрейт : 3032 Кбит/сек
Ширина : 1918 пикселей
Высота : 798 пикселей
Соотношение сторон : 2,40:1
Режим частоты кадров : Постоянный
Частота кадров : 23,976 (24000/1001) кадра/сек
Цветовое пространство : YUV
Субдискретизация насыщенности : 4:2:0
Битовая глубина : 8 бит
Тип развёртки : Прогрессивная
Бит/(Пиксели*Кадры) : 0.055
Размер потока : 1,62 Гбайт (57%)
Заголовок : Исходник: Blu-ray Disc | Автор рипа: Есмуханов Данияр Исламбекович | daniyar.esmuhanov
Библиотека кодирования : x264 core 125 r2200 999b753
Настройки программы : cabac=1 / ref=5 / deblock=1:0:0 / analyse=0x3:0x113 / me=hex / subme=7 / psy=1 / psy_rd=1.00:0.00 / mixed_ref=1 / me_range=16 / chroma_me=1 / trellis=1 / 8x8dct=1 / cqm=0 / deadzone=21,11 / fast_pskip=1 / chroma_qp_offset=-2 / threads=6 / lookahead_threads=1 / sliced_threads=0 / nr=0 / decimate=1 / interlaced=0 / bluray_compat=0 / constrained_intra=0 / bframes=8 / b_pyramid=2 / b_adapt=1 / b_bias=0 / direct=1 / weightb=1 / open_gop=0 / weightp=2 / keyint=240 / keyint_min=23 / scenecut=40 / intra_refresh=0 / rc_lookahead=40 / rc=2pass / mbtree=1 / bitrate=3032 / ratetol=1.0 / qcomp=0.60 / qpmin=10 / qpmax=51 / qpstep=4 / cplxblur=20.0 / qblur=0.5 / ip_ratio=1.40 / aq=1:1.00
Язык : English
Default : Да
Forced : Да

Аудио #1
Идентификатор : 2
Формат : AC-3
Формат/Информация : Audio Coding 3
Параметр Endianness формата : Big
Идентификатор кодека : A_AC3
Продолжительность : 1 ч. 54 м.
Вид битрейта : Постоянный
Битрейт : 448 Кбит/сек
Каналы : 6 каналов
Расположение каналов : Front: L C R, Side: L R, LFE
Частота : 48,0 КГц
Частота кадров : 31,250 кадров/сек (1536 SPF)
Битовая глубина : 16 бит
Метод сжатия : С потерями
Размер потока : 367 Мбайт (13%)
Заголовок : Профессиональный (многоголосый закадровый) Blu-ray CEE
Язык : Russian
ServiceKind/String : Complete Main
Default : Да
Forced : Да

Аудио #2
Идентификатор : 3
Формат : AC-3
Формат/Информация : Audio Coding 3
Параметр Endianness формата : Big
Идентификатор кодека : A_AC3
Продолжительность : 1 ч. 54 м.
Вид битрейта : Постоянный
Битрейт : 448 Кбит/сек
Каналы : 6 каналов
Расположение каналов : Front: L C R, Side: L R, LFE
Частота : 48,0 КГц
Частота кадров : 31,250 кадров/сек (1536 SPF)
Битовая глубина : 16 бит
Метод сжатия : С потерями
Размер потока : 367 Мбайт (13%)
Заголовок : Авторский (одноголосый закадровый) А.Михалев
Язык : Russian
ServiceKind/String : Complete Main
Default : Нет
Forced : Нет

Аудио #3
Идентификатор : 4
Формат : AC-3
Формат/Информация : Audio Coding 3
Параметр Endianness формата : Big
Идентификатор кодека : A_AC3
Продолжительность : 1 ч. 54 м.
Вид битрейта : Постоянный
Битрейт : 192 Кбит/сек
Каналы : 2 канала
Расположение каналов : Front: L R
Частота : 48,0 КГц
Частота кадров : 31,250 кадров/сек (1536 SPF)
Битовая глубина : 16 бит
Метод сжатия : С потерями
Размер потока : 157 Мбайт (5%)
Заголовок : Профессиональный (многоголосый закадровый) Россия
Язык : Russian
ServiceKind/String : Complete Main
Default : Нет
Forced : Нет

Аудио #4
Идентификатор : 5
Формат : AC-3
Формат/Информация : Audio Coding 3
Параметр Endianness формата : Big
Идентификатор кодека : A_AC3
Продолжительность : 1 ч. 54 м.
Вид битрейта : Постоянный
Битрейт : 448 Кбит/сек
Каналы : 6 каналов
Расположение каналов : Front: L C R, Side: L R, LFE
Частота : 48,0 КГц
Частота кадров : 31,250 кадров/сек (1536 SPF)
Битовая глубина : 16 бит
Метод сжатия : С потерями
Размер потока : 367 Мбайт (13%)
Язык : English
ServiceKind/String : Complete Main
Default : Нет
Forced : Нет

Текст #1
Идентификатор : 6
Формат : UTF-8
Идентификатор кодека : S_TEXT/UTF8
Идентификатор кодека/Информация : UTF-8 Plain Text
Продолжительность : 1 ч. 44 м.
Битрейт : 74 бит/сек
ElementCount : 1098
Размер потока : 57,3 Кбайт (0%)
Язык : Russian
Default : Нет
Forced : Нет

Текст #2
Идентификатор : 7
Формат : UTF-8
Идентификатор кодека : S_TEXT/UTF8
Идентификатор кодека/Информация : UTF-8 Plain Text
Продолжительность : 1 ч. 53 м.
Битрейт : 47 бит/сек
ElementCount : 1289
Размер потока : 39,7 Кбайт (0%)
Язык : English
Default : Нет
Forced : Нет

Меню
00:00:00.000 : en:Chapter 01
00:05:00.000 : en:Chapter 02
00:10:00.000 : en:Chapter 03
00:15:00.000 : en:Chapter 04
00:20:00.000 : en:Chapter 05
00:25:00.000 : en:Chapter 06
00:30:00.000 : en:Chapter 07
00:35:00.000 : en:Chapter 08
00:40:00.000 : en:Chapter 09
00:45:00.000 : en:Chapter 10
00:50:00.000 : en:Chapter 11
00:55:00.000 : en:Chapter 12
01:00:00.000 : en:Chapter 13
01:05:00.000 : en:Chapter 14
01:10:00.000 : en:Chapter 15
01:15:00.000 : en:Chapter 16
01:20:00.000 : en:Chapter 17
01:25:00.000 : en:Chapter 18
01:30:00.000 : en:Chapter 19
01:35:00.000 : en:Chapter 20
01:40:00.000 : en:Chapter 21
01:45:00.000 : en:Chapter 22
01:50:00.000 : en:Chapter 23







Название: Полтергейст 2: Обратная сторона
Оригинальное название: /Poltergeist II: The Other Side
Дата выхода:1986
Жанр:ужасы
Страна:США
Субтитры:английские
Перевод:Профессиональный (двухголосый закадровый)
Продолжительность:01:30:38
Режиссёр:Брайан Гибсон
В ролях:ДжоБет Уильямс, Крэйг Т. Нельсон, Хезер О'Рурк, Оливер Робинс, Зельда Рубинштейн, Уилл Сэмпсон, Джулиан Бек, Джеральдин Фицджералд, John P. Whitecloud, Ноубл Крэйг
Описание:Семья Фриллингов переселяется в новый дом после того, каких прежняя резиденция в Коста — Верде была взорвана непрошенными гостями из потустороннего мира. Однако духи умерших не оставляют своих намерений заполучить Кэрол Энн, ясновидящую дочь Фриллингов.

Под предводительством Кейна, демона в обличье проповедника, злобные привидения пытаются лестью заманить Кэрол Энн на «другую сторону».

Но, когда хитрость Кейна не удается, он обрушивает всю адскую ярость Полтергейста на Фриллингов. Они обращаются за помощью к шаманам, медиумам и знахарям, но, в конечном счете, находят настоящую опору друг в друге…



Качество: BDRip 1080р
Формат файла: MKV
Видео: 1920x816, MPEG4/AVC, High@L4.1, 23,976 (24000/1001) кадра/сек, ~3864 Кбит/сек
Аудио: 48,0 КГц, AC3 Dolby Digital, 2 ch, 192 kbps Профессиональный (двухголосый закадровый) HTB+
Аудио: 48,0 КГц, AC3 Dolby Digital, 3/2 (L,C,R,l,r) + LFE ch, 448 kbps Оригинальная аудиодорожка: английский
Общее
Уникальный идентификатор : 192523856152223847489106433682212232464 (0x90D6BEF70DDB820299A587920CC99D10)
Полное имя : D:\Данияр\Раздача\Poltergeist Collection.daniyar.esmuhanov\Полтергейст 2 Обратная сторона (ужасы) 1986.mkv
Формат : Matroska
Версия формата : Version 4 / Version 2
Размер файла : 1,59 Гбайт
Продолжительность : 1 ч. 30 м.
Название фильма : Исходник: Blu-ray Disc | Автор рипа: Есмуханов Данияр Исламбекович | daniyar.esmuhanov
Программа кодирования : mkvmerge v8.3.0 ('Over the Horizon') 64bit
Библиотека кодирования : libebml v1.3.1 + libmatroska v1.4.2

Видео
Идентификатор : 1
Формат : AVC
Формат/Информация : Advanced Video Codec
Профиль формата : High@L4.1
Настройки формата : CABAC / 4 Ref Frames
Параметр CABAC формата : Да
Параметр RefFrames формата : 4 кадра
Идентификатор кодека : V_MPEG4/ISO/AVC
Продолжительность : 1 ч. 30 м.
Максимальный битрейт : 62,5 Мбит/сек
Вид битрейта : Переменный
Переменный битрейт : 5864 Кбит/сек | 1864 Кбит/сек | 3864 Кбит/сек
Битрейт : 3864 Кбит/сек
Ширина : 1920 пикселей
Высота : 816 пикселей
Соотношение сторон : 2,35:1
Режим частоты кадров : Постоянный
Частота кадров : 23,976 (24000/1001) кадра/сек
Частота кадров в оригинале : 23,976 (23976/1000) кадра/сек
Цветовое пространство : YUV
Субдискретизация насыщенности : 4:2:0
Битовая глубина : 8 бит
Тип развёртки : Прогрессивная
Бит/(Пиксели*Кадры) : 0.050
Размер потока : 1,18 Гбайт (74%)
Заголовок : Исходник: Blu-ray Disc | Автор рипа: Есмуханов Данияр Исламбекович | daniyar.esmuhanov
Библиотека кодирования : x264 core 123 r2189 35cf912
Настройки программы : cabac=1 / ref=4 / deblock=1:-1:-1 / analyse=0x3:0x133 / me=umh / subme=9 / psy=1 / psy_rd=1.00:0.15 / mixed_ref=1 / me_range=24 / chroma_me=1 / trellis=2 / 8x8dct=1 / cqm=0 / deadzone=21,11 / fast_pskip=0 / chroma_qp_offset=-3 / threads=48 / sliced_threads=0 / nr=0 / decimate=1 / interlaced=0 / bluray_compat=0 / constrained_intra=0 / bframes=3 / b_pyramid=2 / b_adapt=2 / b_bias=0 / direct=3 / weightb=1 / open_gop=0 / weightp=2 / keyint=250 / keyint_min=23 / scenecut=40 / intra_refresh=0 / rc_lookahead=60 / rc=2pass / mbtree=1 / bitrate=3864 / ratetol=1.0 / qcomp=0.60 / qpmin=0 / qpmax=69 / qpstep=4 / cplxblur=20.0 / qblur=0.5 / vbv_maxrate=31250 / vbv_bufsize=31250 / nal_hrd=none / ip_ratio=1.40 / aq=1:1.00
Язык : English
Default : Да
Forced : Да
Цветовой диапазон : Limited
Основные цвета : BT.709
Коэффициенты матрицы : BT.709

Аудио #1
Идентификатор : 2
Формат : AC-3
Формат/Информация : Audio Coding 3
Параметр Endianness формата : Big
Идентификатор кодека : A_AC3
Продолжительность : 1 ч. 30 м.
Вид битрейта : Постоянный
Битрейт : 192 Кбит/сек
Каналы : 2 канала
Расположение каналов : Front: L R
Частота : 48,0 КГц
Частота кадров : 31,250 кадров/сек (1536 SPF)
Битовая глубина : 16 бит
Метод сжатия : С потерями
Размер потока : 125 Мбайт (8%)
Заголовок : Профессиональный (двухголосый закадровый) HTB+
Язык : Russian
ServiceKind/String : Complete Main
Default : Да
Forced : Да

Аудио #2
Идентификатор : 3
Формат : AC-3
Формат/Информация : Audio Coding 3
Параметр Endianness формата : Big
Идентификатор кодека : A_AC3
Продолжительность : 1 ч. 30 м.
Вид битрейта : Постоянный
Битрейт : 448 Кбит/сек
Каналы : 6 каналов
Расположение каналов : Front: L C R, Side: L R, LFE
Частота : 48,0 КГц
Частота кадров : 31,250 кадров/сек (1536 SPF)
Битовая глубина : 16 бит
Метод сжатия : С потерями
Размер потока : 291 Мбайт (18%)
Язык : English
ServiceKind/String : Complete Main
Default : Нет
Forced : Нет

Текст
Идентификатор : 4
Формат : UTF-8
Идентификатор кодека : S_TEXT/UTF8
Идентификатор кодека/Информация : UTF-8 Plain Text
Продолжительность : 1 ч. 29 м.
Битрейт : 47 бит/сек
ElementCount : 1229
Размер потока : 31,2 Кбайт (0%)
Язык : English
Default : Нет
Forced : Нет

Меню
00:00:00.000 : en:00:00:00.000
00:06:23.133 : en:00:06:23.133
00:11:31.858 : en:00:11:31.858
00:16:53.554 : en:00:16:53.554
00:21:41.258 : en:00:21:41.258
00:25:56.138 : en:00:25:56.138
00:32:54.097 : en:00:32:54.097
00:36:56.172 : en:00:36:56.172
00:44:05.142 : en:00:44:05.142
00:47:28.846 : en:00:47:28.846
00:53:26.995 : en:00:53:26.995
00:57:54.888 : en:00:57:54.888
01:03:10.328 : en:01:03:10.328
01:08:07.834 : en:01:08:07.834
01:13:59.769 : en:01:13:59.769
01:19:58.419 : en:01:19:58.419







Название: Полтергейст 3
Оригинальное название: /Poltergeist III
Дата выхода:1988
Жанр:ужасы, триллер
Страна:США
Субтитры:английские
Перевод: Профессиональный (многоголосый закадровый)
Продолжительность:01:37:44
Режиссёр:Гари Шерман
В ролях: Том Скеррит, Нэнси Аллен, Хезер О'Рурк, Зельда Рубинштейн, Лара Флинн Бойл, Kipley Wentz, Ричард Файр, Натан Дэвис, Роджер Май, Пол Грэхэм
Описание:Чтобы обмануть злых духов, родители юной Кэрол Энн Фрилинг решили спрятать ее у родственников, которые живут на сто каком-то этаже в одном из небоскребов Чикаго. Дядя и тетя девочки (Брюс и Патрисия Гарднеры), а также их собственная дочь-старшеклассница Донна заботятся о Кэрол Энн, как о родной, но они не в силах предотвратить неизбежное.

Проповедник Генри Кэйн, слегка изменивший свою внешность, разыскал малышку, — теперь он жаждет отомстить за поражение, которое было нанесено ему и его приспешникам в Аризоне…



Качество: BDRip 1080р
Формат файла: MKV
Видео: 1920x1040, MPEG4/AVC, High@L4, 23,976 (24000/1001) кадра/сек, ~3964 Кбит/сек
Аудио: 48,0 КГц, AC3 Dolby Digital, 2 ch, 192 kbps Профессиональный (многоголосый закадровый) РЕН ТВ
Аудио: 48,0 КГц, AC3 Dolby Digital, 3/2 (L,C,R,l,r) + LFE ch, 448 kbps Оригинальная аудиодорожка: английский
Общее
Уникальный идентификатор : 201035509207305359132419274630287841642 (0x973E07DC65C0AE9B95C8AE373493D96A)
Полное имя : D:\Данияр\Раздача\Poltergeist Collection.daniyar.esmuhanov\Полтергейст 3 (ужасы, триллер) 1988.mkv
Формат : Matroska
Версия формата : Version 4 / Version 2
Размер файла : 1,78 Гбайт
Продолжительность : 1 ч. 37 м.
Название фильма : Исходник: Blu-ray Disc | Автор рипа: Есмуханов Данияр Исламбекович | daniyar.esmuhanov
Программа кодирования : mkvmerge v8.3.0 ('Over the Horizon') 64bit
Библиотека кодирования : libebml v1.3.1 + libmatroska v1.4.2

Видео
Идентификатор : 1
Формат : AVC
Формат/Информация : Advanced Video Codec
Профиль формата : High@L4
Настройки формата : CABAC / 4 Ref Frames
Параметр CABAC формата : Да
Параметр RefFrames формата : 4 кадра
Идентификатор кодека : V_MPEG4/ISO/AVC
Продолжительность : 1 ч. 37 м.
Максимальный битрейт : 62,5 Мбит/сек
Вид битрейта : Переменный
Переменный битрейт : 5964 Кбит/сек | 1964 Кбит/сек | 3964 Кбит/сек
Битрейт : 3964 Кбит/сек
Ширина : 1920 пикселей
Высота : 1040 пикселей
Соотношение сторон : 1,85:1
Режим частоты кадров : Постоянный
Частота кадров : 23,976 (24000/1001) кадра/сек
Цветовое пространство : YUV
Субдискретизация насыщенности : 4:2:0
Битовая глубина : 8 бит
Тип развёртки : Прогрессивная
Бит/(Пиксели*Кадры) : 0.041
Размер потока : 1,34 Гбайт (75%)
Заголовок : Исходник: Blu-ray Disc | Автор рипа: Есмуханов Данияр Исламбекович | daniyar.esmuhanov
Библиотека кодирования : x264 core 133 r2334 a3ac64b
Настройки программы : cabac=1 / ref=3 / deblock=1:0:0 / analyse=0x3:0x113 / me=hex / subme=7 / psy=1 / psy_rd=1.00:0.00 / mixed_ref=1 / me_range=16 / chroma_me=1 / trellis=1 / 8x8dct=1 / cqm=0 / deadzone=21,11 / fast_pskip=1 / chroma_qp_offset=-2 / threads=12 / lookahead_threads=2 / sliced_threads=0 / nr=0 / decimate=1 / interlaced=0 / bluray_compat=0 / constrained_intra=0 / bframes=4 / b_pyramid=2 / b_adapt=1 / b_bias=0 / direct=1 / weightb=1 / open_gop=0 / weightp=2 / keyint=240 / keyint_min=23 / scenecut=40 / intra_refresh=0 / rc_lookahead=40 / rc=2pass / mbtree=1 / bitrate=3964 / ratetol=1.0 / qcomp=0.60 / qpmin=0 / qpmax=69 / qpstep=4 / cplxblur=20.0 / qblur=0.5 / vbv_maxrate=25000 / vbv_bufsize=31250 / nal_hrd=none / ip_ratio=1.40 / aq=1:1.00
Язык : English
Default : Да
Forced : Да

Аудио #1
Идентификатор : 2
Формат : AC-3
Формат/Информация : Audio Coding 3
Параметр Endianness формата : Big
Идентификатор кодека : A_AC3
Продолжительность : 1 ч. 37 м.
Вид битрейта : Постоянный
Битрейт : 192 Кбит/сек
Каналы : 2 канала
Расположение каналов : Front: L R
Частота : 48,0 КГц
Частота кадров : 31,250 кадров/сек (1536 SPF)
Битовая глубина : 16 бит
Метод сжатия : С потерями
Размер потока : 134 Мбайт (7%)
Заголовок : Профессиональный (многоголосый закадровый) РЕН ТВ
Язык : Russian
ServiceKind/String : Complete Main
Default : Да
Forced : Да

Аудио #2
Идентификатор : 3
Формат : AC-3
Формат/Информация : Audio Coding 3
Параметр Endianness формата : Big
Идентификатор кодека : A_AC3
Продолжительность : 1 ч. 37 м.
Вид битрейта : Постоянный
Битрейт : 448 Кбит/сек
Каналы : 6 каналов
Расположение каналов : Front: L C R, Side: L R, LFE
Частота : 48,0 КГц
Частота кадров : 31,250 кадров/сек (1536 SPF)
Битовая глубина : 16 бит
Метод сжатия : С потерями
Размер потока : 313 Мбайт (17%)
Язык : English
ServiceKind/String : Complete Main
Default : Нет
Forced : Нет

Текст #1
Идентификатор : 4
Формат : UTF-8
Идентификатор кодека : S_TEXT/UTF8
Идентификатор кодека/Информация : UTF-8 Plain Text
Продолжительность : 1 ч. 32 м.
Битрейт : 52 бит/сек
ElementCount : 1358
Размер потока : 35,6 Кбайт (0%)
Язык : English
Default : Нет
Forced : Нет

Текст #2
Идентификатор : 5
Формат : UTF-8
Идентификатор кодека : S_TEXT/UTF8
Идентификатор кодека/Информация : UTF-8 Plain Text
Продолжительность : 1 ч. 31 м.
Битрейт : 47 бит/сек
ElementCount : 1169
Размер потока : 31,6 Кбайт (0%)
Язык : English
Default : Нет
Forced : Нет

Меню
00:00:00.000 : en:00:00:00.000
00:06:36.896 : en:00:06:36.896
00:11:57.091 : en:00:11:57.091
00:19:11.650 : en:00:19:11.650
00:24:48.946 : en:00:24:48.946
00:30:31.246 : en:00:30:31.246
00:34:28.775 : en:00:34:28.775
00:41:27.568 : en:00:41:27.568
00:46:11.394 : en:00:46:11.394
00:52:10.169 : en:00:52:10.169
00:57:58.141 : en:00:57:58.141
01:04:52.180 : en:01:04:52.180
01:10:03.408 : en:01:10:03.408
01:14:33.302 : en:01:14:33.302
01:21:29.468 : en:01:21:29.468
01:28:17.792 : en:01:28:17.792







Название: Полтергейст
Оригинальное название: /Poltergeist
Дата выхода:2015
Жанр:ужасы, триллер
Страна:США
Субтитры: русские, английские
Перевод:Профессиональный (полное дублирование)
Продолжительность:01:40:53
Режиссёр:Гил Кинан
В ролях: Сэм Рокуэлл, Розмари ДеУитт, Саксон Шарбино, Кайл Кэтлетт, Кеннеди Клементс, Джаред Харрис, Джейн Адамс, Сьюзэн Хэйард, Николас Браун, Карен Ивани
Описание:Семья переезжает в новый дом, где много странностей — статическое электричество, предметы перемещаются сами, электроприборы ведут себя странно, и младшая дочь постоянно с кем-то разговаривает.


Качество: BDRip 1080р
Формат файла: MKV
Видео: 1920x800, MPEG4/AVC, High@L4.1, 23,976 (24000/1001) кадра/сек, ~3957 Кбит/сек
Аудио: 48,0 КГц, AC3 Dolby Digital, 3/2 (L,C,R,l,r) + LFE ch, 448 kbps Профессиональный (полное дублирование) Blu-ray CEE
Аудио: 48,0 КГц, AC3 Dolby Digital, 3/2 (L,C,R,l,r) + LFE ch, 448 kbps Оригинальная аудиодорожка: английский
Общее
Уникальный идентификатор : 249756119813669894458083680675220395713 (0xBBE5476C2BD2D5E29FFAF3F0A9BB96C1)
Полное имя : D:\Данияр\Раздача\Poltergeist Collection.daniyar.esmuhanov\Полтергейст (ужасы, триллер) 2015.mkv
Формат : Matroska
Версия формата : Version 4 / Version 2
Размер файла : 2,01 Гбайт
Продолжительность : 1 ч. 40 м.
Название фильма : Исходник: Blu-ray Disc | Автор рипа: Есмуханов Данияр Исламбекович | daniyar.esmuhanov
Программа кодирования : mkvmerge v8.3.0 ('Over the Horizon') 64bit
Библиотека кодирования : libebml v1.3.1 + libmatroska v1.4.2

Видео
Идентификатор : 1
Формат : AVC
Формат/Информация : Advanced Video Codec
Профиль формата : High@L4.1
Настройки формата : CABAC / 4 Ref Frames
Параметр CABAC формата : Да
Параметр RefFrames формата : 4 кадра
Идентификатор кодека : V_MPEG4/ISO/AVC
Продолжительность : 1 ч. 40 м.
Максимальный битрейт : 62,5 Мбит/сек
Вид битрейта : Переменный
Переменный битрейт : 5957 Кбит/сек | 1957 Кбит/сек | 3957 Кбит/сек
Битрейт : 3957 Кбит/сек
Ширина : 1920 пикселей
Высота : 800 пикселей
Соотношение сторон : 2,40:1
Режим частоты кадров : Постоянный
Частота кадров : 23,976 (24000/1001) кадра/сек
Частота кадров в оригинале : 23,976 (23976/1000) кадра/сек
Цветовое пространство : YUV
Субдискретизация насыщенности : 4:2:0
Битовая глубина : 8 бит
Тип развёртки : Прогрессивная
Бит/(Пиксели*Кадры) : 0.053
Размер потока : 1,38 Гбайт (69%)
Заголовок : Исходник: Blu-ray Disc | Автор рипа: Есмуханов Данияр Исламбекович | daniyar.esmuhanov
Библиотека кодирования : x264 core 123 r2189 35cf912
Настройки программы : cabac=1 / ref=4 / deblock=1:-1:-1 / analyse=0x3:0x133 / me=umh / subme=9 / psy=1 / psy_rd=1.00:0.15 / mixed_ref=1 / me_range=24 / chroma_me=1 / trellis=2 / 8x8dct=1 / cqm=0 / deadzone=21,11 / fast_pskip=0 / chroma_qp_offset=-3 / threads=12 / sliced_threads=0 / nr=0 / decimate=1 / interlaced=0 / bluray_compat=0 / constrained_intra=0 / bframes=3 / b_pyramid=2 / b_adapt=2 / b_bias=0 / direct=3 / weightb=1 / open_gop=0 / weightp=2 / keyint=250 / keyint_min=23 / scenecut=40 / intra_refresh=0 / rc_lookahead=60 / rc=2pass / mbtree=1 / bitrate=3957 / ratetol=1.0 / qcomp=0.60 / qpmin=0 / qpmax=69 / qpstep=4 / cplxblur=20.0 / qblur=0.5 / vbv_maxrate=31250 / vbv_bufsize=31250 / nal_hrd=none / ip_ratio=1.40 / aq=1:1.00
Язык : English
Default : Да
Forced : Да
Цветовой диапазон : Limited
Основные цвета : BT.709
Коэффициенты матрицы : BT.709

Аудио #1
Идентификатор : 2
Формат : AC-3
Формат/Информация : Audio Coding 3
Параметр Endianness формата : Big
Идентификатор кодека : A_AC3
Продолжительность : 1 ч. 40 м.
Вид битрейта : Постоянный
Битрейт : 448 Кбит/сек
Каналы : 6 каналов
Расположение каналов : Front: L C R, Side: L R, LFE
Частота : 48,0 КГц
Частота кадров : 31,250 кадров/сек (1536 SPF)
Битовая глубина : 16 бит
Метод сжатия : С потерями
Задержка видео : 27 мс.
Размер потока : 323 Мбайт (16%)
Заголовок : Профессиональный (полное дублирование) Blu-ray CEE
Язык : Russian
ServiceKind/String : Complete Main
Default : Да
Forced : Да

Аудио #2
Идентификатор : 3
Формат : AC-3
Формат/Информация : Audio Coding 3
Параметр Endianness формата : Big
Идентификатор кодека : A_AC3
Продолжительность : 1 ч. 40 м.
Вид битрейта : Постоянный
Битрейт : 448 Кбит/сек
Каналы : 6 каналов
Расположение каналов : Front: L C R, Side: L R, LFE
Частота : 48,0 КГц
Частота кадров : 31,250 кадров/сек (1536 SPF)
Битовая глубина : 16 бит
Метод сжатия : С потерями
Размер потока : 323 Мбайт (16%)
Язык : English
ServiceKind/String : Complete Main
Default : Нет
Forced : Нет

Текст #1
Идентификатор : 4
Формат : UTF-8
Идентификатор кодека : S_TEXT/UTF8
Идентификатор кодека/Информация : UTF-8 Plain Text
Продолжительность : 1 ч. 39 м.
Битрейт : 72 бит/сек
ElementCount : 1238
Размер потока : 53,0 Кбайт (0%)
Язык : Russian
Default : Нет
Forced : Нет

Текст #2
Идентификатор : 5
Формат : UTF-8
Идентификатор кодека : S_TEXT/UTF8
Идентификатор кодека/Информация : UTF-8 Plain Text
Продолжительность : 1 ч. 34 м.
Битрейт : 52 бит/сек
ElementCount : 1364
Размер потока : 36,6 Кбайт (0%)
Язык : English
Default : Нет
Forced : Нет

Текст #3
Идентификатор : 6
Формат : UTF-8
Идентификатор кодека : S_TEXT/UTF8
Идентификатор кодека/Информация : UTF-8 Plain Text
Продолжительность : 1 ч. 35 м.
Битрейт : 59 бит/сек
ElementCount : 1550
Размер потока : 41,3 Кбайт (0%)
Язык : English
Default : Нет
Forced : Нет

Текст #4
Идентификатор : 7
Формат : UTF-8
Идентификатор кодека : S_TEXT/UTF8
Идентификатор кодека/Информация : UTF-8 Plain Text
Продолжительность : 1 ч. 35 м.
Битрейт : 77 бит/сек
ElementCount : 1543
Размер потока : 54,0 Кбайт (0%)
Язык : English
Default : Нет
Forced : Нет

Меню
00:00:00.000 : :(01)00:00:00:000
00:04:57.338 : :(02)00:04:57:338
00:09:55.927 : :(03)00:09:55:927
00:16:26.442 : :(04)00:16:26:442
00:20:31.730 : :(05)00:20:31:730
00:22:34.227 : :(06)00:22:34:227
00:26:31.006 : :(07)00:26:31:006
00:30:01.883 : :(08)00:30:01:883
00:35:06.353 : :(09)00:35:06:353
00:37:27.661 : :(10)00:37:27:661
00:41:41.623 : :(11)00:41:41:623
00:46:55.103 : :(12)00:46:55:103
00:49:56.617 : :(13)00:49:56:617
00:53:41.134 : :(14)00:53:41:134
01:00:08.478 : :(15)01:00:08:478
01:04:28.322 : :(16)01:04:28:322
01:06:42.498 : :(17)01:06:42:498
01:09:39.591 : :(18)01:09:39:591
01:12:37.350 : :(19)01:12:37:350
01:16:06.185 : :(20)01:16:06:185
01:19:36.563 : :(21)01:19:36:563
01:25:23.076 : :(22)01:25:23:076
01:29:56.555 : :(23)01:29:56:555
01:35:01.779 : :(24)01:35:01:779







Rip by Есмуханов Данияр Исламбекович | daniyar.esmuhanov
Как качать, Как раздавать - Правила и инструкции
Торрент18 фев 2018, 20:53 [ 18 фев 2018, 20:53 ]

СКАЧАТЬ с просмотром рекламы
СтатусПроверен Download more
.torrent скачан24 раз
Размер8.23 ГБ (8 836 305 965)
Раздаю свой рипы со скоростью отдачи 100 кБ/с - Скачал сам?! Дай скачать другим, не уходи с раздачи!!!


Вернуться в Зарубежные фильмы после 2000го года...



Кто сейчас на конференции

Сейчас этот форум просматривают: нет зарегистрированных пользователей

Ресурс не предоставляет электронные версии произведений, а занимается лишь коллекционированием и каталогизацией ссылок, присылаемых и публикуемых на форуме нашими читателями. Если вы являетесь правообладателем какого-либо представленного материала и не желаете чтобы ссылка на него находилась в нашем каталоге, свяжитесь с нами и мы незамедлительно удалим её. Файлы для обмена на трекере предоставлены пользователями сайта, и администрация не несёт ответственности за их содержание. Просьба не заливать файлы, защищенные авторскими правами, а также файлы нелегального содержания!