Рекрут / The Recruit [2003, Боевик, триллер, BDRip 1080p] - Скачать торрент бесплатно

Модераторы: Модераторы Фильмы, мультфильмы, Союз Риперов

Поделиться ВКонтакте Поделиться Facebook Поделиться Twitter Поделиться Mail.RU
АвторСообщение
Evgenii82
Аватара пользователя
Супермодератор
Супермодератор
 
Раздал: 284.39 ГБ
Скачал: 5.51 ГБ
Ратио: 53.074
Сообщения: 299
Зарегистрирован: 22 мар 2020, 08:49
Награды: 9
За 100 сообщений (1) 250 релизов (1) За новинки фильмов (1) За новинки музыки (1) За новинки книг (1) За 2000 полученных спасибо (1) За вступление в группу VK (1) За вступление в Telegram (1) Халява №3 (1)

Сообщение Evgenii82 » 14 май 2020, 11:23

Рекрут / The Recruit [2003, Боевик, триллер, BDRip 1080p] - Скачать торрент

Год выпуска: 2003
Жанр: Боевик, триллер
Страна: США
Режиссер: Роджер Дональдсон
В ролях: Аль Пачино, Колин Фаррелл, Бриджет Мойнэхэн, Гэбриел Махт, Кеннет Митчелл, Майк Рилба, Рон Лиа, Карл Прюнер, Джини Колледжа, Дженни Ливайн, Анджело Царучас, Юджин Липински, Крис Оуенс, Джессика Греко, Мервин Мондесер, Брайан Родс

О фильме:
Джеймс Клэйтон вовсе не мечтал о карьере шпиона. Но соблазн узнать правду о таинственном исчезновении в 1990 году своего отца — секретного агента, заставляет его завербоваться в ЦРУ. Новоиспеченный рекрут неплохо проходит один тест за другим, однако задания становятся все изощреннее. Обыденные события оказываются скрытой проверкой, а наставник героя, матерый разведчик Уолтер Берк все настойчивее намекает: происходящее на самом деле может быть не тем, чем кажется. Обстановка накаляется с каждым днем, и однажды Клэйтон узнает причину этого: в Лэнгли завелся «крот», и именно ему предстоит вычислить предателя. Что это, очередной тест? Или шутки кончились, и на кону — национальная безопасность?



Автор рипа: _denis_100

GER Transfer

Качество: BDRip 1080p
Видео: 1920x820, 9 887 Кбит/сек, 23.976 кадр/сек, AVC, x264, High@L4.1, 0.262 Бит/[Пиксели*Кадры], 2pass
Аудио 1: AC3 2.0 48 kHz 192 kbps - Дублированный
Аудио 2: AC3 5.1 48 kHz 640 kbps - Многоголосый закадровый, Видеосервис
Аудио 3: AC3 5.1 48 kHz 640 kbps - Многоголосый закадровый, FDV
Аудио 4: AC3 5.1 48 kHz 640 kbps - Авторский- Ю.Живов
Аудио 5: AC3 5.1 48 kHz 640 kbps - Original / English

Чаптеры: есть
Субтитры: Russian (Forced, Full), English

Качество видео: BDRip 1080p
Продолжительность: 01:55:00
Формат: MKV
Видео: MPEG-4 AVC, 1920x820, 9887 kbps
Аудио #1: русский, дублированный, AC3 2.0, 192 kbps
Аудио #2: русский, многоголосый закадровый [профессиональный], AC3 5.1, 640 kbps
Аудио #3: русский, многоголосый закадровый [профессиональный], AC3 5.1, 640 kbps
Аудио #4: русский, одноголосый закадровый [авторский], AC3 5.1, 640 kbps
Аудио #5: английский, оригинал, AC3 5.1, 640 kbps
Субтитры #1: тип: вшитые отключаемые, русский, формат: SRT
Субтитры #2: тип: вшитые отключаемые, английский, формат: SRT
General
Unique ID : 248812160162315965218964915891917375843 (0xBB2F7A9E548A8CC3B9068E50D7254963)
Complete name : K:\Торренты\The Recruit.(2003).BDRip.1080p.[denis100].mkv
Format : Matroska
Format version : Version 2
File size : 10.4 GiB
Duration : 1 h 55 min
Overall bit rate : 12.9 Mb/s
Movie name : The Recruit.(2003).BDRip.1080p.[denis100]
Encoded date : UTC 2014-01-22 12:02:11
Writing application : mkvmerge v5.8.0 ('No Sleep / Pillow') built on Sep 2 2012 15:37:04
Writing library : libebml v1.2.3 + libmatroska v1.3.0

Video
ID : 1
Format : AVC
Format/Info : Advanced Video Codec
Format profile : High@L4.1
Format settings, CABAC : Yes
Format settings, RefFrames : 5 frames
Codec ID : V_MPEG4/ISO/AVC
Duration : 1 h 55 min
Bit rate : 9 887 kb/s
Width : 1 920 pixels
Height : 820 pixels
Display aspect ratio : 2.35:1
Frame rate mode : Constant
Frame rate : 23.976 (24000/1001) FPS
Color space : YUV
Chroma subsampling : 4:2:0
Bit depth : 8 bits
Scan type : Progressive
Bits/(Pixel*Frame) : 0.262
Stream size : 7.94 GiB (77%)
Title : The Recruit.(2003).BDRip.1080p от _denis_100
Writing library : x264 core 140 r2377 1ca7bb9
Encoding settings : cabac=1 / ref=5 / deblock=1:-3:-3 / analyse=0x3:0x133 / me=umh / subme=11 / psy=1 / psy_rd=1.00:0.10 / mixed_ref=1 / me_range=32 / chroma_me=1 / trellis=2 / 8x8dct=1 / cqm=0 / deadzone=21,11 / fast_pskip=0 / chroma_qp_offset=-3 / threads=6 / lookahead_threads=1 / sliced_threads=0 / nr=0 / decimate=0 / interlaced=0 / bluray_compat=0 / constrained_intra=0 / bframes=8 / b_pyramid=2 / b_adapt=2 / b_bias=0 / direct=3 / weightb=1 / open_gop=0 / weightp=2 / keyint=240 / keyint_min=23 / scenecut=40 / intra_refresh=0 / rc=crf / mbtree=0 / crf=18.0 / qcomp=0.60 / qpmin=0 / qpmax=69 / qpstep=4 / ip_ratio=1.40 / pb_ratio=1.30 / aq=1:0.80
Language : English
Default : Yes
Forced : No

Audio #1
ID : 2
Format : AC-3
Format/Info : Audio Coding 3
Format settings, Endianness : Big
Codec ID : A_AC3
Duration : 1 h 55 min
Bit rate mode : Constant
Bit rate : 192 kb/s
Channel(s) : 2 channels
Channel positions : Front: L R
Sampling rate : 48.0 kHz
Frame rate : 31.250 FPS (1536 SPF)
Bit depth : 16 bits
Compression mode : Lossy
Stream size : 158 MiB (1%)
Title : Дублированный
Language : Russian
Service kind : Complete Main
Default : Yes
Forced : No

Audio #2
ID : 3
Format : AC-3
Format/Info : Audio Coding 3
Format settings, Endianness : Big
Codec ID : A_AC3
Duration : 1 h 55 min
Bit rate mode : Constant
Bit rate : 640 kb/s
Channel(s) : 6 channels
Channel positions : Front: L C R, Side: L R, LFE
Sampling rate : 48.0 kHz
Frame rate : 31.250 FPS (1536 SPF)
Bit depth : 16 bits
Compression mode : Lossy
Stream size : 526 MiB (5%)
Title : Многоголосый закадровый, Видеосервис
Language : Russian
Service kind : Complete Main
Default : No
Forced : No

Audio #3
ID : 4
Format : AC-3
Format/Info : Audio Coding 3
Format settings, Endianness : Big
Codec ID : A_AC3
Duration : 1 h 55 min
Bit rate mode : Constant
Bit rate : 640 kb/s
Channel(s) : 6 channels
Channel positions : Front: L C R, Side: L R, LFE
Sampling rate : 48.0 kHz
Frame rate : 31.250 FPS (1536 SPF)
Bit depth : 16 bits
Compression mode : Lossy
Stream size : 526 MiB (5%)
Title : Многоголосый закадровый, FDV
Language : Russian
Service kind : Complete Main
Default : No
Forced : No

Audio #4
ID : 5
Format : AC-3
Format/Info : Audio Coding 3
Format settings, Endianness : Big
Codec ID : A_AC3
Duration : 1 h 55 min
Bit rate mode : Constant
Bit rate : 640 kb/s
Channel(s) : 6 channels
Channel positions : Front: L C R, Side: L R, LFE
Sampling rate : 48.0 kHz
Frame rate : 31.250 FPS (1536 SPF)
Bit depth : 16 bits
Compression mode : Lossy
Stream size : 526 MiB (5%)
Title : Авторский- Ю.Живов
Language : Russian
Service kind : Complete Main
Default : No
Forced : No

Audio #5
ID : 6
Format : AC-3
Format/Info : Audio Coding 3
Format settings, Endianness : Big
Codec ID : A_AC3
Duration : 1 h 55 min
Bit rate mode : Constant
Bit rate : 640 kb/s
Channel(s) : 6 channels
Channel positions : Front: L C R, Side: L R, LFE
Sampling rate : 48.0 kHz
Frame rate : 31.250 FPS (1536 SPF)
Bit depth : 16 bits
Compression mode : Lossy
Stream size : 526 MiB (5%)
Title : Original / English
Language : English
Service kind : Complete Main
Default : No
Forced : No

Text #1
ID : 7
Format : UTF-8
Codec ID : S_TEXT/UTF8
Codec ID/Info : UTF-8 Plain Text
Title : Forced
Language : Russian
Default : Yes
Forced : No

Text #2
ID : 8
Format : UTF-8
Codec ID : S_TEXT/UTF8
Codec ID/Info : UTF-8 Plain Text
Title : Full
Language : Russian
Default : No
Forced : No

Text #3
ID : 9
Format : UTF-8
Codec ID : S_TEXT/UTF8
Codec ID/Info : UTF-8 Plain Text
Title : English
Language : English
Default : No
Forced : No

Menu
00:00:00.000 : en:Job Fair
00:02:41.327 : en:Cia Material
00:09:04.877 : en:The Interview
00:15:03.027 : en:The Farm
00:21:31.873 : en:Bug House
00:27:59.969 : en:Field Trip
00:36:17.508 : en:Choke Point
00:40:36.725 : en:The Noc
00:47:55.122 : en:Welcome to the Cia
00:56:18.875 : en:Contact
01:00:35.965 : en:Mail Delivery
01:09:15.401 : en:Breakfast
01:20:40.544 : en:Tracking Layla
01:27:52.517 : en:Coffee and Data
01:36:19.398 : en:Spartacus
01:45:11.388 : en:Spotlight
01:50:27.912 : en:End Credits
01:54:59.142 : en:The End



Как качать, Как раздавать - Правила и инструкции
Торрент14 май 2020, 11:23 [ 14 май 2020, 11:23 ]

СКАЧАТЬ с просмотром рекламы
СтатусПроверен -=Robbertta=-
.torrent скачан7 раз
Размер10.36 ГБ (11 123 124 632)

Вернуться в Зарубежные фильмы после 2000го года...



Кто сейчас на конференции

Сейчас этот форум просматривают: нет зарегистрированных пользователей

Ресурс не предоставляет электронные версии произведений, а занимается лишь коллекционированием и каталогизацией ссылок, присылаемых и публикуемых на форуме нашими читателями. Если вы являетесь правообладателем какого-либо представленного материала и не желаете чтобы ссылка на него находилась в нашем каталоге, свяжитесь с нами и мы незамедлительно удалим её. Файлы для обмена на трекере предоставлены пользователями сайта, и администрация не несёт ответственности за их содержание. Просьба не заливать файлы, защищенные авторскими правами, а также файлы нелегального содержания!