Тор / Thor [2011-2017,фантастика, фэнтези, боевик, комедия, приключения, BDRip 1080р] D, А | Коллекция - Скачать торрент бесплатно

Модераторы: Модераторы Фильмы, мультфильмы, Союз Риперов

Поделиться ВКонтакте Поделиться Facebook Поделиться Twitter Поделиться Mail.RU
АвторСообщение
Download more
Аватара пользователя
Модератор Фильмов
Модератор Фильмов
 
Раздал: 6.47 ТБ
Скачал: 3.58 ТБ
Ратио: 14.843
Сообщения: 475
Зарегистрирован: 19 ноя 2016, 16:36
Откуда: г. Астана, Казахстан Encoded by daniyar.esmuhanov
Награды: 7
За 100 сообщений (1) За 500 сообщений (1) 5 Тб отданного (1) 250 релизов (1) За 2000 полученных спасибо (1) 30 рипов (1) 200 кармы (1)
Карма: 404
-2--2--2-

Сообщение Download more » 24 фев 2018, 09:05

Тор / Thor [2011-2017,фантастика, фэнтези, боевик, комедия, приключения, BDRip 1080р] D, А | Коллекция - Скачать торрент

Название: Тор
Оригинальное название: /Thor
Год выхода: 2011
Жанр: фантастика, фэнтези, боевик, приключения
Режиссер: Кеннет Брэна
В ролях: :Натали Портман, Энтони Хопкинс, Крис Хемсворт, Том Хиддлстон, Стеллан Скарсгард, Кэт Деннингс, Кларк Грегг, Идрис Эльба, Колм Фиор, Рэй Стивенсон
О фильме: Эпическое приключение происходит как на нашей планете Земля, так и в королевстве богов Асгарде. В центре истории — Могучий Тор, сильный, но высокомерный воин, чьи безрассудные поступки возрождают древнюю войну в Асгарде. Тора отправляют в ссылку на Землю, лишают сил и заставляют жить среди обычных людей в качестве наказания…



Выпущено: США
Продолжительность: 01:54:50
Озвучивание: Профессиональный (полное дублирование), Авторский (одноголосый закадровый)
Субтитры: русские, английские

Файл
Формат: MKV
Качество: BDRip 1080р
Видео: 1920x816, MPEG4/AVC, High@L4, 23,976 (24000/1001) кадра/сек, ~3906 Кбит/сек
Аудио: 48,0 КГц, AC3 Dolby Digital, 3/2 (L,C,R,l,r) + LFE ch, 448 kbps Профессиональный (полное дублирование) Blu-ray CEE
Аудио: 48,0 КГц, AC3 Dolby Digital, 3/2 (L,C,R,l,r) + LFE ch, 448 kbps Авторский (одноголосый закадровый) Ю.Сербин
Аудио: 48,0 КГц, AC3 Dolby Digital, 3/2 (L,C,R,l,r) + LFE ch, 448 kbps Оригинальная аудиодорожка: английский
Общее
Уникальный идентификатор : 217330377350471874708432487618093264037 (0xA3804EE356E7FA21991AF97C24042CA5)
Полное имя : D:\Данияр\Раздача\Thor Collection.daniyar.esmuhanov\Тор (фантастика, фэнтези, боевик, приключения) 2011.mkv
Формат : Matroska
Версия формата : Version 4 / Version 2
Размер файла : 2,61 Гбайт
Продолжительность : 1 ч. 54 м.
Название фильма : Исходник: Blu-ray Disc | Автор рипа: Есмуханов Данияр Исламбекович | daniyar.esmuhanov
Программа кодирования : mkvmerge v8.3.0 ('Over the Horizon') 64bit
Библиотека кодирования : libebml v1.3.1 + libmatroska v1.4.2

Видео
Идентификатор : 1
Формат : AVC
Формат/Информация : Advanced Video Codec
Профиль формата : High@L4
Настройки формата : CABAC / 5 Ref Frames
Параметр CABAC формата : Да
Параметр RefFrames формата : 5 кадров
Идентификатор кодека : V_MPEG4/ISO/AVC
Продолжительность : 1 ч. 54 м.
Максимальный битрейт : 62,5 Мбит/сек
Вид битрейта : Переменный
Переменный битрейт : 5906 Кбит/сек | 1906 Кбит/сек | 3906 Кбит/сек
Битрейт : 3906 Кбит/сек
Ширина : 1920 пикселей
Высота : 816 пикселей
Соотношение сторон : 2,35:1
Режим частоты кадров : Постоянный
Частота кадров : 23,976 (24000/1001) кадра/сек
Цветовое пространство : YUV
Субдискретизация насыщенности : 4:2:0
Битовая глубина : 8 бит
Тип развёртки : Прогрессивная
Бит/(Пиксели*Кадры) : 0.051
Размер потока : 1,53 Гбайт (59%)
Заголовок : Исходник: Blu-ray Disc | Автор рипа: Есмуханов Данияр Исламбекович | daniyar.esmuhanov
Библиотека кодирования : x264 core 120 r2164 da19765
Настройки программы : cabac=1 / ref=5 / deblock=1:0:0 / analyse=0x3:0x113 / me=umh / subme=8 / psy=1 / psy_rd=1.00:0.15 / mixed_ref=1 / me_range=16 / chroma_me=1 / trellis=1 / 8x8dct=1 / cqm=0 / deadzone=21,11 / fast_pskip=1 / chroma_qp_offset=-3 / threads=6 / sliced_threads=0 / nr=0 / decimate=1 / interlaced=0 / bluray_compat=0 / constrained_intra=0 / bframes=10 / b_pyramid=2 / b_adapt=2 / b_bias=0 / direct=3 / weightb=1 / open_gop=0 / weightp=2 / keyint=240 / keyint_min=23 / scenecut=40 / intra_refresh=0 / rc_lookahead=50 / rc=2pass / mbtree=1 / bitrate=3906 / ratetol=1.0 / qcomp=0.60 / qpmin=10 / qpmax=51 / qpstep=4 / cplxblur=20.0 / qblur=0.5 / ip_ratio=1.40 / aq=1:1.00
Язык : English
Default : Да
Forced : Да

Аудио #1
Идентификатор : 2
Формат : AC-3
Формат/Информация : Audio Coding 3
Параметр Endianness формата : Big
Идентификатор кодека : A_AC3
Продолжительность : 1 ч. 54 м.
Вид битрейта : Постоянный
Битрейт : 448 Кбит/сек
Каналы : 6 каналов
Расположение каналов : Front: L C R, Side: L R, LFE
Частота : 48,0 КГц
Частота кадров : 31,250 кадров/сек (1536 SPF)
Битовая глубина : 16 бит
Метод сжатия : С потерями
Размер потока : 368 Мбайт (14%)
Заголовок : Профессиональный (полное дублирование) Blu-ray CEE
Язык : Russian
ServiceKind/String : Complete Main
Default : Да
Forced : Да

Аудио #2
Идентификатор : 3
Формат : AC-3
Формат/Информация : Audio Coding 3
Параметр Endianness формата : Big
Идентификатор кодека : A_AC3
Продолжительность : 1 ч. 54 м.
Вид битрейта : Постоянный
Битрейт : 448 Кбит/сек
Каналы : 6 каналов
Расположение каналов : Front: L C R, Side: L R, LFE
Частота : 48,0 КГц
Частота кадров : 31,250 кадров/сек (1536 SPF)
Битовая глубина : 16 бит
Метод сжатия : С потерями
Размер потока : 368 Мбайт (14%)
Заголовок : Авторский (одноголосый закадровый) Ю.Сербин
Язык : Russian
ServiceKind/String : Complete Main
Default : Нет
Forced : Нет

Аудио #3
Идентификатор : 4
Формат : AC-3
Формат/Информация : Audio Coding 3
Параметр Endianness формата : Big
Идентификатор кодека : A_AC3
Продолжительность : 1 ч. 54 м.
Вид битрейта : Постоянный
Битрейт : 448 Кбит/сек
Каналы : 6 каналов
Расположение каналов : Front: L C R, Side: L R, LFE
Частота : 48,0 КГц
Частота кадров : 31,250 кадров/сек (1536 SPF)
Битовая глубина : 16 бит
Метод сжатия : С потерями
Размер потока : 368 Мбайт (14%)
Язык : English
ServiceKind/String : Complete Main
Default : Нет
Forced : Нет

Текст #1
Идентификатор : 5
Формат : UTF-8
Идентификатор кодека : S_TEXT/UTF8
Идентификатор кодека/Информация : UTF-8 Plain Text
Продолжительность : 1 ч. 53 м.
Битрейт : 63 бит/сек
ElementCount : 1104
Размер потока : 52,6 Кбайт (0%)
Язык : Russian
Default : Нет
Forced : Нет

Текст #2
Идентификатор : 6
Формат : UTF-8
Идентификатор кодека : S_TEXT/UTF8
Идентификатор кодека/Информация : UTF-8 Plain Text
Продолжительность : 1 ч. 53 м.
Битрейт : 70 бит/сек
ElementCount : 1098
Размер потока : 58,5 Кбайт (0%)
Язык : Russian
Default : Нет
Forced : Нет

Текст #3
Идентификатор : 7
Формат : UTF-8
Идентификатор кодека : S_TEXT/UTF8
Идентификатор кодека/Информация : UTF-8 Plain Text
Продолжительность : 1 ч. 53 м.
Битрейт : 73 бит/сек
ElementCount : 1174
Размер потока : 61,6 Кбайт (0%)
Язык : Russian
Default : Нет
Forced : Нет

Текст #4
Идентификатор : 8
Формат : UTF-8
Идентификатор кодека : S_TEXT/UTF8
Идентификатор кодека/Информация : UTF-8 Plain Text
Продолжительность : 1 ч. 53 м.
Битрейт : 39 бит/сек
ElementCount : 1091
Размер потока : 32,9 Кбайт (0%)
Язык : English
Default : Нет
Forced : Нет

Текст #5
Идентификатор : 9
Формат : UTF-8
Идентификатор кодека : S_TEXT/UTF8
Идентификатор кодека/Информация : UTF-8 Plain Text
Продолжительность : 1 ч. 53 м.
Битрейт : 41 бит/сек
ElementCount : 1185
Размер потока : 34,9 Кбайт (0%)
Язык : English
Default : Нет
Forced : Нет

Меню
00:00:00.000 : en:00:00:00.000
00:10:38.137 : en:00:10:38.137
00:17:33.135 : en:00:17:33.135
00:26:02.603 : en:00:26:02.603
00:32:28.196 : en:00:32:28.196
00:37:28.413 : en:00:37:28.413
00:42:14.198 : en:00:42:14.198
00:52:10.377 : en:00:52:10.377
01:01:24.973 : en:01:01:24.973
01:08:45.538 : en:01:08:45.538
01:15:39.160 : en:01:15:39.160
01:21:19.249 : en:01:21:19.249
01:30:35.347 : en:01:30:35.347
01:40:58.177 : en:01:40:58.177
01:45:13.724 : en:01:45:13.724
01:53:06.196 : en:01:53:06.196






Название: Тор 2: Царство тьмы
Оригинальное название: /Thor: The Dark World
Год выхода: 2013
Жанр: фантастика, фэнтези, боевик, приключения
Режиссер: Алан Тейлор
В ролях: :Крис Хемсворт, Натали Портман, Том Хиддлстон, Энтони Хопкинс, Кристофер Экклстон, Джейми Александер, Закари Левай, Рэй Стивенсон, Таданобу Асано, Идрис Эльба, Рене Руссо, Адевале Акинойе-Агбаже, Стеллан Скарсгард
О фильме: Могучему Тору предстоит вновь сразиться за восстановление порядка в галактике, встретившись лицом к лицу с древней инопланетной расой, ведомой злодеем Малекитом, который жаждет установить в девяти мирах власть тьмы. Столкнувшись с врагом, более могущественным, чем сам Один и всё воинство Асгарда, Тор должен собрать силы для решающей битвы. Его ждёт опасное путешествие и долгожданная встреча со своей земной возлюбленной Джейн Фостер. Сможет ли Тор рискнуть самым дорогим, чтобы не дать тьме воцариться на просторах вселенной?



Выпущено: США
Продолжительность: 01:52:03
Озвучивание: Профессиональный (полное дублирование)
Субтитры: русские, английские

Файл
Формат: MKV
Качество: BDRip 1080р
Видео: 1920x800, MPEG4/AVC, High@L4.1, 23,976 (24000/1001) кадра/сек, ~3997 Кбит/сек
Аудио: 48,0 КГц, AC3 Dolby Digital, 3/2 (L,C,R,l,r) + LFE ch, 448 kbps Профессиональный (полное дублирование) Blu-ray CEE
Аудио: 48,0 КГц, AC3 Dolby Digital, 3/2 (L,C,R,l,r) + LFE ch, 448 kbps Оригинальная аудиодорожка: английский
Общее
Уникальный идентификатор : 221616233150689658781083925834879684532 (0xA6B9BBE4B80211FF8DD0CD188BCF4FB4)
Полное имя : D:\Данияр\Раздача\Thor Collection.daniyar.esmuhanov\Тор 2 Царство тьмы (фэнтези, боевик, приключения) 2013.mkv
Формат : Matroska
Версия формата : Version 4 / Version 2
Размер файла : 2,27 Гбайт
Продолжительность : 1 ч. 52 м.
Название фильма : Исходник: Blu-ray Disc | Автор рипа: Есмуханов Данияр Исламбекович | daniyar.esmuhanov
Программа кодирования : mkvmerge v8.3.0 ('Over the Horizon') 64bit
Библиотека кодирования : libebml v1.3.1 + libmatroska v1.4.2

Видео
Идентификатор : 1
Формат : AVC
Формат/Информация : Advanced Video Codec
Профиль формата : High@L4.1
Настройки формата : CABAC / 4 Ref Frames
Параметр CABAC формата : Да
Параметр RefFrames формата : 4 кадра
Идентификатор кодека : V_MPEG4/ISO/AVC
Продолжительность : 1 ч. 52 м.
Максимальный битрейт : 62,5 Мбит/сек
Вид битрейта : Переменный
Переменный битрейт : 5997 Кбит/сек | 1997 Кбит/сек | 3997 Кбит/сек
Битрейт : 3997 Кбит/сек
Ширина : 1920 пикселей
Высота : 800 пикселей
Соотношение сторон : 2,40:1
Режим частоты кадров : Постоянный
Частота кадров : 23,976 (24000/1001) кадра/сек
Частота кадров в оригинале : 23,976 (23976/1000) кадра/сек
Цветовое пространство : YUV
Субдискретизация насыщенности : 4:2:0
Битовая глубина : 8 бит
Тип развёртки : Прогрессивная
Бит/(Пиксели*Кадры) : 0.054
Размер потока : 1,56 Гбайт (69%)
Заголовок : Исходник: Blu-ray Disc | Автор рипа: Есмуханов Данияр Исламбекович | daniyar.esmuhanov
Библиотека кодирования : x264 core 135 r2 f0c1c53
Настройки программы : cabac=1 / ref=4 / deblock=1:-1:-1 / analyse=0x3:0x133 / me=umh / subme=9 / psy=1 / psy_rd=1.00:0.15 / mixed_ref=1 / me_range=24 / chroma_me=1 / trellis=2 / 8x8dct=1 / cqm=0 / deadzone=21,11 / fast_pskip=0 / chroma_qp_offset=-3 / threads=36 / lookahead_threads=3 / sliced_threads=0 / nr=0 / decimate=1 / interlaced=0 / bluray_compat=0 / constrained_intra=0 / bframes=3 / b_pyramid=2 / b_adapt=2 / b_bias=0 / direct=3 / weightb=1 / open_gop=0 / weightp=2 / keyint=250 / keyint_min=23 / scenecut=40 / intra_refresh=0 / rc_lookahead=60 / rc=2pass / mbtree=1 / bitrate=3997 / ratetol=1.0 / qcomp=0.60 / qpmin=0 / qpmax=69 / qpstep=4 / cplxblur=20.0 / qblur=0.5 / vbv_maxrate=31250 / vbv_bufsize=31250 / nal_hrd=none / ip_ratio=1.40 / aq=1:1.00
Язык : English
Default : Да
Forced : Да
Цветовой диапазон : Limited
Основные цвета : BT.709
Коэффициенты матрицы : BT.709

Аудио #1
Идентификатор : 2
Формат : AC-3
Формат/Информация : Audio Coding 3
Параметр Endianness формата : Big
Идентификатор кодека : A_AC3
Продолжительность : 1 ч. 52 м.
Вид битрейта : Постоянный
Битрейт : 448 Кбит/сек
Каналы : 6 каналов
Расположение каналов : Front: L C R, Side: L R, LFE
Частота : 48,0 КГц
Частота кадров : 31,250 кадров/сек (1536 SPF)
Битовая глубина : 16 бит
Метод сжатия : С потерями
Размер потока : 359 Мбайт (15%)
Заголовок : Профессиональный (полное дублирование) Blu-ray CEE
Язык : Russian
ServiceKind/String : Complete Main
Default : Да
Forced : Да

Аудио #2
Идентификатор : 3
Формат : AC-3
Формат/Информация : Audio Coding 3
Параметр Endianness формата : Big
Идентификатор кодека : A_AC3
Продолжительность : 1 ч. 52 м.
Вид битрейта : Постоянный
Битрейт : 448 Кбит/сек
Каналы : 6 каналов
Расположение каналов : Front: L C R, Side: L R, LFE
Частота : 48,0 КГц
Частота кадров : 31,250 кадров/сек (1536 SPF)
Битовая глубина : 16 бит
Метод сжатия : С потерями
Размер потока : 359 Мбайт (15%)
Язык : English
ServiceKind/String : Complete Main
Default : Нет
Forced : Нет

Текст #1
Идентификатор : 4
Формат : UTF-8
Идентификатор кодека : S_TEXT/UTF8
Идентификатор кодека/Информация : UTF-8 Plain Text
Продолжительность : 1 ч. 43 м.
Битрейт : 2 бит/сек
ElementCount : 37
Размер потока : 1,76 Кбайт (0%)
Заголовок : Форсированные
Язык : Russian
Default : Да
Forced : Да

Текст #2
Идентификатор : 5
Формат : UTF-8
Идентификатор кодека : S_TEXT/UTF8
Идентификатор кодека/Информация : UTF-8 Plain Text
Продолжительность : 1 ч. 45 м.
Битрейт : 64 бит/сек
ElementCount : 1089
Размер потока : 49,8 Кбайт (0%)
Язык : Russian
Default : Нет
Forced : Нет

Текст #3
Идентификатор : 6
Формат : UTF-8
Идентификатор кодека : S_TEXT/UTF8
Идентификатор кодека/Информация : UTF-8 Plain Text
Продолжительность : 1 ч. 45 м.
Битрейт : 73 бит/сек
ElementCount : 1042
Размер потока : 56,5 Кбайт (0%)
Язык : Russian
Default : Нет
Forced : Нет

Текст #4
Идентификатор : 7
Формат : UTF-8
Идентификатор кодека : S_TEXT/UTF8
Идентификатор кодека/Информация : UTF-8 Plain Text
Продолжительность : 1 ч. 45 м.
Битрейт : 64 бит/сек
ElementCount : 1151
Размер потока : 49,9 Кбайт (0%)
Язык : Russian
Default : Нет
Forced : Нет

Текст #5
Идентификатор : 8
Формат : UTF-8
Идентификатор кодека : S_TEXT/UTF8
Идентификатор кодека/Информация : UTF-8 Plain Text
Продолжительность : 1 ч. 15 м.
Битрейт : 1 бит/сек
ElementCount : 31
Размер потока : 1018 байт (0%)
Заголовок : Форсированные
Язык : English
Default : Нет
Forced : Нет

Текст #6
Идентификатор : 9
Формат : UTF-8
Идентификатор кодека : S_TEXT/UTF8
Идентификатор кодека/Информация : UTF-8 Plain Text
Продолжительность : 1 ч. 45 м.
Битрейт : 41 бит/сек
ElementCount : 1138
Размер потока : 32,4 Кбайт (0%)
Язык : English
Default : Нет
Forced : Нет

Текст #7
Идентификатор : 10
Формат : UTF-8
Идентификатор кодека : S_TEXT/UTF8
Идентификатор кодека/Информация : UTF-8 Plain Text
Продолжительность : 1 ч. 51 м.
Битрейт : 44 бит/сек
ElementCount : 1382
Размер потока : 36,4 Кбайт (0%)
Язык : English
Default : Нет
Forced : Нет

Текст #8
Идентификатор : 11
Формат : UTF-8
Идентификатор кодека : S_TEXT/UTF8
Идентификатор кодека/Информация : UTF-8 Plain Text
Продолжительность : 1 ч. 51 м.
Битрейт : 56 бит/сек
ElementCount : 1382
Размер потока : 46,5 Кбайт (0%)
Язык : English
Default : Нет
Forced : Нет

Меню
00:00:00.000 : en:Prologue
00:06:13.664 : en:The Nine Realms at Peace
00:13:05.534 : en:Strange Happenings in London
00:18:40.994 : en:The Aether Awakens
00:24:56.495 : en:Welcome to Asgard
00:29:07.662 : en:The Last of the Kursed
00:41:33.365 : en:Attack on Asgard
00:49:40.227 : en:We are not Immortal
00:55:56.144 : en:Desperate Times
01:00:08.896 : en:Escape from Asgard
01:08:12.671 : en:Brothers in Arms
01:12:39.897 : en:Return to the Dark World
01:21:34.472 : en:Follow the Signs
01:26:22.093 : en:Thor Vs. Malekith Vs. The Convergence
01:33:58.799 : en:The Aether Unleashed
01:38:31.655 : en:Born to be a King
01:41:49.394 : en:End Credits






Название: Тор 3 Рагнарёк
Оригинальное название: /Thor: Ragnarok
Год выхода: 2017
Жанр: фантастика, фэнтези, боевик, комедия, приключения
Режиссер: Тайка Вайтити
В ролях: : Крис Хемсворт, Том Хиддлстон, Кейт Бланшетт, Идрис Эльба, Джефф Голдблюм, Тесса Томпсон, Карл Урбан, Марк Руффало, Энтони Хопкинс, Бенедикт Камбербэтч
О фильме: Вернувшись в Асгард в поисках таинственного врага, ведущего охоту на Камни Бесконечности, Тор обнаруживает, что действия его брата Локи, захватившего трон Асгарда, привели к приближению наиболее страшного события — Рагнарёка. По легенде это ознаменует последнюю битву Асгарда, последствием которой станет его полное уничтожение. В попытке предотвратить это событие Тору предстоит прибегнуть к помощи своего товарища из Мстителей — Халка. Вместе им предстоит столкнуться лицом к лицу со злейшим врагом всех девяти миров — огненным демоном Суртуром, целью которого является исполнение пророчества о Рагнарёке и уничтожение девяти миров.



Выпущено: США
Продолжительность: 02:10:30
Озвучивание: Профессиональный (полное дублирование)
Субтитры: русские, английские

Файл
Формат: MKV
Качество: BDRip 1080р
Видео: 1920x804, MPEG4/AVC, High@L4.1, 23,976 (24000/1001) кадра/сек, ~3026 Кбит/сек
Аудио: 48,0 КГц, AC3 Dolby Digital, 3/2 (L,C,R,l,r) + LFE ch, 448 kbps Профессиональный (полное дублирование) Blu-ray CEE
Аудио: 48,0 КГц, AC3 Dolby Digital, 3/2 (L,C,R,l,r) + LFE ch, 448 kbps Оригинальная аудиодорожка: английский
Общее
Уникальный идентификатор : 218465421993456487540791954976096792309 (0xA45AE8E8DA1B058FB7AE13C65DAA2EF5)
Полное имя : D:\Данияр\Раздача\Thor Collection.daniyar.esmuhanov\Тор 3 Рагнарёк (фантастика, фэнтези, боевик, комедия, приключения) 2017.mkv
Формат : Matroska
Версия формата : Version 4 / Version 2
Размер файла : 2,65 Гбайт
Продолжительность : 2 ч. 10 м.
Название фильма : Исходник: Blu-ray Disc | Автор рипа: Есмуханов Данияр Исламбекович | daniyar.esmuhanov
Программа кодирования : mkvmerge v8.3.0 ('Over the Horizon') 64bit
Библиотека кодирования : libebml v1.3.1 + libmatroska v1.4.2
Обложка : Yes
Attachments : cover.jpg

Видео
Идентификатор : 1
Формат : AVC
Формат/Информация : Advanced Video Codec
Профиль формата : High@L4.1
Настройки формата : CABAC / 5 Ref Frames
Параметр CABAC формата : Да
Параметр RefFrames формата : 5 кадров
Идентификатор кодека : V_MPEG4/ISO/AVC
Продолжительность : 2 ч. 10 м.
Максимальный битрейт : 62,5 Мбит/сек
Вид битрейта : Переменный
Переменный битрейт : 5026 Кбит/сек | 2026 Кбит/сек | 3026 Кбит/сек
Битрейт : 3026 Кбит/сек
Ширина : 1920 пикселей
Высота : 804 пикселя
Соотношение сторон : 2,40:1
Режим частоты кадров : Постоянный
Частота кадров : 23,976 (24000/1001) кадра/сек
Цветовое пространство : YUV
Субдискретизация насыщенности : 4:2:0
Битовая глубина : 8 бит
Тип развёртки : Прогрессивная
Бит/(Пиксели*Кадры) : 0.055
Размер потока : 1,83 Гбайт (69%)
Заголовок : Исходник: Blu-ray Disc | Автор рипа: Есмуханов Данияр Исламбекович | daniyar.esmuhanov
Библиотека кодирования : x264 core 148 r2795 aaa9aa8
Настройки программы : cabac=1 / ref=5 / deblock=1:0:0 / analyse=0x3:0x133 / me=umh / subme=10 / psy=1 / psy_rd=1.00:0.00 / mixed_ref=1 / me_range=24 / chroma_me=1 / trellis=2 / 8x8dct=1 / cqm=0 / deadzone=21,11 / fast_pskip=1 / chroma_qp_offset=-2 / threads=96 / lookahead_threads=6 / sliced_threads=0 / nr=0 / decimate=1 / interlaced=0 / bluray_compat=0 / constrained_intra=0 / bframes=8 / b_pyramid=2 / b_adapt=2 / b_bias=0 / direct=3 / weightb=1 / open_gop=0 / weightp=2 / keyint=250 / keyint_min=23 / scenecut=40 / intra_refresh=0 / rc_lookahead=60 / rc=abr / mbtree=1 / bitrate=3026 / ratetol=1.0 / qcomp=0.60 / qpmin=0 / qpmax=69 / qpstep=4 / vbv_maxrate=31250 / vbv_bufsize=4087 / nal_hrd=none / filler=0 / ip_ratio=1.40 / aq=1:1.00
Язык : English
Default : Да
Forced : Да

Аудио #1
Идентификатор : 2
Формат : AC-3
Формат/Информация : Audio Coding 3
Параметр Endianness формата : Big
Идентификатор кодека : A_AC3
Продолжительность : 2 ч. 10 м.
Вид битрейта : Постоянный
Битрейт : 448 Кбит/сек
Каналы : 6 каналов
Расположение каналов : Front: L C R, Side: L R, LFE
Частота : 48,0 КГц
Частота кадров : 31,250 кадров/сек (1536 SPF)
Битовая глубина : 16 бит
Метод сжатия : С потерями
Размер потока : 418 Мбайт (15%)
Заголовок : Профессиональный (полное дублирование) Blu-ray CEE
Язык : Russian
ServiceKind/String : Complete Main
Default : Да
Forced : Да

Аудио #2
Идентификатор : 3
Формат : AC-3
Формат/Информация : Audio Coding 3
Параметр Endianness формата : Big
Идентификатор кодека : A_AC3
Продолжительность : 2 ч. 10 м.
Вид битрейта : Постоянный
Битрейт : 448 Кбит/сек
Каналы : 6 каналов
Расположение каналов : Front: L C R, Side: L R, LFE
Частота : 48,0 КГц
Частота кадров : 31,250 кадров/сек (1536 SPF)
Битовая глубина : 16 бит
Метод сжатия : С потерями
Размер потока : 418 Мбайт (15%)
Язык : English
ServiceKind/String : Complete Main
Default : Нет
Forced : Нет

Текст #1
Идентификатор : 4
Формат : UTF-8
Идентификатор кодека : S_TEXT/UTF8
Идентификатор кодека/Информация : UTF-8 Plain Text
Продолжительность : 1 ч. 56 м.
Битрейт : 0 бит/сек
ElementCount : 4
Размер потока : 216 байт (0%)
Заголовок : Форсированные
Язык : Russian
Default : Да
Forced : Да

Текст #2
Идентификатор : 5
Формат : UTF-8
Идентификатор кодека : S_TEXT/UTF8
Идентификатор кодека/Информация : UTF-8 Plain Text
Продолжительность : 2 ч. 9 м.
Битрейт : 76 бит/сек
ElementCount : 1569
Размер потока : 72,3 Кбайт (0%)
Язык : Russian
Default : Нет
Forced : Нет

Текст #3
Идентификатор : 6
Формат : UTF-8
Идентификатор кодека : S_TEXT/UTF8
Идентификатор кодека/Информация : UTF-8 Plain Text
Продолжительность : 2 ч. 10 м.
Битрейт : 57 бит/сек
ElementCount : 2080
Размер потока : 55,2 Кбайт (0%)
Язык : English
Default : Нет
Forced : Нет

Меню
00:00:00.000 : en:The Great Prophecy
00:06:20.671 : en:The Tragedy Of Loki Of Asgard
00:14:11.642 : en:A Worthy Inclusion
00:22:12.873 : en:The Goddess Of Death
00:26:43.059 : en:"Are You A Fighter, Or Are You Food?"
00:31:29.721 : en:Heiress Apparent
00:35:04.519 : en:The Grandmaster
00:42:49.733 : en:The Eternal Flame
00:48:31.617 : en:The Contest Of Champions
00:59:38.783 : en:The Resistance
01:07:57.907 : en:Hotheaded Fools
01:17:30.604 : en:The Revengers
01:27:25.323 : en:"The Revolution Has Begun"
01:36:08.721 : en:Ready For War
01:42:35.732 : en:"Asgard Is Not A Place"
01:49:19.886 : en:"What Were You The God Of Again?"
01:54:57.599 : en:Ragnarok
02:00:37.521 : en:End Credits






Rip by Есмуханов Данияр Исламбекович | daniyar.esmuhanov
Как качать, Как раздавать - Правила и инструкции
Торрент24 фев 2018, 09:05 [ 24 фев 2018, 09:05 ]

СКАЧАТЬ с просмотром рекламы
СтатусПроверен Download more
.torrent скачан63 раз
Размер7.53 ГБ (8 083 555 386)
Раздаю свой рипы со скоростью отдачи 100 кБ/с - Скачал сам?! Дай скачать другим, не уходи с раздачи!!!


Вернуться в Зарубежные фильмы после 2000го года...



Кто сейчас на конференции

Сейчас этот форум просматривают: keks28

Ресурс не предоставляет электронные версии произведений, а занимается лишь коллекционированием и каталогизацией ссылок, присылаемых и публикуемых на форуме нашими читателями. Если вы являетесь правообладателем какого-либо представленного материала и не желаете чтобы ссылка на него находилась в нашем каталоге, свяжитесь с нами и мы незамедлительно удалим её. Файлы для обмена на трекере предоставлены пользователями сайта, и администрация не несёт ответственности за их содержание. Просьба не заливать файлы, защищенные авторскими правами, а также файлы нелегального содержания!