Ванильное небо / Vanilla Sky [2001, Фантастика, триллер, мелодрама, BDRip 1080p] - Скачать торрент бесплатно

Модераторы: Модераторы Фильмы, мультфильмы, Союз Риперов

Поделиться ВКонтакте Поделиться Facebook Поделиться Twitter Поделиться Mail.RU
АвторСообщение
Evgenii82
Аватара пользователя
Супермодератор
Супермодератор
 
Раздал: 284.39 ГБ
Скачал: 5.51 ГБ
Ратио: 53.074
Сообщения: 299
Зарегистрирован: 22 мар 2020, 08:49
Награды: 9
За 100 сообщений (1) 250 релизов (1) За новинки фильмов (1) За новинки музыки (1) За новинки книг (1) За 2000 полученных спасибо (1) За вступление в группу VK (1) За вступление в Telegram (1) Халява №3 (1)

Сообщение Evgenii82 » 18 май 2020, 09:52

Ванильное небо / Vanilla Sky [2001, Фантастика, триллер, мелодрама, BDRip 1080p] - Скачать торрент

Год выпуска: 2001
Жанр: Фантастика, Триллер, Мелодрама
Страна: США , Испания
Режиссер: Кэмерон Кроу

В ролях: Том Круз, Пенелопа Крус, Кэмерон Диаз, Курт Рассел, Джейсон Ли, Ноа Тейлор, Тимоти Сполл, Тильда Суинтон, Майкл Шеннон, Дилэйна Митчелл

О фильме: У Дэвида было всё: деньги, свой собственный издательский дом, дорогая машина и квартира в респектабельном районе Нью-Йорка, друг-писатель и подружка Джулианна, даже враги, в лице семи управляющих его компанией, тоже были. Так он и жил без оглядки, пока в один прекрасный момент не попал в автокатастрофу и очнулся после комы инвалидом с изуродованным лицом, которое приходится прикрывать «эстетическим протезом». Его новая жизнь обернулась кошмарным сном, от которого нельзя проснуться...Качество видео:



Качество видео: BDRip 1080p
Продолжительность: 02:16:01
Формат: MKV
Видео: x264, 1920x1080, ~15409 kbps
Аудио № 1: русский, дублированный, AC3 5.1, 448 kbps
Аудио № 2: русский, многоголосый закадровый [профессиональный], DTS 5.1, 1509 kbps
Аудио № 3: русский, многоголосый закадровый [профессиональный], DTS 5.1, 1509 kbps
Аудио № 4: русский, многоголосый закадровый [профессиональный], AC3 2.0, 448 kbps
Аудио № 5: русский, многоголосый закадровый [профессиональный], AC3 2.0, 192 kbps
Аудио № 6: русский, многоголосый закадровый [профессиональный], AC3 2.0, 192 kbps
Аудио № 7: русский, одноголосый закадровый [авторский], AC3 5.1, 448 kbps
Аудио № 8: русский, одноголосый закадровый [авторский], AC3 5.1, 448 kbps
Аудио № 9: русский, одноголосый закадровый [авторский], AC3 5.1, 448 kbps
Аудио № 10: украинский, многоголосый закадровый [профессиональный], AC3 2.0, 192 kbps
Аудио № 11: украинский, многоголосый закадровый [профессиональный], AC3 2.0, 192 kbps
Аудио № 12: английский, оригинал, DTS 5.1, 1509 kbps
Субтитры № 1: тип: вшитые, русский
Субтитры № 2: тип: вшитые, английский
Код: Выделить всё
General
Unique ID                   : 227467985255072672142097406702693509510 (0xAB20BD8C1D26147D84EF762F2641E986)
Complete name               : \Ванильное.небо_Vanilla.Sky.2001.BDRip.1080p.Theatrical Cut.mkv
Format                      : Matroska
Format version              : Version 4 / Version 2
File size                   : 21.8 GiB
Duration                    : 2h 16mn
Overall bit rate            : 23.0 Mbps
Movie name                  : Ванильное.небо_Vanilla.Sky.2001.BDRip.1080p.Theatrical Cut
Encoded date                : UTC 2010-02-22 21:41:31
Writing application         : mkvmerge v5.8.0 ('No Sleep / Pillow') built on Nov 13 2012 19:43:22
Writing library             : libebml v1.3.0 + libmatroska v1.4.0

Video
ID                          : 1
Format                      : AVC
Format/Info                 : Advanced Video Codec
Format profile              : High@L4.1
Format settings, CABAC      : Yes
Format settings, ReFrames   : 4 frames
Codec ID                    : V_MPEG4/ISO/AVC
Duration                    : 2h 16mn
Bit rate                    : 15.4 Mbps
Width                       : 1 920 pixels
Height                      : 1 080 pixels
Display aspect ratio        : 16:9
Frame rate mode             : Constant
Frame rate                  : 23.976 fps
Color space                 : YUV
Chroma subsampling          : 4:2:0
Bit depth                   : 8 bits
Scan type                   : Progressive
Bits/(Pixel*Frame)          : 0.310
Stream size                 : 14.2 GiB (65%)
Title                       : Ванильное.небо_Vanilla.Sky.2001.BDRip.1080p.Theatrical Cut
Writing library             : x264 core 146 r2538 121396c
Encoding settings           : cabac=1 / ref=4 / deblock=1:-3:-3 / analyse=0x3:0x133 / me=umh / subme=10 / psy=1 / psy_rd=1.00:0.15 / mixed_ref=1 / me_range=32 / chroma_me=1 / trellis=2 / 8x8dct=1 / cqm=0 / deadzone=21,11 / fast_pskip=0 / chroma_qp_offset=-3 / threads=12 / lookahead_threads=2 / sliced_threads=0 / nr=0 / decimate=1 / interlaced=0 / bluray_compat=0 / constrained_intra=0 / bframes=7 / b_pyramid=2 / b_adapt=2 / b_bias=0 / direct=3 / weightb=1 / open_gop=0 / weightp=2 / keyint=250 / keyint_min=23 / scenecut=40 / intra_refresh=0 / rc_lookahead=40 / rc=2pass / mbtree=1 / bitrate=15409 / ratetol=1.0 / qcomp=0.60 / qpmin=0 / qpmax=69 / qpstep=4 / cplxblur=20.0 / qblur=0.5 / vbv_maxrate=50000 / vbv_bufsize=62500 / nal_hrd=none / filler=0 / ip_ratio=1.40 / aq=1:0.90
Language                    : English
Default                     : Yes
Forced                      : No

Audio #1
ID                          : 2
Format                      : AC-3
Format/Info                 : Audio Coding 3
Mode extension              : CM (complete main)
Format settings, Endianness : Big
Codec ID                    : A_AC3
Duration                    : 2h 16mn
Bit rate mode               : Constant
Bit rate                    : 448 Kbps
Channel(s)                  : 6 channels
Channel positions           : Front: L C R, Side: L R, LFE
Sampling rate               : 48.0 KHz
Compression mode            : Lossy
Stream size                 : 436 MiB (2%)
Title                       : DUB - R5
Language                    : Russian
Default                     : Yes
Forced                      : No

Audio #2
ID                          : 3
Format                      : DTS
Format/Info                 : Digital Theater Systems
Mode                        : 16
Format settings, Endianness : Big
Codec ID                    : A_DTS
Duration                    : 2h 16mn
Bit rate mode               : Constant
Bit rate                    : 1 509 Kbps
Channel(s)                  : 6 channels
Channel positions           : Front: L C R, Side: L R, LFE
Sampling rate               : 48.0 KHz
Bit depth                   : 24 bits
Compression mode            : Lossy
Stream size                 : 1.43 GiB (7%)
Title                       : MVO - "Карусель" v.1
Language                    : Russian
Default                     : No
Forced                      : No

Audio #3
ID                          : 4
Format                      : DTS
Format/Info                 : Digital Theater Systems
Mode                        : 16
Format settings, Endianness : Big
Codec ID                    : A_DTS
Duration                    : 2h 16mn
Bit rate mode               : Constant
Bit rate                    : 1 509 Kbps
Channel(s)                  : 6 channels
Channel positions           : Front: L C R, Side: L R, LFE
Sampling rate               : 48.0 KHz
Bit depth                   : 24 bits
Compression mode            : Lossy
Stream size                 : 1.43 GiB (7%)
Title                       : MVO - "Карусель" v.2
Language                    : Russian
Default                     : No
Forced                      : No

Audio #4
ID                          : 5
Format                      : AC-3
Format/Info                 : Audio Coding 3
Mode extension              : CM (complete main)
Format settings, Endianness : Big
Codec ID                    : A_AC3
Duration                    : 2h 16mn
Bit rate mode               : Constant
Bit rate                    : 448 Kbps
Channel(s)                  : 6 channels
Channel positions           : Front: L C R, Side: L R, LFE
Sampling rate               : 48.0 KHz
Compression mode            : Lossy
Stream size                 : 436 MiB (2%)
Title                       : MVO - "Медиакомплекс"
Language                    : Russian
Default                     : No
Forced                      : No

Audio #5
ID                          : 6
Format                      : AC-3
Format/Info                 : Audio Coding 3
Format profile              : Dolby Digital
Mode extension              : CM (complete main)
Format settings, Endianness : Big
Codec ID                    : A_AC3
Duration                    : 2h 16mn
Bit rate mode               : Constant
Bit rate                    : 192 Kbps
Channel(s)                  : 2 channels
Channel positions           : Front: L R
Sampling rate               : 48.0 KHz
Compression mode            : Lossy
Stream size                 : 187 MiB (1%)
Title                       : MVO - ТК "ТНТ"
Language                    : Russian
Default                     : No
Forced                      : No

Audio #6
ID                          : 7
Format                      : AC-3
Format/Info                 : Audio Coding 3
Format profile              : Dolby Digital
Mode extension              : CM (complete main)
Format settings, Endianness : Big
Codec ID                    : A_AC3
Duration                    : 2h 16mn
Bit rate mode               : Constant
Bit rate                    : 192 Kbps
Channel(s)                  : 2 channels
Channel positions           : Front: L R
Sampling rate               : 48.0 KHz
Compression mode            : Lossy
Stream size                 : 187 MiB (1%)
Title                       : MVO - "c DVD"
Language                    : Russian
Default                     : No
Forced                      : No

Audio #7
ID                          : 8
Format                      : AC-3
Format/Info                 : Audio Coding 3
Mode extension              : CM (complete main)
Format settings, Endianness : Big
Codec ID                    : A_AC3
Duration                    : 2h 16mn
Bit rate mode               : Constant
Bit rate                    : 448 Kbps
Channel(s)                  : 6 channels
Channel positions           : Front: L C R, Side: L R, LFE
Sampling rate               : 48.0 KHz
Compression mode            : Lossy
Stream size                 : 436 MiB (2%)
Title                       : VO - А.Завгородний
Language                    : Russian
Default                     : No
Forced                      : No

Audio #8
ID                          : 9
Format                      : AC-3
Format/Info                 : Audio Coding 3
Mode extension              : CM (complete main)
Format settings, Endianness : Big
Codec ID                    : A_AC3
Duration                    : 2h 16mn
Bit rate mode               : Constant
Bit rate                    : 448 Kbps
Channel(s)                  : 6 channels
Channel positions           : Front: L C R, Side: L R, LFE
Sampling rate               : 48.0 KHz
Compression mode            : Lossy
Stream size                 : 436 MiB (2%)
Title                       : VO - Ю.Живов
Language                    : Russian
Default                     : No
Forced                      : No

Audio #9
ID                          : 10
Format                      : AC-3
Format/Info                 : Audio Coding 3
Mode extension              : CM (complete main)
Format settings, Endianness : Big
Codec ID                    : A_AC3
Duration                    : 2h 16mn
Bit rate mode               : Constant
Bit rate                    : 448 Kbps
Channel(s)                  : 6 channels
Channel positions           : Front: L C R, Side: L R, LFE
Sampling rate               : 48.0 KHz
Compression mode            : Lossy
Stream size                 : 436 MiB (2%)
Title                       : VO - А.Багичев
Language                    : Russian
Default                     : No
Forced                      : No

Audio #10
ID                          : 11
Format                      : AC-3
Format/Info                 : Audio Coding 3
Format profile              : Dolby Digital
Mode extension              : CM (complete main)
Format settings, Endianness : Big
Codec ID                    : A_AC3
Duration                    : 2h 16mn
Bit rate mode               : Constant
Bit rate                    : 192 Kbps
Channel(s)                  : 2 channels
Channel positions           : Front: L R
Sampling rate               : 48.0 KHz
Compression mode            : Lossy
Stream size                 : 187 MiB (1%)
Title                       : MVO - ТК "К1"
Language                    : Ukrainian
Default                     : No
Forced                      : No

Audio #11
ID                          : 12
Format                      : AC-3
Format/Info                 : Audio Coding 3
Format profile              : Dolby Digital
Mode extension              : CM (complete main)
Format settings, Endianness : Big
Codec ID                    : A_AC3
Duration                    : 2h 16mn
Bit rate mode               : Constant
Bit rate                    : 192 Kbps
Channel(s)                  : 2 channels
Channel positions           : Front: L R
Sampling rate               : 48.0 KHz
Compression mode            : Lossy
Stream size                 : 187 MiB (1%)
Title                       : MVO - ТК "Новий"
Language                    : Ukrainian
Default                     : No
Forced                      : No

Audio #12
ID                          : 13
Format                      : DTS
Format/Info                 : Digital Theater Systems
Mode                        : 16
Format settings, Endianness : Big
Codec ID                    : A_DTS
Duration                    : 2h 16mn
Bit rate mode               : Constant
Bit rate                    : 1 509 Kbps
Channel(s)                  : 6 channels
Channel positions           : Front: L C R, Side: L R, LFE
Sampling rate               : 48.0 KHz
Bit depth                   : 24 bits
Compression mode            : Lossy
Stream size                 : 1.43 GiB (7%)
Title                       : Оригинал
Language                    : English
Default                     : No
Forced                      : No

Text #1
ID                          : 14
Format                      : UTF-8
Codec ID                    : S_TEXT/UTF8
Codec ID/Info               : UTF-8 Plain Text
Language                    : Russian
Default                     : No
Forced                      : No

Text #2
ID                          : 15
Format                      : UTF-8
Codec ID                    : S_TEXT/UTF8
Codec ID/Info               : UTF-8 Plain Text
Language                    : English
Default                     : No
Forced                      : No

Menu
00:00:00.000                : en:Chapter 01
00:06:24.300                : en:Chapter 02
00:10:57.198                : en:Chapter 03
00:15:10.701                : en:Chapter 04
00:19:22.703                : en:Chapter 05
00:22:46.865                : en:Chapter 06
00:27:03.664                : en:Chapter 07
00:30:29.953                : en:Chapter 08
00:37:49.224                : en:Chapter 09
00:43:36.113                : en:Chapter 10
00:51:42.766                : en:Chapter 11
00:54:52.456                : en:Chapter 12
00:59:03.331                : en:Chapter 13
01:06:41.246                : en:Chapter 14
01:10:47.451                : en:Chapter 15
01:13:08.091                : en:Chapter 16
01:20:13.350                : en:Chapter 17
01:24:01.328                : en:Chapter 18
01:28:58.040                : en:Chapter 19
01:33:06.663                : en:Chapter 20
01:35:24.218                : en:Chapter 21
01:42:40.361                : en:Chapter 22
01:45:59.686                : en:Chapter 23
01:52:34.038                : en:Chapter 24
01:57:50.438                : en:Chapter 25
02:01:42.002                : en:Chapter 26
02:06:18.946                : en:Chapter 27
02:09:20.460                : en:Chapter 28
02:15:54.520                : en:Chapter 29


Как качать, Как раздавать - Правила и инструкции
Торрент18 май 2020, 09:52 [ 18 май 2020, 09:52 ]

СКАЧАТЬ с просмотром рекламы
СтатусПроверен -=Robbertta=-
.torrent скачан6 раз
Размер21.81 ГБ (23 413 914 319)

DenchikK

Аватара пользователя
Опытный пользователь
Опытный пользователь
 

Сообщения: 113

Зарегистрирован: 22 май 2011, 10:10

Награды: 5
За 100 сообщений (1) 5 Тб отданного (1) 10 Тб отданного (1) За 1000 сказанных спасибо (1) Халява №5 (1)

Сообщение DenchikK» 18 май 2020, 11:03

Хороший фильм, по мне так даже лучше первоисточника.


Вернуться в Зарубежные фильмы после 2000го года...



Кто сейчас на конференции

Сейчас этот форум просматривают: нет зарегистрированных пользователей

Ресурс не предоставляет электронные версии произведений, а занимается лишь коллекционированием и каталогизацией ссылок, присылаемых и публикуемых на форуме нашими читателями. Если вы являетесь правообладателем какого-либо представленного материала и не желаете чтобы ссылка на него находилась в нашем каталоге, свяжитесь с нами и мы незамедлительно удалим её. Файлы для обмена на трекере предоставлены пользователями сайта, и администрация не несёт ответственности за их содержание. Просьба не заливать файлы, защищенные авторскими правами, а также файлы нелегального содержания!