Ведьма / Manyeo [2018, боевик, триллер, фантастика, BDRip 1080p | HDrezka Studio] - Скачать торрент бесплатно

Модераторы: Модераторы Фильмы, мультфильмы, Союз Риперов

Поделиться ВКонтакте Поделиться Facebook Поделиться Twitter Поделиться Mail.RU
АвторСообщение
Download more
Аватара пользователя
V.I.P.
V.I.P.
 
Раздал: 250.97 ТБ
Скачал: 71.09 ТБ
Ратио: 1768.239
Сообщения: 1766
Зарегистрирован: 19 ноя 2016, 18:36
Откуда: Казахстан | Есмуханов Данияр Исламбекович | daniyar.esmuhanov
Награды: 34
За 100 сообщений (1) За 500 сообщений (1) За 1000 сообщений (1) 5 Тб отданного (1) 10 Тб отданного (1) 15 Тб отданного (1) 20 Тб отданного (1) 30 Тб отданного (1) 10 Тб скаченного (1) 15 Тб скаченного (1) 20 Тб скаченного (1) 30 Тб скаченного (1) Размер созданных раздач 3 Тб (1) 250 релизов (1) 500 релизов (1) 1000 релизов (1) За новинки игр (1) За новинки фильмов (1) За новинки Softa (1) За новинки музыки (1) За 2000 полученных спасибо (1) За 4000 полученных спасибо (1) За 8000 полученных спасибо (1) За 10000 полученных спасибо (1) За 15000 полученных спасибо (1) 30 рипов (1) 50 рипов (1) 100 рипов (1) За вступление в группу VK (1) За вступление в Telegram (1) 200 кармы (1) 500 кармы (1) 1000 кармы (1) Халява №3 (1)

Сообщение Download more » 06 авг 2022, 01:09

Ведьма / Manyeo [2018, боевик, триллер, фантастика, BDRip 1080p | HDrezka Studio] - Скачать торрент

Название: Ведьма
Оригинальное название: Manyeo
Год выхода: 2018
Жанр: боевик, триллер, фантастика
Режиссер: Хун Чжон Пак
В ролях: Да Ми Ким, Мин Су Чо, У Шик Чхве

О фильме: Десять лет назад, во время массовой резни в правительственном учреждении, двум детям удалось сбежать. Мальчика скоро поймали, а девочка Джа-Юн скрылась на соседней ферме. Там её обнаружила пожилая пара – владельцы фермы. От пережитого стресса девочка полностью потеряла память, чтобы не отправлять ребёнка в приют, фермеры решаются на удочерение. Проходит время, Джа-Юн вырастает, и её единственными проблемами становится отсутствие средств для управления фермой и мать, страдающая болезнью Альцгеймера. Быстро исправить ситуацию может участие в реалити-шоу, но как только девушка появляется на телевидении, призраки прошлого снова настигают её.

Выпущено: Корея Южная
Продолжительность: 02:05:41
Озвучивание: Профессиональный (многоголосый закадровый) HDrezka Studio

Субтитры: Русские



Рип от Есмуханов Данияр Исламбекович | daniyar.esmuhanov

Файл
Формат: MKV
Качество: BDRip 1080p
Видео: 1920x800, 23,976 (24000/1001) кадра/сек, ~ 2150 Кбит/сек
Аудио: 48,0 КГц, AC3, 2 ch, 192 kbps Профессиональный (многоголосый закадровый) HDrezka Studio
Общее
Уникальный идентификатор : 172760872169303215242013010777241866817 (0x81F888A019978B6DA884A00E8FA8D241)
Полное имя : C:\Users\Данияр\Desktop\daniyar.esmuhanov\Раздача\Ведьма 1.daniyar.esmuhanov\Ведьма 1 (боевик, фантастика, триллер) 2018.mkv
Формат : Matroska
Версия формата : Version 4
Размер файла : 2,06 Гбайт
Продолжительность : 2 ч. 5 м.
Общий поток : 2 344 Кбит/сек
Название фильма : Исходник: Blu-ray Disc | Автор рипа: Есмуханов Данияр Исламбекович | daniyar.esmuhanov
Дата кодирования : UTC 2022-08-05 05:49:23
Программа кодирования : mkvmerge v8.3.0 ('Over the Horizon') 64bit
Библиотека кодирования : libebml v1.3.1 + libmatroska v1.4.2

Видео
Идентификатор : 1
Формат : AVC
Формат/Информация : Advanced Video Codec
Профиль формата : High@L4.1
Настройки формата : CABAC / 4 Ref Frames
Параметр CABAC формата : Да
Параметр RefFrames формата : 4 кадра
Идентификатор кодека : V_MPEG4/ISO/AVC
Продолжительность : 2 ч. 5 м.
Переменный битрейт : 62,5 Мбит/сек | 2150 Кбит/сек | 5150 Кбит/сек
Ширина : 1 920 пикселей
Высота : 800 пикселей
Соотношение сторон : 2,40:1
Режим частоты кадров : Постоянный
Частота кадров : 23,976 (24000/1001) кадра/сек
Цветовое пространство : YUV
Субдискретизация насыщенности : 4:2:0
Битовая глубина : 8 бит
Тип развёртки : Прогрессивная
Бит/(Пиксели*Кадры) : 0.058
Размер потока : 1,89 Гбайт (92%)
Заголовок : Исходник: Blu-ray Disc | Автор рипа: Есмуханов Данияр Исламбекович | daniyar.esmuhanov
Библиотека кодирования : x264 core 157
Настройки программы : cabac=1 / ref=4 / deblock=1:-1:-1 / analyse=0x3:0x133 / me=umh / subme=9 / psy=1 / psy_rd=1.00:0.15 / mixed_ref=1 / me_range=24 / chroma_me=1 / trellis=2 / 8x8dct=1 / cqm=0 / deadzone=21,11 / fast_pskip=0 / chroma_qp_offset=-3 / threads=18 / lookahead_threads=1 / sliced_threads=0 / nr=0 / decimate=1 / interlaced=0 / bluray_compat=0 / constrained_intra=0 / bframes=3 / b_pyramid=2 / b_adapt=2 / b_bias=0 / direct=3 / weightb=1 / open_gop=0 / weightp=2 / keyint=250 / keyint_min=23 / scenecut=40 / intra_refresh=0 / rc_lookahead=60 / rc=2pass / mbtree=1 / bitrate=2150 / ratetol=1.0 / qcomp=0.60 / qpmin=0 / qpmax=69 / qpstep=4 / cplxblur=20.0 / qblur=0.5 / vbv_maxrate=31250 / vbv_bufsize=31250 / nal_hrd=none / filler=0 / ip_ratio=1.40 / aq=1:1.00
Язык : Korean
Default : Да
Forced : Да

Аудио
Идентификатор : 2
Формат : AC-3
Формат/Информация : Audio Coding 3
Коммерческое название : Dolby Digital
Идентификатор кодека : A_AC3
Продолжительность : 2 ч. 5 м.
Вид битрейта : Постоянный
Битрейт : 192 Кбит/сек
Каналы : 2 канала
Channel layout : L R
Частота : 48,0 КГц
Частота кадров : 31,250 кадров/сек (1536 SPF)
Метод сжатия : С потерями
Размер потока : 173 Мбайт (8%)
Заголовок : Профессиональный (многоголосый закадровый) HDrezka Studio
Язык : Russian
Service kind : Complete Main
Default : Да
Forced : Да

Текст #1
Идентификатор : 3
Формат : UTF-8
Идентификатор кодека : S_TEXT/UTF8
Идентификатор кодека/Информация : UTF-8 Plain Text
Продолжительность : 1 ч. 58 м.
Битрейт : 0 бит/сек
Count of elements : 11
Размер потока : 644 байт (0%)
Заголовок : Форсированные
Язык : Russian
Default : Да
Forced : Да

Текст #2
Идентификатор : 4
Формат : UTF-8
Идентификатор кодека : S_TEXT/UTF8
Идентификатор кодека/Информация : UTF-8 Plain Text
Продолжительность : 2 ч. 0 м.
Битрейт : 62 бит/сек
Count of elements : 1192
Размер потока : 55,3 Кбайт (0%)
Язык : Russian
Default : Нет
Forced : Нет
Как качать, Как раздавать - Правила и инструкции
Торрент06 авг 2022, 01:09 [ 06 авг 2022, 01:09 ]

СКАЧАТЬ с просмотром рекламы
СтатусПроверен Breecher
.torrent скачан220 раз
Размер2.06 ГБ (2 209 199 596)
Телеграмм канал https://t.me/daniyar_esmuhanov_download_more


Вернуться в Зарубежные фильмы после 2000го года...

Кто сейчас на конференции

Сейчас этот форум просматривают: -almez-, bill63, e2538885@gmail.com, nayshnik59

Ресурс не предоставляет электронные версии произведений, а занимается лишь коллекционированием и каталогизацией ссылок, присылаемых и публикуемых на форуме нашими читателями. Если вы являетесь правообладателем какого-либо представленного материала и не желаете чтобы ссылка на него находилась в нашем каталоге, свяжитесь с нами и мы незамедлительно удалим её. Файлы для обмена на трекере предоставлены пользователями сайта, и администрация не несёт ответственности за их содержание. Просьба не заливать файлы, защищенные авторскими правами, а также файлы нелегального содержания!