Звездные войны / Star Wars [1977-2017, фантастика, фэнтези, боевик, приключения, BDRip 1080р] D, А | Коллекция - Скачать торрент бесплатно

Модераторы: Модераторы Фильмы, мультфильмы, Союз Риперов

Поделиться ВКонтакте Поделиться Facebook Поделиться Twitter Поделиться Mail.RU
АвторСообщение
Download more
Аватара пользователя
Модератор Фильмов
Модератор Фильмов
 
Раздал: 6.47 ТБ
Скачал: 3.58 ТБ
Ратио: 14.845
Сообщения: 475
Зарегистрирован: 19 ноя 2016, 16:36
Откуда: г. Астана, Казахстан Encoded by daniyar.esmuhanov
Награды: 7
За 100 сообщений (1) За 500 сообщений (1) 5 Тб отданного (1) 250 релизов (1) За 2000 полученных спасибо (1) 30 рипов (1) 200 кармы (1)
Карма: 404
-2--2--2-

Сообщение Download more » 31 мар 2018, 19:25

Звездные войны / Star Wars [1977-2017, фантастика, фэнтези, боевик, приключения, BDRip 1080р] D, А | Коллекция - Скачать торрент

Жанр: фантастика, фэнтези, боевик, приключения
Режиссер: Джордж Лукас
В ролях: :Лиам Нисон, Юэн МакГрегор, Натали Портман, Джейк Ллойд, Иэн МакДайармид, Пернилла Аугуст, Оливер Форд Дэвис, Хью Куарши, Ахмед Бест, Энтони Дэниелс
О фильме: Мирная и процветающая планета Набу. Торговая федерация, не желая платить налоги, вступает в прямой конфликт с королевой Амидалой, правящей на планете, что приводит к войне. На стороне королевы и республики в ней участвуют два рыцаря-джедая: учитель и ученик, Квай-Гон-Джин и Оби-Ван Кеноби…



Выпущено: США
Продолжительность: 02:16:10
Озвучивание: Профессиональный (полное дублирование)
Субтитры: русские, английские

Файл
Формат: MKV
Качество: BDRip 1080р
Видео: 1920x816, MPEG4/AVC, High@L4, 23,976 (24000/1001) кадра/сек, ~3798 Кбит/сек
Аудио: 48,0 КГц, AC3 Dolby Digital, 3/2 (L,C,R,l,r) + LFE ch, 448 kbps Профессиональный (полное дублирование) Blu-ray CEE
Аудио: 48,0 КГц, AC3 Dolby Digital, 2 ch, 192 kbps Комментарии
Аудио: 48,0 КГц, AC3 Dolby Digital, 2 ch, 192 kbps Комментарии
Аудио: 48,0 КГц, AC3 Dolby Digital, 3/2 (L,C,R,l,r) + LFE ch, 448 kbps Оригинальная аудиодорожка: английский
Общее
Уникальный идентификатор : 241802859221013407363958391828448239342 (0xB5E989668FD762F6A15C9BABCA775EEE)
Полное имя : D:\Данияр\Раздача\Star Wars Collection.daniyar.esmuhanov\Звёздные войны Эпизод 1 Скрытая угроза (фантастика, фэнтези, боевик, приключения) 1999.mkv
Формат : Matroska
Версия формата : Version 4 / Version 2
Размер файла : 2,93 Гбайт
Продолжительность : 2 ч. 16 м.
Название фильма : Исходник: Blu-ray Disc | Автор рипа: Есмуханов Данияр Исламбекович | daniyar.esmuhanov
Программа кодирования : mkvmerge v8.3.0 ('Over the Horizon') 64bit
Библиотека кодирования : libebml v1.3.1 + libmatroska v1.4.2

Видео
Идентификатор : 1
Формат : AVC
Формат/Информация : Advanced Video Codec
Профиль формата : High@L4
Настройки формата : CABAC / 5 Ref Frames
Параметр CABAC формата : Да
Параметр RefFrames формата : 5 кадров
Идентификатор кодека : V_MPEG4/ISO/AVC
Продолжительность : 2 ч. 16 м.
Вид битрейта : Переменный
Переменный битрейт : 62,5 Мбит/сек | 1798 Кбит/сек | 3798 Кбит/сек
Битрейт : 3798 Кбит/сек
Ширина : 1920 пикселей
Высота : 816 пикселей
Соотношение сторон : 2,35:1
Режим частоты кадров : Постоянный
Частота кадров : 23,976 (24000/1001) кадра/сек
Цветовое пространство : YUV
Субдискретизация насыщенности : 4:2:0
Битовая глубина : 8 бит
Тип развёртки : Прогрессивная
Бит/(Пиксели*Кадры) : 0.048
Размер потока : 1,71 Гбайт (58%)
Заголовок : Исходник: Blu-ray Disc | Автор рипа: Есмуханов Данияр Исламбекович | daniyar.esmuhanov
Библиотека кодирования : x264 core 129 r2245 bc13772
Настройки программы : cabac=1 / ref=5 / deblock=1:0:0 / analyse=0x3:0x133 / me=umh / subme=9 / psy=1 / psy_rd=1.00:0.00 / mixed_ref=1 / me_range=16 / chroma_me=1 / trellis=2 / 8x8dct=1 / cqm=0 / deadzone=21,11 / fast_pskip=1 / chroma_qp_offset=-2 / threads=12 / lookahead_threads=2 / sliced_threads=0 / nr=0 / decimate=1 / interlaced=0 / bluray_compat=0 / constrained_intra=0 / bframes=8 / b_pyramid=2 / b_adapt=2 / b_bias=0 / direct=3 / weightb=1 / open_gop=0 / weightp=2 / keyint=240 / keyint_min=23 / scenecut=40 / intra_refresh=0 / rc_lookahead=60 / rc=2pass / mbtree=1 / bitrate=3798 / ratetol=1.0 / qcomp=0.60 / qpmin=10 / qpmax=51 / qpstep=4 / cplxblur=20.0 / qblur=0.5 / ip_ratio=1.40 / aq=1:1.00
Язык : English
Default : Да
Forced : Да

Аудио #1
Идентификатор : 2
Формат : AC-3
Формат/Информация : Audio Coding 3
Идентификатор кодека : A_AC3
Продолжительность : 2 ч. 16 м.
Вид битрейта : Постоянный
Битрейт : 448 Кбит/сек
Каналы : 6 каналов
Расположение каналов : Front: L C R, Side: L R, LFE
Частота : 48,0 КГц
Частота кадров : 31,250 кадров/сек (1536 SPF)
Битовая глубина : 16 бит
Метод сжатия : С потерями
Размер потока : 436 Мбайт (15%)
Заголовок : Профессиональный (полное дублирование) Blu-ray CEE
Язык : Russian
ServiceKind/String : Complete Main
Default : Да
Forced : Да

Аудио #2
Идентификатор : 3
Формат : AC-3
Формат/Информация : Audio Coding 3
Идентификатор кодека : A_AC3
Продолжительность : 2 ч. 16 м.
Вид битрейта : Постоянный
Битрейт : 192 Кбит/сек
Каналы : 2 канала
Расположение каналов : Front: L R
Частота : 48,0 КГц
Частота кадров : 31,250 кадров/сек (1536 SPF)
Битовая глубина : 16 бит
Метод сжатия : С потерями
Размер потока : 187 Мбайт (6%)
Заголовок : Комментарии
Язык : English
ServiceKind/String : Complete Main
Default : Нет
Forced : Нет

Аудио #3
Идентификатор : 4
Формат : AC-3
Формат/Информация : Audio Coding 3
Идентификатор кодека : A_AC3
Продолжительность : 2 ч. 16 м.
Вид битрейта : Постоянный
Битрейт : 192 Кбит/сек
Каналы : 2 канала
Расположение каналов : Front: L R
Частота : 48,0 КГц
Частота кадров : 31,250 кадров/сек (1536 SPF)
Битовая глубина : 16 бит
Метод сжатия : С потерями
Размер потока : 187 Мбайт (6%)
Заголовок : Комментарии
Язык : English
ServiceKind/String : Complete Main
Default : Нет
Forced : Нет

Аудио #4
Идентификатор : 5
Формат : AC-3
Формат/Информация : Audio Coding 3
Идентификатор кодека : A_AC3
Продолжительность : 2 ч. 16 м.
Вид битрейта : Постоянный
Битрейт : 448 Кбит/сек
Каналы : 6 каналов
Расположение каналов : Front: L C R, Side: L R, LFE
Частота : 48,0 КГц
Частота кадров : 31,250 кадров/сек (1536 SPF)
Битовая глубина : 16 бит
Метод сжатия : С потерями
Размер потока : 436 Мбайт (15%)
Язык : English
ServiceKind/String : Complete Main
Default : Нет
Forced : Нет

Текст #1
Идентификатор : 6
Формат : UTF-8
Идентификатор кодека : S_TEXT/UTF8
Идентификатор кодека/Информация : UTF-8 Plain Text
Продолжительность : 50 м. 22 с.
Битрейт : 4 бит/сек
ElementCount : 32
Размер потока : 1,54 Кбайт (0%)
Заголовок : Форсированные
Язык : Russian
Default : Да
Forced : Да

Текст #2
Идентификатор : 7
Формат : UTF-8
Идентификатор кодека : S_TEXT/UTF8
Идентификатор кодека/Информация : UTF-8 Plain Text
Продолжительность : 58 м. 5 с.
Битрейт : 5 бит/сек
ElementCount : 42
Размер потока : 2,47 Кбайт (0%)
Заголовок : Форсированные
Язык : Russian
Default : Нет
Forced : Нет

Текст #3
Идентификатор : 8
Формат : UTF-8
Идентификатор кодека : S_TEXT/UTF8
Идентификатор кодека/Информация : UTF-8 Plain Text
Продолжительность : 2 ч. 9 м.
Битрейт : 87 бит/сек
ElementCount : 1459
Размер потока : 83,1 Кбайт (0%)
Заголовок : Blu-ray CEE
Язык : Russian
Default : Нет
Forced : Нет

Текст #4
Идентификатор : 9
Формат : UTF-8
Идентификатор кодека : S_TEXT/UTF8
Идентификатор кодека/Информация : UTF-8 Plain Text
Продолжительность : 2 ч. 9 м.
Битрейт : 86 бит/сек
ElementCount : 1432
Размер потока : 81,9 Кбайт (0%)
Заголовок : Tycoon Studio
Язык : Russian
Default : Нет
Forced : Нет

Текст #5
Идентификатор : 10
Формат : UTF-8
Идентификатор кодека : S_TEXT/UTF8
Идентификатор кодека/Информация : UTF-8 Plain Text
Продолжительность : 2 ч. 7 м.
Битрейт : 88 бит/сек
ElementCount : 1442
Размер потока : 82,4 Кбайт (0%)
Заголовок : DDV | Киномания
Язык : Russian
Default : Нет
Forced : Нет

Текст #6
Идентификатор : 11
Формат : UTF-8
Идентификатор кодека : S_TEXT/UTF8
Идентификатор кодека/Информация : UTF-8 Plain Text
Продолжительность : 2 ч. 15 м.
Битрейт : 199 бит/сек
ElementCount : 2418
Размер потока : 198 Кбайт (0%)
Заголовок : Комментарии
Язык : Russian
Default : Нет
Forced : Нет

Текст #7
Идентификатор : 12
Формат : UTF-8
Идентификатор кодека : S_TEXT/UTF8
Идентификатор кодека/Информация : UTF-8 Plain Text
Продолжительность : 2 ч. 15 м.
Битрейт : 150 бит/сек
ElementCount : 1634
Размер потока : 150 Кбайт (0%)
Заголовок : Комментарии
Язык : Russian
Default : Нет
Forced : Нет

Текст #8
Идентификатор : 13
Формат : UTF-8
Идентификатор кодека : S_TEXT/UTF8
Идентификатор кодека/Информация : UTF-8 Plain Text
Продолжительность : 2 ч. 7 м.
Битрейт : 53 бит/сек
ElementCount : 1501
Размер потока : 49,9 Кбайт (0%)
Язык : English
Default : Нет
Forced : Нет

Меню
00:00:00.000 : :Chapter 01
00:00:21.104 : :Chapter 03
00:01:52.737 : :Chapter 05
00:07:55.349 : :Chapter 07
00:09:55.970 : :Chapter 09
00:11:18.761 : :Chapter 11
00:13:24.178 : :Chapter 13
00:14:49.805 : :Chapter 15
00:17:14.241 : :Chapter 17
00:20:40.948 : :Chapter 19
00:22:25.302 : :Chapter 21
00:25:12.886 : :Chapter 23
00:29:32.812 : :Chapter 25
00:31:41.482 : :Chapter 27
00:35:51.732 : :Chapter 29
00:40:48.571 : :Chapter 31
00:44:16.320 : :Chapter 33
00:52:04.579 : :Chapter 35
00:55:03.842 : :Chapter 37
00:58:27.921 : :Chapter 39
01:02:27.702 : :Chapter 41
01:05:33.012 : :Chapter 43
01:10:06.911 : :Chapter 45
01:11:17.940 : :Chapter 47
01:16:20.951 : :Chapter 49
01:18:08.100 : :Chapter 51
01:20:26.363 : :Chapter 53
01:24:18.178 : :Chapter 55
01:26:44.782 : :Chapter 57
01:29:54.722 : :Chapter 59
01:31:02.415 : :Chapter 61
01:33:08.541 : :Chapter 63
01:37:21.418 : :Chapter 65
01:39:06.315 : :Chapter 67
01:42:33.730 : :Chapter 69
01:44:41.566 : :Chapter 71
01:46:19.247 : :Chapter 73
01:48:07.731 : :Chapter 75
01:50:24.951 : :Chapter 77
01:56:47.667 : :Chapter 79
01:59:13.062 : :Chapter 81
02:00:31.390 : :Chapter 83
02:01:21.315 : :Chapter 85
02:02:23.377 : :Chapter 87
02:03:56.971 : :Chapter 89
02:05:15.132 : :Chapter 91
02:06:25.995 : :Chapter 93
02:07:23.177 : :Chapter 95
02:08:28.992 : :Chapter 97
02:09:53.535 : :Chapter 99
02:16:10.662 : :Chapter 100






Жанр: фантастика, фэнтези, боевик, приключения
Режиссер: Джордж Лукас
В ролях: :Юэн МакГрегор, Натали Портман, Хейден Кристенсен, Кристофер Ли, Сэмюэл Л. Джексон, Фрэнк Оз, Иэн МакДайармид, Пернилла Аугуст, Темуэра Моррисон, Дэниэл Логан
О фильме: Действие разворачивается через 10 лет после событий, описанных в первом эпизоде знаменитой саги. Республика все глубже погружается в пучину противоречий и хаоса. Движение сепаратистов, представленное сотнями планет и могущественным альянсом корпораций, грозит стать новой угрозой для Галактики, с которой не смогут справиться даже джедаи.

Назревающий конфликт, заранее спланированный могущественными, но пока еще не разоблаченными силами, ведет к началу Клонических войн и к закату республики. Чтобы противостоять угрозе вселенских масштабов, Верховный канцлер Палпатин добивается консолидации власти в республике в своих руках и отдает приказ о создании республиканской армии для поддержки малочисленной группы джедаев в их борьбе с превосходящим противником.



Выпущено: США
Продолжительность: 02:22:28
Озвучивание: Профессиональный (полное дублирование)
Субтитры: русские, английские

Файл
Формат: MKV
Качество: BDRip 1080р
Видео: 1920x816, MPEG4/AVC, High@L4, 23,976 (24000/1001) кадра/сек, ~3816 Кбит/сек
Аудио: 48,0 КГц, AC3 Dolby Digital, 3/2 (L,C,R,l,r) + LFE ch, 448 kbps Профессиональный (полное дублирование) Blu-ray CEE
Аудио: 48,0 КГц, AC3 Dolby Digital, 2 ch, 192 kbps Комментарии
Аудио: 48,0 КГц, AC3 Dolby Digital, 2 ch, 192 kbps Комментарии
Аудио: 48,0 КГц, AC3 Dolby Digital, 3/2 (L,C,R,l,r) + LFE ch, 448 kbps Оригинальная аудиодорожка: английский
Общее
Уникальный идентификатор : 177303214658594932450484313948420552146 (0x85635B66A0758307939A25C675A7B5D2)
Полное имя : D:\Данияр\Раздача\Star Wars Collection.daniyar.esmuhanov\Звёздные войны Эпизод 2 Атака клонов (фантастика, фэнтези, боевик, приключения) 2002.mkv
Формат : Matroska
Версия формата : Version 4 / Version 2
Размер файла : 3,08 Гбайт
Продолжительность : 2 ч. 22 м.
Название фильма : Исходник: Blu-ray Disc | Автор рипа: Есмуханов Данияр Исламбекович | daniyar.esmuhanov
Программа кодирования : mkvmerge v8.3.0 ('Over the Horizon') 64bit
Библиотека кодирования : libebml v1.3.1 + libmatroska v1.4.2

Видео
Идентификатор : 1
Формат : AVC
Формат/Информация : Advanced Video Codec
Профиль формата : High@L4
Настройки формата : CABAC / 5 Ref Frames
Параметр CABAC формата : Да
Параметр RefFrames формата : 5 кадров
Идентификатор кодека : V_MPEG4/ISO/AVC
Продолжительность : 2 ч. 22 м.
Вид битрейта : Переменный
Переменный битрейт : 62,5 Мбит/сек | 1816 Кбит/сек | 3816 Кбит/сек
Битрейт : 3816 Кбит/сек
Ширина : 1920 пикселей
Высота : 816 пикселей
Соотношение сторон : 2,35:1
Режим частоты кадров : Постоянный
Частота кадров : 23,976 (24000/1001) кадра/сек
Цветовое пространство : YUV
Субдискретизация насыщенности : 4:2:0
Битовая глубина : 8 бит
Тип развёртки : Прогрессивная
Бит/(Пиксели*Кадры) : 0.048
Размер потока : 1,81 Гбайт (59%)
Заголовок : Исходник: Blu-ray Disc | Автор рипа: Есмуханов Данияр Исламбекович | daniyar.esmuhanov
Библиотека кодирования : x264 core 129 r2245 bc13772
Настройки программы : cabac=1 / ref=5 / deblock=1:0:0 / analyse=0x3:0x133 / me=umh / subme=9 / psy=1 / psy_rd=1.00:0.00 / mixed_ref=1 / me_range=16 / chroma_me=1 / trellis=2 / 8x8dct=1 / cqm=0 / deadzone=21,11 / fast_pskip=1 / chroma_qp_offset=-2 / threads=12 / lookahead_threads=2 / sliced_threads=0 / nr=0 / decimate=1 / interlaced=0 / bluray_compat=0 / constrained_intra=0 / bframes=3 / b_pyramid=2 / b_adapt=2 / b_bias=0 / direct=3 / weightb=1 / open_gop=0 / weightp=2 / keyint=240 / keyint_min=23 / scenecut=40 / intra_refresh=0 / rc_lookahead=60 / rc=2pass / mbtree=1 / bitrate=3816 / ratetol=1.0 / qcomp=0.60 / qpmin=10 / qpmax=51 / qpstep=4 / cplxblur=20.0 / qblur=0.5 / ip_ratio=1.40 / aq=1:1.00
Язык : English
Default : Да
Forced : Да

Аудио #1
Идентификатор : 2
Формат : AC-3
Формат/Информация : Audio Coding 3
Идентификатор кодека : A_AC3
Продолжительность : 2 ч. 22 м.
Вид битрейта : Постоянный
Битрейт : 448 Кбит/сек
Каналы : 6 каналов
Расположение каналов : Front: L C R, Side: L R, LFE
Частота : 48,0 КГц
Частота кадров : 31,250 кадров/сек (1536 SPF)
Битовая глубина : 16 бит
Метод сжатия : С потерями
Размер потока : 457 Мбайт (14%)
Заголовок : Профессиональный (полное дублирование) Blu-ray CEE
Язык : Russian
ServiceKind/String : Complete Main
Default : Да
Forced : Да

Аудио #2
Идентификатор : 3
Формат : AC-3
Формат/Информация : Audio Coding 3
Идентификатор кодека : A_AC3
Продолжительность : 2 ч. 22 м.
Вид битрейта : Постоянный
Битрейт : 192 Кбит/сек
Каналы : 2 канала
Расположение каналов : Front: L R
Частота : 48,0 КГц
Частота кадров : 31,250 кадров/сек (1536 SPF)
Битовая глубина : 16 бит
Метод сжатия : С потерями
Размер потока : 196 Мбайт (6%)
Заголовок : Комментарии
Язык : English
ServiceKind/String : Complete Main
Default : Нет
Forced : Нет

Аудио #3
Идентификатор : 4
Формат : AC-3
Формат/Информация : Audio Coding 3
Идентификатор кодека : A_AC3
Продолжительность : 2 ч. 22 м.
Вид битрейта : Постоянный
Битрейт : 192 Кбит/сек
Каналы : 2 канала
Расположение каналов : Front: L R
Частота : 48,0 КГц
Частота кадров : 31,250 кадров/сек (1536 SPF)
Битовая глубина : 16 бит
Метод сжатия : С потерями
Размер потока : 196 Мбайт (6%)
Заголовок : Комментарии
Язык : English
ServiceKind/String : Complete Main
Default : Нет
Forced : Нет

Аудио #4
Идентификатор : 5
Формат : AC-3
Формат/Информация : Audio Coding 3
Идентификатор кодека : A_AC3
Продолжительность : 2 ч. 22 м.
Вид битрейта : Постоянный
Битрейт : 448 Кбит/сек
Каналы : 6 каналов
Расположение каналов : Front: L C R, Side: L R, LFE
Частота : 48,0 КГц
Частота кадров : 31,250 кадров/сек (1536 SPF)
Битовая глубина : 16 бит
Метод сжатия : С потерями
Размер потока : 457 Мбайт (14%)
Язык : English
ServiceKind/String : Complete Main
Default : Нет
Forced : Нет

Текст #1
Идентификатор : 6
Формат : UTF-8
Идентификатор кодека : S_TEXT/UTF8
Идентификатор кодека/Информация : UTF-8 Plain Text
Продолжительность : 1 ч. 55 м.
Битрейт : 1 бит/сек
ElementCount : 19
Размер потока : 1,02 Кбайт (0%)
Заголовок : Форсированные
Язык : Russian
Default : Да
Forced : Да

Текст #2
Идентификатор : 7
Формат : UTF-8
Идентификатор кодека : S_TEXT/UTF8
Идентификатор кодека/Информация : UTF-8 Plain Text
Продолжительность : 2 ч. 0 м.
Битрейт : 2 бит/сек
ElementCount : 32
Размер потока : 1,93 Кбайт (0%)
Заголовок : Форсированные
Язык : Russian
Default : Нет
Forced : Нет

Текст #3
Идентификатор : 8
Формат : UTF-8
Идентификатор кодека : S_TEXT/UTF8
Идентификатор кодека/Информация : UTF-8 Plain Text
Продолжительность : 2 ч. 11 м.
Битрейт : 76 бит/сек
ElementCount : 1228
Размер потока : 73,5 Кбайт (0%)
Заголовок : Blu-ray CEE
Язык : Russian
Default : Нет
Forced : Нет

Текст #4
Идентификатор : 9
Формат : UTF-8
Идентификатор кодека : S_TEXT/UTF8
Идентификатор кодека/Информация : UTF-8 Plain Text
Продолжительность : 2 ч. 15 м.
Битрейт : 69 бит/сек
ElementCount : 1178
Размер потока : 68,9 Кбайт (0%)
Заголовок : Tycoon Studio
Язык : Russian
Default : Нет
Forced : Нет

Текст #5
Идентификатор : 10
Формат : UTF-8
Идентификатор кодека : S_TEXT/UTF8
Идентификатор кодека/Информация : UTF-8 Plain Text
Продолжительность : 2 ч. 21 м.
Битрейт : 176 бит/сек
ElementCount : 2325
Размер потока : 183 Кбайт (0%)
Заголовок : Комментарии
Язык : Russian
Default : Нет
Forced : Нет

Текст #6
Идентификатор : 11
Формат : UTF-8
Идентификатор кодека : S_TEXT/UTF8
Идентификатор кодека/Информация : UTF-8 Plain Text
Продолжительность : 2 ч. 21 м.
Битрейт : 156 бит/сек
ElementCount : 1877
Размер потока : 162 Кбайт (0%)
Заголовок : Комментарии
Язык : Russian
Default : Нет
Forced : Нет

Текст #7
Идентификатор : 12
Формат : UTF-8
Идентификатор кодека : S_TEXT/UTF8
Идентификатор кодека/Информация : UTF-8 Plain Text
Продолжительность : 2 ч. 17 м.
Битрейт : 0 бит/сек
ElementCount : 17
Размер потока : 562 байт (0%)
Заголовок : Форсированные
Язык : English
Default : Нет
Forced : Нет

Текст #8
Идентификатор : 13
Формат : UTF-8
Идентификатор кодека : S_TEXT/UTF8
Идентификатор кодека/Информация : UTF-8 Plain Text
Продолжительность : 2 ч. 11 м.
Битрейт : 42 бит/сек
ElementCount : 1219
Размер потока : 41,0 Кбайт (0%)
Язык : English
Default : Нет
Forced : Нет

Меню
00:00:00.000 : :Chapter 01
00:00:23.440 : :Chapter 03
00:01:50.527 : :Chapter 05
00:04:22.095 : :Chapter 07
00:07:00.002 : :Chapter 09
00:10:28.961 : :Chapter 11
00:14:19.900 : :Chapter 13
00:21:35.293 : :Chapter 15
00:24:48.236 : :Chapter 17
00:29:45.867 : :Chapter 19
00:31:33.474 : :Chapter 21
00:33:48.526 : :Chapter 23
00:34:50.505 : :Chapter 25
00:36:05.121 : :Chapter 27
00:38:25.928 : :Chapter 29
00:39:25.362 : :Chapter 31
00:40:56.370 : :Chapter 33
00:42:12.780 : :Chapter 35
00:44:02.014 : :Chapter 37
00:45:50.414 : :Chapter 39
00:47:50.075 : :Chapter 41
00:50:21.017 : :Chapter 43
00:53:01.428 : :Chapter 45
00:56:44.818 : :Chapter 47
00:58:56.699 : :Chapter 49
01:00:46.059 : :Chapter 51
01:03:41.192 : :Chapter 53
01:06:24.355 : :Chapter 55
01:11:18.774 : :Chapter 57
01:14:01.353 : :Chapter 59
01:15:23.477 : :Chapter 61
01:17:48.872 : :Chapter 63
01:21:40.353 : :Chapter 65
01:23:46.896 : :Chapter 67
01:28:10.159 : :Chapter 69
01:30:52.905 : :Chapter 71
01:33:38.487 : :Chapter 73
01:35:27.847 : :Chapter 75
01:42:44.867 : :Chapter 77
01:45:14.016 : :Chapter 79
01:49:53.628 : :Chapter 81
01:56:22.475 : :Chapter 83
01:57:47.602 : :Chapter 85
02:00:29.180 : :Chapter 87
02:04:48.981 : :Chapter 89
02:07:41.945 : :Chapter 91
02:11:23.667 : :Chapter 93
02:12:54.883 : :Chapter 95
02:14:49.247 : :Chapter 97
02:15:54.938 : :Chapter 99
02:22:27.622 : :Chapter 100






Жанр: фантастика, фэнтези, боевик, приключения
Режиссер: Джордж Лукас
В ролях: :Эван МакГрегор, Натали Портман, Хейден Кристенсен, Кристофер Ли, Сэмюэл Л. Джексон, Фрэнк Оз, Иэн МакДайармид, Пернилла Аугуст, Темуэра Моррисон, Дэниэл Логан
О фильме: Идёт третий год Войн клонов. Галактическая Республика, некогда бывшая спокойным и гармоничным государством, превратилась в поле битвы между армиями клонов, возглавляемых канцлером Палпатином, и армадами дроидов, которых ведёт граф Дуку, тёмный лорд ситхов. Республика медленно погружается во тьму. Лишь рыцари-джедаи, защитники мира и справедливости, могут противостоять злу, которое вскоре поглотит галактику. Но настоящая битва идёт в душе у молодого рыцаря-джедая Энакина, который разрывается между долгом джедая и любовью к своей жене, сенатору Падме Амидале. И от того, какое чувство в нём победит, зависит будущее всего мира.



Выпущено: США
Продолжительность: 3847 Кбит/сек
Озвучивание: Профессиональный (полное дублирование), Авторский (одноголосый закадровый)
Субтитры: русские, английские

Файл
Формат: MKV
Качество: BDRip 1080р
Видео: 1920x816, MPEG4/AVC, High@L4, 23,976 (24000/1001) кадра/сек, ~3847 Кбит/сек
Аудио: 48,0 КГц, AC3 Dolby Digital, 3/2 (L,C,R,l,r) + LFE ch, 448 kbps Профессиональный (полное дублирование) Blu-ray CEE
Аудио: 48,0 КГц, AC3 Dolby Digital, 3/2 (L,C,R,l,r) + LFE ch, 448 kbps Авторский (одноголосый закадровый) В.Королев
Аудио: 48,0 КГц, AC3 Dolby Digital, 2 ch, 192 kbps Комментарии
Аудио: 48,0 КГц, AC3 Dolby Digital, 2 ch, 192 kbps Комментарии
Аудио: 48,0 КГц, AC3 Dolby Digital, 3/2 (L,C,R,l,r) + LFE ch, 448 kbps Оригинальная аудиодорожка: английский
Общее
Уникальный идентификатор : 235450602120767363925373847966058422100 (0xB12222F1FB2B8B87B2B65815B11E1F54)
Полное имя : D:\Данияр\Раздача\Star Wars Collection.daniyar.esmuhanov\Звёздные войны Эпизод 3 Месть Ситхов (фантастика, фэнтези, боевик, приключения) 2005.mkv
Формат : Matroska
Версия формата : Version 4 / Version 2
Размер файла : 3,50 Гбайт
Продолжительность : 2 ч. 20 м.
Название фильма : Исходник: Blu-ray Disc | Автор рипа: Есмуханов Данияр Исламбекович | daniyar.esmuhanov
Программа кодирования : mkvmerge v8.3.0 ('Over the Horizon') 64bit
Библиотека кодирования : libebml v1.3.1 + libmatroska v1.4.2

Видео
Идентификатор : 1
Формат : AVC
Формат/Информация : Advanced Video Codec
Профиль формата : High@L4
Настройки формата : CABAC / 4 Ref Frames
Параметр CABAC формата : Да
Параметр RefFrames формата : 4 кадра
Идентификатор кодека : V_MPEG4/ISO/AVC
Продолжительность : 2 ч. 20 м.
Вид битрейта : Переменный
Переменный битрейт : 62,5 Мбит/сек | 1847 Кбит/сек | 3847 Кбит/сек
Битрейт : 3847 Кбит/сек
Ширина : 1920 пикселей
Высота : 816 пикселей
Соотношение сторон : 2,35:1
Режим частоты кадров : Постоянный
Частота кадров : 23,976 (24000/1001) кадра/сек
Цветовое пространство : YUV
Субдискретизация насыщенности : 4:2:0
Битовая глубина : 8 бит
Тип развёртки : Прогрессивная
Бит/(Пиксели*Кадры) : 0.049
Размер потока : 1,81 Гбайт (52%)
Заголовок : Исходник: Blu-ray Disc | Автор рипа: Есмуханов Данияр Исламбекович | daniyar.esmuhanov
Библиотека кодирования : x264 core 129 r2245 bc13772
Настройки программы : cabac=1 / ref=5 / deblock=1:0:0 / analyse=0x3:0x133 / me=umh / subme=9 / psy=1 / psy_rd=1.00:0.00 / mixed_ref=1 / me_range=16 / chroma_me=1 / trellis=2 / 8x8dct=1 / cqm=0 / deadzone=21,11 / fast_pskip=1 / chroma_qp_offset=-2 / threads=12 / lookahead_threads=2 / sliced_threads=0 / nr=0 / decimate=1 / interlaced=0 / bluray_compat=0 / constrained_intra=0 / bframes=8 / b_pyramid=1 / b_adapt=2 / b_bias=2 / direct=3 / weightb=1 / open_gop=0 / weightp=2 / keyint=240 / keyint_min=23 / scenecut=40 / intra_refresh=0 / rc_lookahead=60 / rc=2pass / mbtree=1 / bitrate=3847 / ratetol=1.0 / qcomp=0.60 / qpmin=10 / qpmax=51 / qpstep=4 / cplxblur=20.0 / qblur=0.5 / ip_ratio=1.40 / aq=1:1.00
Язык : English
Default : Да
Forced : Да

Аудио #1
Идентификатор : 2
Формат : AC-3
Формат/Информация : Audio Coding 3
Идентификатор кодека : A_AC3
Продолжительность : 2 ч. 20 м.
Вид битрейта : Постоянный
Битрейт : 448 Кбит/сек
Каналы : 6 каналов
Расположение каналов : Front: L C R, Side: L R, LFE
Частота : 48,0 КГц
Частота кадров : 31,250 кадров/сек (1536 SPF)
Битовая глубина : 16 бит
Метод сжатия : С потерями
Размер потока : 449 Мбайт (13%)
Заголовок : Профессиональный (полное дублирование) Blu-ray CEE
Язык : Russian
ServiceKind/String : Complete Main
Default : Да
Forced : Да

Аудио #2
Идентификатор : 3
Формат : AC-3
Формат/Информация : Audio Coding 3
Идентификатор кодека : A_AC3
Продолжительность : 2 ч. 20 м.
Вид битрейта : Постоянный
Битрейт : 448 Кбит/сек
Каналы : 6 каналов
Расположение каналов : Front: L C R, Side: L R, LFE
Частота : 48,0 КГц
Частота кадров : 31,250 кадров/сек (1536 SPF)
Битовая глубина : 16 бит
Метод сжатия : С потерями
Размер потока : 449 Мбайт (13%)
Заголовок : Авторский (одноголосый закадровый) В.Королев
Язык : Russian
ServiceKind/String : Complete Main
Default : Нет
Forced : Нет

Аудио #3
Идентификатор : 4
Формат : AC-3
Формат/Информация : Audio Coding 3
Идентификатор кодека : A_AC3
Продолжительность : 2 ч. 20 м.
Вид битрейта : Постоянный
Битрейт : 192 Кбит/сек
Каналы : 2 канала
Расположение каналов : Front: L R
Частота : 48,0 КГц
Частота кадров : 31,250 кадров/сек (1536 SPF)
Битовая глубина : 16 бит
Метод сжатия : С потерями
Размер потока : 192 Мбайт (5%)
Заголовок : Комментарии
Язык : English
ServiceKind/String : Complete Main
Default : Нет
Forced : Нет

Аудио #4
Идентификатор : 5
Формат : AC-3
Формат/Информация : Audio Coding 3
Идентификатор кодека : A_AC3
Продолжительность : 2 ч. 20 м.
Вид битрейта : Постоянный
Битрейт : 192 Кбит/сек
Каналы : 2 канала
Расположение каналов : Front: L R
Частота : 48,0 КГц
Частота кадров : 31,250 кадров/сек (1536 SPF)
Битовая глубина : 16 бит
Метод сжатия : С потерями
Размер потока : 192 Мбайт (5%)
Заголовок : Комментарии
Язык : English
ServiceKind/String : Complete Main
Default : Нет
Forced : Нет

Аудио #5
Идентификатор : 6
Формат : AC-3
Формат/Информация : Audio Coding 3
Идентификатор кодека : A_AC3
Продолжительность : 2 ч. 20 м.
Вид битрейта : Постоянный
Битрейт : 448 Кбит/сек
Каналы : 6 каналов
Расположение каналов : Front: L C R, Side: L R, LFE
Частота : 48,0 КГц
Частота кадров : 31,250 кадров/сек (1536 SPF)
Битовая глубина : 16 бит
Метод сжатия : С потерями
Размер потока : 449 Мбайт (13%)
Язык : English
ServiceKind/String : Complete Main
Default : Нет
Forced : Нет

Текст #1
Идентификатор : 7
Формат : UTF-8
Идентификатор кодека : S_TEXT/UTF8
Идентификатор кодека/Информация : UTF-8 Plain Text
Продолжительность : 1 м. 7 с.
Битрейт : 126 бит/сек
ElementCount : 16
Размер потока : 1,03 Кбайт (0%)
Заголовок : Форсированные
Язык : Russian
Default : Да
Forced : Да

Текст #2
Идентификатор : 8
Формат : UTF-8
Идентификатор кодека : S_TEXT/UTF8
Идентификатор кодека/Информация : UTF-8 Plain Text
Продолжительность : 2 ч. 16 м.
Битрейт : 57 бит/сек
ElementCount : 1093
Размер потока : 58,0 Кбайт (0%)
Заголовок : Blu-ray CEE
Язык : Russian
Default : Нет
Forced : Нет

Текст #3
Идентификатор : 9
Формат : UTF-8
Идентификатор кодека : S_TEXT/UTF8
Идентификатор кодека/Информация : UTF-8 Plain Text
Продолжительность : 2 ч. 13 м.
Битрейт : 65 бит/сек
ElementCount : 1122
Размер потока : 63,8 Кбайт (0%)
Заголовок : Tycoon Studio
Язык : Russian
Default : Нет
Forced : Нет

Текст #4
Идентификатор : 10
Формат : UTF-8
Идентификатор кодека : S_TEXT/UTF8
Идентификатор кодека/Информация : UTF-8 Plain Text
Продолжительность : 2 ч. 19 м.
Битрейт : 197 бит/сек
ElementCount : 2411
Размер потока : 202 Кбайт (0%)
Заголовок : Комментарии
Язык : Russian
Default : Нет
Forced : Нет

Текст #5
Идентификатор : 11
Формат : UTF-8
Идентификатор кодека : S_TEXT/UTF8
Идентификатор кодека/Информация : UTF-8 Plain Text
Продолжительность : 2 ч. 19 м.
Битрейт : 152 бит/сек
ElementCount : 1868
Размер потока : 156 Кбайт (0%)
Заголовок : Комментарии
Язык : Russian
Default : Нет
Forced : Нет

Текст #6
Идентификатор : 12
Формат : UTF-8
Идентификатор кодека : S_TEXT/UTF8
Идентификатор кодека/Информация : UTF-8 Plain Text
Продолжительность : 2 ч. 7 м.
Битрейт : 41 бит/сек
ElementCount : 1146
Размер потока : 38,5 Кбайт (0%)
Язык : English
Default : Нет
Forced : Нет

Меню
00:00:00.000 : :Chapter 01
00:00:23.523 : :Chapter 03
00:01:50.068 : :Chapter 05
00:08:28.132 : :Chapter 07
00:11:23.349 : :Chapter 09
00:18:33.737 : :Chapter 11
00:23:40.460 : :Chapter 13
00:27:37.697 : :Chapter 15
00:29:12.959 : :Chapter 17
00:33:18.913 : :Chapter 19
00:35:45.434 : :Chapter 21
00:36:47.997 : :Chapter 23
00:38:21.465 : :Chapter 25
00:40:17.456 : :Chapter 27
00:41:18.601 : :Chapter 29
00:42:41.058 : :Chapter 31
00:48:01.587 : :Chapter 33
00:50:20.517 : :Chapter 35
00:52:24.933 : :Chapter 37
00:53:58.026 : :Chapter 39
00:56:26.466 : :Chapter 41
01:00:56.277 : :Chapter 43
01:01:56.546 : :Chapter 45
01:05:26.047 : :Chapter 47
01:07:40.598 : :Chapter 49
01:09:06.976 : :Chapter 51
01:10:52.998 : :Chapter 53
01:15:19.223 : :Chapter 55
01:19:15.250 : :Chapter 57
01:20:37.457 : :Chapter 59
01:24:20.597 : :Chapter 61
01:27:56.521 : :Chapter 63
01:29:57.391 : :Chapter 65
01:33:40.406 : :Chapter 67
01:36:39.460 : :Chapter 69
01:38:35.534 : :Chapter 71
01:41:24.369 : :Chapter 73
01:42:57.004 : :Chapter 75
01:48:18.783 : :Chapter 77
01:50:59.444 : :Chapter 79
01:52:44.007 : :Chapter 81
01:54:22.855 : :Chapter 83
01:56:54.924 : :Chapter 85
02:02:20.875 : :Chapter 87
02:03:32.863 : :Chapter 89
02:05:19.637 : :Chapter 91
02:07:37.107 : :Chapter 93
02:08:57.062 : :Chapter 95
02:12:04.958 : :Chapter 97
02:13:47.352 : :Chapter 99
02:20:05.605 : :Chapter 100






Жанр: фантастика, фэнтези, боевик, приключения
Режиссер: Джордж Лукас
В ролях: :Марк Хэмилл, Харрисон Форд, Кэрри Фишер, Питер Кашинг, Алек Гиннесс, Энтони Дэниелс, Кенни Бейкер, Питер Мейхью, Фил Браун, Шила Фрейзер, Джек Пёрвис, Алекс МакКрайндл, Эдди Бирн
О фильме: Татуин. Планета-пустыня. Уже постаревший рыцарь Джедай Оби Ван Кеноби спасает молодого Люка Скайуокера, когда тот пытается отыскать пропавшего дроида. С этого момента Люк осознает свое истинное назначение: он один из рыцарей Джедай. В то время как гражданская война охватила галактику, а войска повстанцев ведут бои против сил злого Императора, к Люку и Оби Вану присоединяется отчаянный пилот-наемник Хан Соло, и в сопровождении двух дроидов, R2D2 и C-3PO, этот необычный отряд отправляется на поиски предводителя повстанцев — принцессы Леи. Героям предстоит отчаянная схватка с устрашающим Дартом Вейдером — правой рукой Императора и его секретным оружием — «Звездой Смерти».



Выпущено: США
Продолжительность: 02:04:44
Озвучивание: Профессиональный (полное дублирование), Авторский (одноголосый закадровый)
Субтитры: русские, английские

Файл
Формат: MKV
Качество: BDRip 1080р
Видео: 1920x816, MPEG4/AVC, High@L4, 23,976 (24000/1001) кадра/сек, ~3853 Кбит/сек
Аудио: 48,0 КГц, AC3 Dolby Digital, 3/2 (L,C,R,l,r) + LFE ch, 448 kbps Профессиональный (полное дублирование) Blu-ray CEE
Аудио: 48,0 КГц, AC3 Dolby Digital, 3/2 (L,C,R,l,r) + LFE ch, 448 kbps Профессиональный (полное дублирование) Советский
Аудио: 48,0 КГц, AC3 Dolby Digital, 3/2 (L,C,R,l,r) + LFE ch, 448 kbps Профессиональный (полное дублирование) ОРТ | Первый канал
Аудио: 48,0 КГц, AC3 Dolby Digital, 2 ch, 192 kbps Авторский (одноголосый закадровый) А.Михалев
Аудио: 48,0 КГц, AC3 Dolby Digital, 2 ch, 192 kbps Комментарии
Аудио: 48,0 КГц, AC3 Dolby Digital, 2 ch, 192 kbps Комментарии
Аудио: 48,0 КГц, AC3 Dolby Digital, 3/2 (L,C,R,l,r) + LFE ch, 448 kbps Оригинальная аудиодорожка: английский
Общее
Уникальный идентификатор : 254762919242362214874995429629315156707 (0xBFA98DB171C6B2B68D7161E39D628AE3)
Полное имя : D:\Данияр\Раздача\Star Wars Collection.daniyar.esmuhanov\Звёздные войны Эпизод 4 Новая надежда (фантастика, фэнтези, боевик, приключения) 1977.mkv
Формат : Matroska
Версия формата : Version 4 / Version 2
Размер файла : 3,68 Гбайт
Продолжительность : 2 ч. 4 м.
Название фильма : Исходник: Blu-ray Disc | Автор рипа: Есмуханов Данияр Исламбекович | daniyar.esmuhanov
Программа кодирования : mkvmerge v8.3.0 ('Over the Horizon') 64bit
Библиотека кодирования : libebml v1.3.1 + libmatroska v1.4.2

Видео
Идентификатор : 1
Формат : AVC
Формат/Информация : Advanced Video Codec
Профиль формата : High@L4
Настройки формата : CABAC / 4 Ref Frames
Параметр CABAC формата : Да
Параметр RefFrames формата : 4 кадра
Идентификатор кодека : V_MPEG4/ISO/AVC
Продолжительность : 2 ч. 4 м.
Вид битрейта : Переменный
Переменный битрейт : 62,5 Мбит/сек | 1853 Кбит/сек | 3853 Кбит/сек
Битрейт : 3853 Кбит/сек
Ширина : 1920 пикселей
Высота : 816 пикселей
Соотношение сторон : 2,35:1
Режим частоты кадров : Постоянный
Частота кадров : 23,976 (24000/1001) кадра/сек
Цветовое пространство : YUV
Субдискретизация насыщенности : 4:2:0
Битовая глубина : 8 бит
Тип развёртки : Прогрессивная
Бит/(Пиксели*Кадры) : 0.049
Размер потока : 1,61 Гбайт (44%)
Заголовок : Исходник: Blu-ray Disc | Автор рипа: Есмуханов Данияр Исламбекович | daniyar.esmuhanov
Библиотека кодирования : x264 core 129 r2245 bc13772
Настройки программы : cabac=1 / ref=5 / deblock=1:0:0 / analyse=0x3:0x133 / me=umh / subme=9 / psy=1 / psy_rd=1.00:0.00 / mixed_ref=1 / me_range=16 / chroma_me=1 / trellis=2 / 8x8dct=1 / cqm=0 / deadzone=21,11 / fast_pskip=1 / chroma_qp_offset=-2 / threads=12 / lookahead_threads=2 / sliced_threads=0 / nr=0 / decimate=1 / interlaced=0 / bluray_compat=0 / constrained_intra=0 / bframes=3 / b_pyramid=1 / b_adapt=2 / b_bias=2 / direct=3 / weightb=1 / open_gop=0 / weightp=2 / keyint=240 / keyint_min=23 / scenecut=40 / intra_refresh=0 / rc_lookahead=60 / rc=2pass / mbtree=1 / bitrate=3853 / ratetol=1.0 / qcomp=0.60 / qpmin=0 / qpmax=69 / qpstep=4 / cplxblur=20.0 / qblur=0.5 / ip_ratio=1.40 / aq=1:1.00
Язык : English
Default : Да
Forced : Да

Аудио #1
Идентификатор : 2
Формат : AC-3
Формат/Информация : Audio Coding 3
Идентификатор кодека : A_AC3
Продолжительность : 2 ч. 4 м.
Вид битрейта : Постоянный
Битрейт : 448 Кбит/сек
Каналы : 6 каналов
Расположение каналов : Front: L C R, Side: L R, LFE
Частота : 48,0 КГц
Частота кадров : 31,250 кадров/сек (1536 SPF)
Битовая глубина : 16 бит
Метод сжатия : С потерями
Размер потока : 400 Мбайт (11%)
Заголовок : Профессиональный (полное дублирование) Blu-ray CEE
Язык : Russian
ServiceKind/String : Complete Main
Default : Да
Forced : Да

Аудио #2
Идентификатор : 3
Формат : AC-3
Формат/Информация : Audio Coding 3
Идентификатор кодека : A_AC3
Продолжительность : 2 ч. 4 м.
Вид битрейта : Постоянный
Битрейт : 448 Кбит/сек
Каналы : 6 каналов
Расположение каналов : Front: L C R, Side: L R, LFE
Частота : 48,0 КГц
Частота кадров : 31,250 кадров/сек (1536 SPF)
Битовая глубина : 16 бит
Метод сжатия : С потерями
Размер потока : 400 Мбайт (11%)
Заголовок : Профессиональный (полное дублирование) Советский
Язык : Russian
ServiceKind/String : Complete Main
Default : Нет
Forced : Нет

Аудио #3
Идентификатор : 4
Формат : AC-3
Формат/Информация : Audio Coding 3
Идентификатор кодека : A_AC3
Продолжительность : 2 ч. 4 м.
Вид битрейта : Постоянный
Битрейт : 448 Кбит/сек
Каналы : 6 каналов
Расположение каналов : Front: L C R, Side: L R, LFE
Частота : 48,0 КГц
Частота кадров : 31,250 кадров/сек (1536 SPF)
Битовая глубина : 16 бит
Метод сжатия : С потерями
Размер потока : 400 Мбайт (11%)
Заголовок : Профессиональный (полное дублирование) ОРТ | Первый канал
Язык : Russian
ServiceKind/String : Complete Main
Default : Нет
Forced : Нет

Аудио #4
Идентификатор : 5
Формат : AC-3
Формат/Информация : Audio Coding 3
Идентификатор кодека : A_AC3
Продолжительность : 2 ч. 4 м.
Вид битрейта : Постоянный
Битрейт : 192 Кбит/сек
Каналы : 2 канала
Расположение каналов : Front: L R
Частота : 48,0 КГц
Частота кадров : 31,250 кадров/сек (1536 SPF)
Битовая глубина : 16 бит
Метод сжатия : С потерями
Размер потока : 171 Мбайт (5%)
Заголовок : Авторский (одноголосый закадровый) А.Михалев
Язык : Russian
ServiceKind/String : Complete Main
Default : Нет
Forced : Нет

Аудио #5
Идентификатор : 6
Формат : AC-3
Формат/Информация : Audio Coding 3
Идентификатор кодека : A_AC3
Продолжительность : 2 ч. 4 м.
Вид битрейта : Постоянный
Битрейт : 192 Кбит/сек
Каналы : 2 канала
Расположение каналов : Front: L R
Частота : 48,0 КГц
Частота кадров : 31,250 кадров/сек (1536 SPF)
Битовая глубина : 16 бит
Метод сжатия : С потерями
Размер потока : 171 Мбайт (5%)
Заголовок : Комментарии
Язык : English
ServiceKind/String : Complete Main
Default : Нет
Forced : Нет

Аудио #6
Идентификатор : 7
Формат : AC-3
Формат/Информация : Audio Coding 3
Идентификатор кодека : A_AC3
Продолжительность : 2 ч. 4 м.
Вид битрейта : Постоянный
Битрейт : 192 Кбит/сек
Каналы : 2 канала
Расположение каналов : Front: L R
Частота : 48,0 КГц
Частота кадров : 31,250 кадров/сек (1536 SPF)
Битовая глубина : 16 бит
Метод сжатия : С потерями
Размер потока : 171 Мбайт (5%)
Заголовок : Комментарии
Язык : English
ServiceKind/String : Complete Main
Default : Нет
Forced : Нет

Аудио #7
Идентификатор : 8
Формат : AC-3
Формат/Информация : Audio Coding 3
Идентификатор кодека : A_AC3
Продолжительность : 2 ч. 4 м.
Вид битрейта : Постоянный
Битрейт : 448 Кбит/сек
Каналы : 6 каналов
Расположение каналов : Front: L C R, Side: L R, LFE
Частота : 48,0 КГц
Частота кадров : 31,250 кадров/сек (1536 SPF)
Битовая глубина : 16 бит
Метод сжатия : С потерями
Размер потока : 400 Мбайт (11%)
Язык : English
ServiceKind/String : Complete Main
Default : Нет
Forced : Нет

Текст #1
Идентификатор : 9
Формат : UTF-8
Идентификатор кодека : S_TEXT/UTF8
Идентификатор кодека/Информация : UTF-8 Plain Text
Продолжительность : 4 м. 8 с.
Битрейт : 62 бит/сек
ElementCount : 30
Размер потока : 1,89 Кбайт (0%)
Заголовок : Форсированные
Язык : Russian
Default : Да
Forced : Да

Текст #2
Идентификатор : 10
Формат : UTF-8
Идентификатор кодека : S_TEXT/UTF8
Идентификатор кодека/Информация : UTF-8 Plain Text
Продолжительность : 53 м. 45 с.
Битрейт : 7 бит/сек
ElementCount : 45
Размер потока : 2,99 Кбайт (0%)
Заголовок : Форсированные
Язык : Russian
Default : Нет
Forced : Нет

Текст #3
Идентификатор : 11
Формат : UTF-8
Идентификатор кодека : S_TEXT/UTF8
Идентификатор кодека/Информация : UTF-8 Plain Text
Продолжительность : 9 м. 58 с.
Битрейт : 83 бит/сек
ElementCount : 74
Размер потока : 6,13 Кбайт (0%)
Заголовок : Форсированные
Язык : Russian
Default : Нет
Forced : Нет

Текст #4
Идентификатор : 12
Формат : UTF-8
Идентификатор кодека : S_TEXT/UTF8
Идентификатор кодека/Информация : UTF-8 Plain Text
Продолжительность : 2 ч. 4 м.
Битрейт : 98 бит/сек
ElementCount : 1343
Размер потока : 89,4 Кбайт (0%)
Заголовок : Blu-ray CEE
Язык : Russian
Default : Нет
Forced : Нет

Текст #5
Идентификатор : 13
Формат : UTF-8
Идентификатор кодека : S_TEXT/UTF8
Идентификатор кодека/Информация : UTF-8 Plain Text
Продолжительность : 2 ч. 0 м.
Битрейт : 102 бит/сек
ElementCount : 1724
Размер потока : 90,6 Кбайт (0%)
Заголовок : Tycoon Studio
Язык : Russian
Default : Нет
Forced : Нет

Текст #6
Идентификатор : 14
Формат : UTF-8
Идентификатор кодека : S_TEXT/UTF8
Идентификатор кодека/Информация : UTF-8 Plain Text
Продолжительность : 2 ч. 4 м.
Битрейт : 160 бит/сек
ElementCount : 1769
Размер потока : 146 Кбайт (0%)
Заголовок : Комментарии
Язык : Russian
Default : Нет
Forced : Нет

Текст #7
Идентификатор : 15
Формат : UTF-8
Идентификатор кодека : S_TEXT/UTF8
Идентификатор кодека/Информация : UTF-8 Plain Text
Продолжительность : 2 ч. 4 м.
Битрейт : 178 бит/сек
ElementCount : 1761
Размер потока : 163 Кбайт (0%)
Заголовок : Комментарии
Язык : Russian
Default : Нет
Forced : Нет

Текст #8
Идентификатор : 16
Формат : UTF-8
Идентификатор кодека : S_TEXT/UTF8
Идентификатор кодека/Информация : UTF-8 Plain Text
Продолжительность : 2 ч. 1 м.
Битрейт : 58 бит/сек
ElementCount : 1302
Размер потока : 52,2 Кбайт (0%)
Язык : English
Default : Нет
Forced : Нет

Меню
00:00:00.000 : :Chapter 01
00:00:21.021 : :Chapter 03
00:01:53.404 : :Chapter 05
00:04:52.792 : :Chapter 07
00:07:28.281 : :Chapter 09
00:08:54.867 : :Chapter 11
00:11:21.389 : :Chapter 13
00:15:40.230 : :Chapter 15
00:19:40.178 : :Chapter 17
00:23:33.203 : :Chapter 19
00:25:32.614 : :Chapter 21
00:27:45.497 : :Chapter 23
00:29:12.709 : :Chapter 25
00:32:34.077 : :Chapter 27
00:34:53.007 : :Chapter 29
00:36:54.211 : :Chapter 31
00:39:05.634 : :Chapter 33
00:41:42.291 : :Chapter 35
00:42:31.548 : :Chapter 37
00:44:51.730 : :Chapter 39
00:47:52.619 : :Chapter 41
00:49:57.994 : :Chapter 43
00:51:13.695 : :Chapter 45
00:52:40.740 : :Chapter 47
00:54:12.332 : :Chapter 49
00:56:59.916 : :Chapter 51
00:59:14.175 : :Chapter 53
01:03:10.828 : :Chapter 55
01:06:16.472 : :Chapter 57
01:08:21.972 : :Chapter 59
01:12:32.389 : :Chapter 61
01:14:12.656 : :Chapter 63
01:17:13.712 : :Chapter 65
01:19:09.327 : :Chapter 67
01:21:29.384 : :Chapter 69
01:25:00.220 : :Chapter 71
01:27:02.091 : :Chapter 73
01:29:56.182 : :Chapter 75
01:33:48.456 : :Chapter 77
01:36:39.877 : :Chapter 79
01:38:06.755 : :Chapter 81
01:39:37.513 : :Chapter 83
01:41:24.995 : :Chapter 85
01:42:37.401 : :Chapter 87
01:45:02.629 : :Chapter 89
01:49:42.784 : :Chapter 91
01:55:18.911 : :Chapter 93
01:57:47.393 : :Chapter 95
01:58:28.518 : :Chapter 97
02:00:14.498 : :Chapter 99
02:04:44.476 : :Chapter 100






Жанр: фантастика, фэнтези, боевик, приключения
Режиссер: Ирвин Кершнер
В ролях: :Марк Хэмилл, Харрисон Форд, Кэрри Фишер, Билли Ди Уильямс, Энтони Дэниелс, Дэвид Праус, Питер Мейхью, Кенни Бейкер, Фрэнк Оз, Алек Гиннесс
О фильме: Борьба за Галактику обостряется в пятом эпизоде космической саги. Войска Императора начинают массированную атаку на повстанцев и их союзников.

Хан Соло и принцесса Лейя укрываются в Заоблачном Городе, в котором их и захватывает Дарт Вейдер, в то время как Люк Скайуокер находится на таинственной планете джунглей Дагоба.

Там Мастер — джедай Йода обучает молодого рыцаря навыкам обретения Силы. Люк даже не предполагает, как скоро ему придется воспользоваться знаниями старого Мастера: впереди битва с превосходящими силами Императора и смертельный поединок с Дартом Вейдером.



Выпущено: США
Продолжительность: 02:07:21
Озвучивание: Профессиональный (полное дублирование)
Субтитры: русские, английские

Файл
Формат: MKV
Качество: BDRip 1080р
Видео: 1920x816, MPEG4/AVC, High@L4, 23,976 (24000/1001) кадра/сек, ~3817 Кбит/сек
Аудио: 48,0 КГц, AC3 Dolby Digital, 3/2 (L,C,R,l,r) + LFE ch, 448 kbps Профессиональный (полное дублирование) Blu-ray CEE
Аудио: 48,0 КГц, AC3 Dolby Digital, 3/2 (L,C,R,l,r) + LFE ch, 448 kbps Профессиональный (полное дублирование) ОРТ | Первый канал
Аудио: 48,0 КГц, AC3 Dolby Digital, 2 ch, 192 kbps Комментарии
Аудио: 48,0 КГц, AC3 Dolby Digital, 2 ch, 192 kbps Комментарии
Аудио: 48,0 КГц, AC3 Dolby Digital, 3/2 (L,C,R,l,r) + LFE ch, 448 kbps Оригинальная аудиодорожка: английский
Общее
Уникальный идентификатор : 188575272606736881467427802537259564761 (0x8DDE46C4037ACB21B619FB47AB69FED9)
Полное имя : D:\Данияр\Раздача\Star Wars Collection.daniyar.esmuhanov\Звёздные войны Эпизод 5 Империя наносит ответный удар (фантастика, фэнтези, боевик, приключения) 1980.mkv
Формат : Matroska
Версия формата : Version 4 / Version 2
Размер файла : 3,16 Гбайт
Продолжительность : 2 ч. 7 м.
Название фильма : Исходник: Blu-ray Disc | Автор рипа: Есмуханов Данияр Исламбекович | daniyar.esmuhanov
Программа кодирования : mkvmerge v8.3.0 ('Over the Horizon') 64bit
Библиотека кодирования : libebml v1.3.1 + libmatroska v1.4.2

Видео
Идентификатор : 1
Формат : AVC
Формат/Информация : Advanced Video Codec
Профиль формата : High@L4
Настройки формата : CABAC / 5 Ref Frames
Параметр CABAC формата : Да
Параметр RefFrames формата : 5 кадров
Идентификатор кодека : V_MPEG4/ISO/AVC
Продолжительность : 2 ч. 7 м.
Вид битрейта : Переменный
Переменный битрейт : 62,5 Мбит/сек | 1817 Кбит/сек | 3817 Кбит/сек
Битрейт : 3817 Кбит/сек
Ширина : 1920 пикселей
Высота : 816 пикселей
Соотношение сторон : 2,35:1
Режим частоты кадров : Постоянный
Частота кадров : 23,976 (24000/1001) кадра/сек
Цветовое пространство : YUV
Субдискретизация насыщенности : 4:2:0
Битовая глубина : 8 бит
Тип развёртки : Прогрессивная
Бит/(Пиксели*Кадры) : 0.048
Размер потока : 1,62 Гбайт (51%)
Заголовок : Исходник: Blu-ray Disc | Автор рипа: Есмуханов Данияр Исламбекович | daniyar.esmuhanov
Библиотека кодирования : x264 core 129 r2245 bc13772
Настройки программы : cabac=1 / ref=5 / deblock=1:0:0 / analyse=0x3:0x133 / me=umh / subme=9 / psy=1 / psy_rd=1.00:0.00 / mixed_ref=1 / me_range=16 / chroma_me=1 / trellis=2 / 8x8dct=1 / cqm=0 / deadzone=21,11 / fast_pskip=1 / chroma_qp_offset=-2 / threads=12 / lookahead_threads=2 / sliced_threads=0 / nr=0 / decimate=1 / interlaced=0 / bluray_compat=0 / constrained_intra=0 / bframes=8 / b_pyramid=2 / b_adapt=2 / b_bias=0 / direct=3 / weightb=1 / open_gop=0 / weightp=2 / keyint=240 / keyint_min=23 / scenecut=40 / intra_refresh=0 / rc_lookahead=60 / rc=2pass / mbtree=1 / bitrate=3817 / ratetol=1.0 / qcomp=0.60 / qpmin=10 / qpmax=51 / qpstep=4 / cplxblur=20.0 / qblur=0.5 / ip_ratio=1.40 / aq=1:1.00
Язык : English
Default : Да
Forced : Да

Аудио #1
Идентификатор : 2
Формат : AC-3
Формат/Информация : Audio Coding 3
Идентификатор кодека : A_AC3
Продолжительность : 2 ч. 7 м.
Вид битрейта : Постоянный
Битрейт : 448 Кбит/сек
Каналы : 6 каналов
Расположение каналов : Front: L C R, Side: L R, LFE
Частота : 48,0 КГц
Частота кадров : 31,250 кадров/сек (1536 SPF)
Битовая глубина : 16 бит
Метод сжатия : С потерями
Размер потока : 408 Мбайт (13%)
Заголовок : Профессиональный (полное дублирование) Blu-ray CEE
Язык : Russian
ServiceKind/String : Complete Main
Default : Да
Forced : Да

Аудио #2
Идентификатор : 3
Формат : AC-3
Формат/Информация : Audio Coding 3
Идентификатор кодека : A_AC3
Продолжительность : 2 ч. 7 м.
Вид битрейта : Постоянный
Битрейт : 448 Кбит/сек
Каналы : 6 каналов
Расположение каналов : Front: L C R, Side: L R, LFE
Частота : 48,0 КГц
Частота кадров : 31,250 кадров/сек (1536 SPF)
Битовая глубина : 16 бит
Метод сжатия : С потерями
Размер потока : 408 Мбайт (13%)
Заголовок : Профессиональный (полное дублирование) ОРТ | Первый канал
Язык : Russian
ServiceKind/String : Complete Main
Default : Нет
Forced : Нет

Аудио #3
Идентификатор : 4
Формат : AC-3
Формат/Информация : Audio Coding 3
Идентификатор кодека : A_AC3
Продолжительность : 2 ч. 7 м.
Вид битрейта : Постоянный
Битрейт : 192 Кбит/сек
Каналы : 2 канала
Расположение каналов : Front: L R
Частота : 48,0 КГц
Частота кадров : 31,250 кадров/сек (1536 SPF)
Битовая глубина : 16 бит
Метод сжатия : С потерями
Размер потока : 175 Мбайт (5%)
Заголовок : Комментарии
Язык : English
ServiceKind/String : Complete Main
Default : Нет
Forced : Нет

Аудио #4
Идентификатор : 5
Формат : AC-3
Формат/Информация : Audio Coding 3
Идентификатор кодека : A_AC3
Продолжительность : 2 ч. 7 м.
Вид битрейта : Постоянный
Битрейт : 192 Кбит/сек
Каналы : 2 канала
Расположение каналов : Front: L R
Частота : 48,0 КГц
Частота кадров : 31,250 кадров/сек (1536 SPF)
Битовая глубина : 16 бит
Метод сжатия : С потерями
Размер потока : 175 Мбайт (5%)
Заголовок : Комментарии
Язык : English
ServiceKind/String : Complete Main
Default : Нет
Forced : Нет

Аудио #5
Идентификатор : 6
Формат : AC-3
Формат/Информация : Audio Coding 3
Идентификатор кодека : A_AC3
Продолжительность : 2 ч. 7 м.
Вид битрейта : Постоянный
Битрейт : 448 Кбит/сек
Каналы : 6 каналов
Расположение каналов : Front: L C R, Side: L R, LFE
Частота : 48,0 КГц
Частота кадров : 31,250 кадров/сек (1536 SPF)
Битовая глубина : 16 бит
Метод сжатия : С потерями
Размер потока : 408 Мбайт (13%)
Язык : English
ServiceKind/String : Complete Main
Default : Нет
Forced : Нет

Текст #1
Идентификатор : 7
Формат : UTF-8
Идентификатор кодека : S_TEXT/UTF8
Идентификатор кодека/Информация : UTF-8 Plain Text
Продолжительность : 1 м. 7 с.
Битрейт : 127 бит/сек
ElementCount : 13
Размер потока : 1,05 Кбайт (0%)
Заголовок : Форсированные
Язык : Russian
Default : Да
Forced : Да

Текст #2
Идентификатор : 8
Формат : UTF-8
Идентификатор кодека : S_TEXT/UTF8
Идентификатор кодека/Информация : UTF-8 Plain Text
Продолжительность : 2 ч. 0 м.
Битрейт : 78 бит/сек
ElementCount : 1167
Размер потока : 69,1 Кбайт (0%)
Заголовок : Blu-ray CEE
Язык : Russian
Default : Нет
Forced : Нет

Текст #3
Идентификатор : 9
Формат : UTF-8
Идентификатор кодека : S_TEXT/UTF8
Идентификатор кодека/Информация : UTF-8 Plain Text
Продолжительность : 2 ч. 1 м.
Битрейт : 75 бит/сек
ElementCount : 1485
Размер потока : 67,7 Кбайт (0%)
Заголовок : Tycoon Studio
Язык : Russian
Default : Нет
Forced : Нет

Текст #4
Идентификатор : 10
Формат : UTF-8
Идентификатор кодека : S_TEXT/UTF8
Идентификатор кодека/Информация : UTF-8 Plain Text
Продолжительность : 2 ч. 7 м.
Битрейт : 171 бит/сек
ElementCount : 2031
Размер потока : 159 Кбайт (0%)
Заголовок : Комментарии
Язык : Russian
Default : Нет
Forced : Нет

Текст #5
Идентификатор : 11
Формат : UTF-8
Идентификатор кодека : S_TEXT/UTF8
Идентификатор кодека/Информация : UTF-8 Plain Text
Продолжительность : 2 ч. 7 м.
Битрейт : 163 бит/сек
ElementCount : 1858
Размер потока : 152 Кбайт (0%)
Заголовок : Комментарии
Язык : Russian
Default : Нет
Forced : Нет

Текст #6
Идентификатор : 12
Формат : UTF-8
Идентификатор кодека : S_TEXT/UTF8
Идентификатор кодека/Информация : UTF-8 Plain Text
Продолжительность : 2 ч. 3 м.
Битрейт : 42 бит/сек
ElementCount : 1134
Размер потока : 38,9 Кбайт (0%)
Язык : English
Default : Нет
Forced : Нет

Меню
00:00:00.000 : :Chapter 01
00:00:21.104 : :Chapter 03
00:01:54.864 : :Chapter 05
00:04:15.838 : :Chapter 07
00:08:19.248 : :Chapter 09
00:10:15.948 : :Chapter 11
00:12:57.735 : :Chapter 13
00:15:13.537 : :Chapter 15
00:16:29.697 : :Chapter 17
00:18:19.973 : :Chapter 19
00:19:45.392 : :Chapter 21
00:21:22.698 : :Chapter 23
00:23:57.727 : :Chapter 25
00:25:49.422 : :Chapter 27
00:29:29.350 : :Chapter 29
00:31:29.220 : :Chapter 31
00:33:37.682 : :Chapter 33
00:35:55.152 : :Chapter 35
00:36:51.250 : :Chapter 37
00:38:33.561 : :Chapter 39
00:40:36.725 : :Chapter 41
00:44:20.074 : :Chapter 43
00:46:08.390 : :Chapter 45
00:50:13.385 : :Chapter 47
00:52:16.633 : :Chapter 49
00:54:20.256 : :Chapter 51
00:57:40.290 : :Chapter 53
01:00:57.945 : :Chapter 55
01:03:42.777 : :Chapter 57
01:05:46.108 : :Chapter 59
01:08:12.171 : :Chapter 61
01:13:24.233 : :Chapter 63
01:16:39.886 : :Chapter 65
01:18:24.116 : :Chapter 67
01:19:45.864 : :Chapter 69
01:22:55.929 : :Chapter 71
01:25:38.550 : :Chapter 73
01:27:51.265 : :Chapter 75
01:30:28.673 : :Chapter 77
01:34:39.799 : :Chapter 79
01:38:28.902 : :Chapter 81
01:40:26.145 : :Chapter 83
01:41:46.099 : :Chapter 85
01:43:51.433 : :Chapter 87
01:47:02.541 : :Chapter 89
01:49:21.471 : :Chapter 91
01:53:41.689 : :Chapter 93
01:56:14.842 : :Chapter 95
01:59:46.596 : :Chapter 97
02:01:58.227 : :Chapter 99
02:07:21.300 : :Chapter 100






Жанр: фантастика, фэнтези, боевик, приключения
Режиссер: Ричард Маркуэнд
В ролях: :Марк Хэмилл, Харрисон Форд, Кэрри Фишер, Билли Ди Уильямс, Энтони Дэниелс, Питер Мейхью, Себастьян Шоу, Иен МакДермид, Фрэнк Оз, Джеймс Эрл Джонс
О фильме: В шестом эпизоде «Звездных войн» Дарт Вейдер создает вторую «Звезду Смерти». Он объединяет все силы зла, чтобы с помощью этого смертоносного оружия нанести последний сокрушительный удар по повстанцам и их союзникам.

Люк Скайуокер вместе с принцессой Лейей и верными дроидами R2D2 и C-3PO отправляется спасать своего друга Хана Соло, который попал в плен к отвратительному Джаббе Хатту — могущественному повелителю преступников.

Повстанцы высаживаются на планету Эндор, чтобы оттуда вместе с Люком и его отрядом предпринять последнюю атаку на Имперский флот, атаку, от которой зависит судьба Галактики. В этом эпизоде Люк Скайуокер и Дарт Вейдер встречаются в последний раз… ибо из поединка между отцом и сыном живым выйдет только один…



Выпущено: США
Продолжительность: 02:14:47
Озвучивание: Профессиональный (полное дублирование)
Субтитры: русские, английские

Файл
Формат: MKV
Качество: BDRip 1080р
Видео: 1920x816, MPEG4/AVC, High@L4, 23,976 (24000/1001) кадра/сек, ~3814 Кбит/сек
Аудио: 48,0 КГц, AC3 Dolby Digital, 3/2 (L,C,R,l,r) + LFE ch, 448 kbps Профессиональный (полное дублирование) Blu-ray CEE
Аудио: 48,0 КГц, AC3 Dolby Digital, 3/2 (L,C,R,l,r) + LFE ch, 448 kbps Профессиональный (полное дублирование) ОРТ | Первый канал
Аудио: 48,0 КГц, AC3 Dolby Digital, 2 ch, 192 kbps Комментарии
Аудио: 48,0 КГц, AC3 Dolby Digital, 2 ch, 192 kbps Комментарии
Аудио: 48,0 КГц, AC3 Dolby Digital, 3/2 (L,C,R,l,r) + LFE ch, 448 kbps Оригинальная аудиодорожка: английский
Общее
Уникальный идентификатор : 200234686032921693925484023276283547504 (0x96A3CC3AE3A3577E8CD578432A5ACF70)
Полное имя : D:\Данияр\Раздача\Star Wars Collection.daniyar.esmuhanov\Звёздные войны Эпизод 6 Возвращение Джедая (фантастика, фэнтези, боевик, приключения) 1983.mkv
Формат : Matroska
Версия формата : Version 4 / Version 2
Размер файла : 3,34 Гбайт
Продолжительность : 2 ч. 14 м.
Название фильма : Исходник: Blu-ray Disc | Автор рипа: Есмуханов Данияр Исламбекович | daniyar.esmuhanov
Программа кодирования : mkvmerge v8.3.0 ('Over the Horizon') 64bit
Библиотека кодирования : libebml v1.3.1 + libmatroska v1.4.2

Видео
Идентификатор : 1
Формат : AVC
Формат/Информация : Advanced Video Codec
Профиль формата : High@L4
Настройки формата : CABAC / 4 Ref Frames
Параметр CABAC формата : Да
Параметр RefFrames формата : 4 кадра
Идентификатор кодека : V_MPEG4/ISO/AVC
Продолжительность : 2 ч. 14 м.
Вид битрейта : Переменный
Переменный битрейт : 62,5 Мбит/сек | 1814 Кбит/сек | 3814 Кбит/сек
Битрейт : 3814 Кбит/сек
Ширина : 1920 пикселей
Высота : 816 пикселей
Соотношение сторон : 2,35:1
Режим частоты кадров : Постоянный
Частота кадров : 23,976 (24000/1001) кадра/сек
Цветовое пространство : YUV
Субдискретизация насыщенности : 4:2:0
Битовая глубина : 8 бит
Тип развёртки : Прогрессивная
Бит/(Пиксели*Кадры) : 0.048
Размер потока : 1,71 Гбайт (51%)
Заголовок : Исходник: Blu-ray Disc | Автор рипа: Есмуханов Данияр Исламбекович | daniyar.esmuhanov
Библиотека кодирования : x264 core 129 r2245 bc13772
Настройки программы : cabac=1 / ref=5 / deblock=1:0:0 / analyse=0x3:0x133 / me=umh / subme=9 / psy=1 / psy_rd=1.00:0.00 / mixed_ref=1 / me_range=16 / chroma_me=1 / trellis=2 / 8x8dct=1 / cqm=0 / deadzone=21,11 / fast_pskip=1 / chroma_qp_offset=-2 / threads=12 / lookahead_threads=2 / sliced_threads=0 / nr=0 / decimate=1 / interlaced=0 / bluray_compat=0 / constrained_intra=0 / bframes=3 / b_pyramid=1 / b_adapt=2 / b_bias=2 / direct=3 / weightb=1 / open_gop=0 / weightp=2 / keyint=240 / keyint_min=23 / scenecut=40 / intra_refresh=0 / rc_lookahead=60 / rc=2pass / mbtree=1 / bitrate=3814 / ratetol=1.0 / qcomp=0.60 / qpmin=0 / qpmax=69 / qpstep=4 / cplxblur=20.0 / qblur=0.5 / ip_ratio=1.40 / aq=1:1.00
Язык : English
Default : Да
Forced : Да

Аудио #1
Идентификатор : 2
Формат : AC-3
Формат/Информация : Audio Coding 3
Идентификатор кодека : A_AC3
Продолжительность : 2 ч. 14 м.
Вид битрейта : Постоянный
Битрейт : 448 Кбит/сек
Каналы : 6 каналов
Расположение каналов : Front: L C R, Side: L R, LFE
Частота : 48,0 КГц
Частота кадров : 31,250 кадров/сек (1536 SPF)
Битовая глубина : 16 бит
Метод сжатия : С потерями
Размер потока : 432 Мбайт (13%)
Заголовок : Профессиональный (полное дублирование) Blu-ray CEE
Язык : Russian
ServiceKind/String : Complete Main
Default : Да
Forced : Да

Аудио #2
Идентификатор : 3
Формат : AC-3
Формат/Информация : Audio Coding 3
Идентификатор кодека : A_AC3
Продолжительность : 2 ч. 14 м.
Вид битрейта : Постоянный
Битрейт : 448 Кбит/сек
Каналы : 6 каналов
Расположение каналов : Front: L C R, Side: L R, LFE
Частота : 48,0 КГц
Частота кадров : 31,250 кадров/сек (1536 SPF)
Битовая глубина : 16 бит
Метод сжатия : С потерями
Размер потока : 432 Мбайт (13%)
Заголовок : Профессиональный (полное дублирование) ОРТ | Первый канал
Язык : Russian
ServiceKind/String : Complete Main
Default : Нет
Forced : Нет

Аудио #3
Идентификатор : 4
Формат : AC-3
Формат/Информация : Audio Coding 3
Идентификатор кодека : A_AC3
Продолжительность : 2 ч. 14 м.
Вид битрейта : Постоянный
Битрейт : 192 Кбит/сек
Каналы : 2 канала
Расположение каналов : Front: L R
Частота : 48,0 КГц
Частота кадров : 31,250 кадров/сек (1536 SPF)
Битовая глубина : 16 бит
Метод сжатия : С потерями
Размер потока : 185 Мбайт (5%)
Заголовок : Комментарии
Язык : English
ServiceKind/String : Complete Main
Default : Нет
Forced : Нет

Аудио #4
Идентификатор : 5
Формат : AC-3
Формат/Информация : Audio Coding 3
Идентификатор кодека : A_AC3
Продолжительность : 2 ч. 14 м.
Вид битрейта : Постоянный
Битрейт : 192 Кбит/сек
Каналы : 2 канала
Расположение каналов : Front: L R
Частота : 48,0 КГц
Частота кадров : 31,250 кадров/сек (1536 SPF)
Битовая глубина : 16 бит
Метод сжатия : С потерями
Размер потока : 185 Мбайт (5%)
Заголовок : Комментарии
Язык : English
ServiceKind/String : Complete Main
Default : Нет
Forced : Нет

Аудио #5
Идентификатор : 6
Формат : AC-3
Формат/Информация : Audio Coding 3
Идентификатор кодека : A_AC3
Продолжительность : 2 ч. 14 м.
Вид битрейта : Постоянный
Битрейт : 448 Кбит/сек
Каналы : 6 каналов
Расположение каналов : Front: L C R, Side: L R, LFE
Частота : 48,0 КГц
Частота кадров : 31,250 кадров/сек (1536 SPF)
Битовая глубина : 16 бит
Метод сжатия : С потерями
Размер потока : 432 Мбайт (13%)
Язык : English
ServiceKind/String : Complete Main
Default : Нет
Forced : Нет

Текст #1
Идентификатор : 7
Формат : UTF-8
Идентификатор кодека : S_TEXT/UTF8
Идентификатор кодека/Информация : UTF-8 Plain Text
Продолжительность : 22 м. 47 с.
Битрейт : 9 бит/сек
ElementCount : 32
Размер потока : 1,63 Кбайт (0%)
Заголовок : Форсированные
Язык : Russian
Default : Да
Forced : Да

Текст #2
Идентификатор : 8
Формат : UTF-8
Идентификатор кодека : S_TEXT/UTF8
Идентификатор кодека/Информация : UTF-8 Plain Text
Продолжительность : 32 м. 17 с.
Битрейт : 9 бит/сек
ElementCount : 40
Размер потока : 2,31 Кбайт (0%)
Заголовок : Форсированные
Язык : Russian
Default : Нет
Forced : Нет

Текст #3
Идентификатор : 9
Формат : UTF-8
Идентификатор кодека : S_TEXT/UTF8
Идентификатор кодека/Информация : UTF-8 Plain Text
Продолжительность : 2 ч. 14 м.
Битрейт : 56 бит/сек
ElementCount : 1024
Размер потока : 55,4 Кбайт (0%)
Заголовок : Blu-ray CEE
Язык : Russian
Default : Нет
Forced : Нет

Текст #4
Идентификатор : 10
Формат : UTF-8
Идентификатор кодека : S_TEXT/UTF8
Идентификатор кодека/Информация : UTF-8 Plain Text
Продолжительность : 2 ч. 3 м.
Битрейт : 60 бит/сек
ElementCount : 1218
Размер потока : 54,9 Кбайт (0%)
Заголовок : Tycoon Studio
Язык : Russian
Default : Нет
Forced : Нет

Текст #5
Идентификатор : 11
Формат : UTF-8
Идентификатор кодека : S_TEXT/UTF8
Идентификатор кодека/Информация : UTF-8 Plain Text
Продолжительность : 2 ч. 3 м.
Битрейт : 60 бит/сек
ElementCount : 1218
Размер потока : 54,9 Кбайт (0%)
Заголовок : DDV | Киномания
Язык : Russian
Default : Нет
Forced : Нет

Текст #6
Идентификатор : 12
Формат : UTF-8
Идентификатор кодека : S_TEXT/UTF8
Идентификатор кодека/Информация : UTF-8 Plain Text
Продолжительность : 2 ч. 14 м.
Битрейт : 162 бит/сек
ElementCount : 1951
Размер потока : 160 Кбайт (0%)
Заголовок : Комментарии
Язык : Russian
Default : Нет
Forced : Нет

Текст #7
Идентификатор : 13
Формат : UTF-8
Идентификатор кодека : S_TEXT/UTF8
Идентификатор кодека/Информация : UTF-8 Plain Text
Продолжительность : 2 ч. 14 м.
Битрейт : 158 бит/сек
ElementCount : 1855
Размер потока : 156 Кбайт (0%)
Заголовок : Комментарии
Язык : Russian
Default : Нет
Forced : Нет

Текст #8
Идентификатор : 14
Формат : UTF-8
Идентификатор кодека : S_TEXT/UTF8
Идентификатор кодека/Информация : UTF-8 Plain Text
Продолжительность : 2 ч. 3 м.
Битрейт : 34 бит/сек
ElementCount : 1007
Размер потока : 31,5 Кбайт (0%)
Язык : English
Default : Нет
Forced : Нет

Меню
00:00:00.000 : :Chapter 01
00:00:21.187 : :Chapter 03
00:01:55.115 : :Chapter 05
00:04:58.464 : :Chapter 07
00:08:10.907 : :Chapter 09
00:12:21.907 : :Chapter 11
00:14:22.027 : :Chapter 13
00:17:36.013 : :Chapter 15
00:22:10.037 : :Chapter 17
00:25:08.340 : :Chapter 19
00:29:37.358 : :Chapter 21
00:31:29.012 : :Chapter 23
00:37:44.470 : :Chapter 25
00:39:32.244 : :Chapter 27
00:45:17.423 : :Chapter 29
00:48:23.400 : :Chapter 31
00:51:36.009 : :Chapter 33
00:53:32.667 : :Chapter 35
00:54:25.095 : :Chapter 37
00:56:55.245 : :Chapter 39
00:58:43.811 : :Chapter 41
01:02:41.716 : :Chapter 43
01:06:19.266 : :Chapter 45
01:07:47.480 : :Chapter 47
01:12:01.108 : :Chapter 49
01:15:52.673 : :Chapter 51
01:18:14.815 : :Chapter 53
01:22:30.403 : :Chapter 55
01:26:06.870 : :Chapter 57
01:26:52.081 : :Chapter 59
01:27:50.890 : :Chapter 61
01:30:04.524 : :Chapter 63
01:33:19.135 : :Chapter 65
01:36:41.420 : :Chapter 67
01:40:25.185 : :Chapter 69
01:42:23.178 : :Chapter 71
01:44:27.803 : :Chapter 73
01:45:26.945 : :Chapter 75
01:48:42.432 : :Chapter 77
01:50:40.634 : :Chapter 79
01:51:37.107 : :Chapter 81
01:54:37.120 : :Chapter 83
01:55:07.859 : :Chapter 85
01:55:57.492 : :Chapter 87
01:57:40.178 : :Chapter 89
01:59:34.167 : :Chapter 91
02:01:58.853 : :Chapter 93
02:04:50.566 : :Chapter 95
02:05:27.436 : :Chapter 97
02:07:56.043 : :Chapter 99
02:14:47.120 : :Chapter 100






Жанр: фантастика, фэнтези, боевик, приключения
Режиссер: Джей Джей Абрамс
В ролях: :Джон Бойега, Дэйзи Ридли, Оскар Айзек, Адам Драйвер, Донал Глисон, Харрисон Форд, Марк Хэмилл, Кэрри Фишер, Макс фон Сюдов, Энди Серкис, Лупита Нионго, Энтони Дэниелс, Питер Мейхью, Гвендолин Кристи, Пип Андерсон, Саймон Пегг, Киран Шах, Саша Фрост, Пип Торренс, Эндрю Джек
О фильме: Через тридцать лет после гибели Дарта Вейдера и Императора галактика по-прежнему в опасности. Государственное образование Первый Орден во главе с таинственным верховным лидером Сноуком и его правой рукой Кайло Реном идёт по стопам Империи, пытаясь захватить всю власть. В это нелёгкое время судьба сводит юную девушку Рей и бывшего штурмовика Первого Ордена Финна с героями войны с Империей — Ханом Соло, Чубаккой и генералом Леей. Вместе они должны дать бой Первому Ордену, однако настаёт тот момент, когда становится очевидно, что лишь джедаи могут остановить Сноука и Кайло Рена.



Выпущено: США
Продолжительность: 02:18:06
Озвучивание: Профессиональный (полное дублирование), Авторский (одноголосый закадровый)
Субтитры: русские, английские

Файл
Формат: MKV
Качество: BDRip 1080р
Видео: 1920x800, MPEG4/AVC, High@L4, 23,976 (24000/1001) кадра/сек, ~3050 Кбит/сек
Аудио: 48,0 КГц, AC3 Dolby Digital, 3/2 (L,C,R,l,r) + LFE ch, 448 kbps Профессиональный (полное дублирование) Blu-ray CEE
Аудио: 48,0 КГц, AC3 Dolby Digital, 3/2 (L,C,R,l,r) + LFE ch, 448 kbps Оригинальная аудиодорожка: английский
Общее
Уникальный идентификатор : 208914500498428141435940026460860394332 (0x9D2B781FA1BB98748F77D65478192B5C)
Полное имя : D:\Данияр\Раздача\Star Wars Collection.daniyar.esmuhanov\Звёздные войны Эпизод 7 Пробуждение силы (фантастика, фэнтези, боевик, приключения) 2015.mkv
Формат : Matroska
Версия формата : Version 4 / Version 2
Размер файла : 2,84 Гбайт
Продолжительность : 2 ч. 18 м.
Название фильма : Исходник: Blu-ray Disc | Автор рипа: Есмуханов Данияр Исламбекович | daniyar.esmuhanov
Программа кодирования : mkvmerge v8.3.0 ('Over the Horizon') 64bit
Библиотека кодирования : libebml v1.3.1 + libmatroska v1.4.2

Видео
Идентификатор : 1
Формат : AVC
Формат/Информация : Advanced Video Codec
Профиль формата : High@L4.1
Настройки формата : CABAC / 4 Ref Frames
Параметр CABAC формата : Да
Параметр RefFrames формата : 4 кадра
Идентификатор кодека : V_MPEG4/ISO/AVC
Продолжительность : 2 ч. 18 м.
Вид битрейта : Переменный
Переменный битрейт : 62,5 Мбит/сек | 2050 Кбит/сек | 3050 Кбит/сек
Битрейт : 3050 Кбит/сек
Ширина : 1920 пикселей
Высота : 800 пикселей
Соотношение сторон : 2,40:1
Режим частоты кадров : Постоянный
Частота кадров : 23,976 (24000/1001) кадра/сек
Цветовое пространство : YUV
Субдискретизация насыщенности : 4:2:0
Битовая глубина : 8 бит
Тип развёртки : Прогрессивная
Бит/(Пиксели*Кадры) : 0.056
Размер потока : 1,98 Гбайт (70%)
Заголовок : Исходник: Blu-ray Disc | Автор рипа: Есмуханов Данияр Исламбекович | daniyar.esmuhanov
Библиотека кодирования : x264 core 148
Настройки программы : cabac=1 / ref=4 / deblock=1:-1:-1 / analyse=0x3:0x133 / me=umh / subme=9 / psy=1 / psy_rd=1.00:0.15 / mixed_ref=1 / me_range=24 / chroma_me=1 / trellis=2 / 8x8dct=1 / cqm=0 / deadzone=21,11 / fast_pskip=0 / chroma_qp_offset=-3 / threads=12 / lookahead_threads=1 / sliced_threads=0 / nr=0 / decimate=1 / interlaced=0 / bluray_compat=0 / constrained_intra=0 / bframes=3 / b_pyramid=2 / b_adapt=2 / b_bias=0 / direct=3 / weightb=1 / open_gop=0 / weightp=2 / keyint=250 / keyint_min=23 / scenecut=40 / intra_refresh=0 / rc_lookahead=60 / rc=2pass / mbtree=1 / bitrate=3050 / ratetol=1.0 / qcomp=0.60 / qpmin=0 / qpmax=69 / qpstep=4 / cplxblur=20.0 / qblur=0.5 / vbv_maxrate=31250 / vbv_bufsize=31250 / nal_hrd=none / filler=0 / ip_ratio=1.40 / aq=1:1.00
Язык : English
Default : Да
Forced : Да

Аудио #1
Идентификатор : 2
Формат : AC-3
Формат/Информация : Audio Coding 3
Идентификатор кодека : A_AC3
Продолжительность : 2 ч. 18 м.
Вид битрейта : Постоянный
Битрейт : 448 Кбит/сек
Каналы : 6 каналов
Расположение каналов : Front: L C R, Side: L R, LFE
Частота : 48,0 КГц
Частота кадров : 31,250 кадров/сек (1536 SPF)
Битовая глубина : 16 бит
Метод сжатия : С потерями
Размер потока : 443 Мбайт (15%)
Заголовок : Профессиональный (полное дублирование) Blu-ray CEE
Язык : Russian
ServiceKind/String : Complete Main
Default : Да
Forced : Да

Аудио #2
Идентификатор : 3
Формат : AC-3
Формат/Информация : Audio Coding 3
Идентификатор кодека : A_AC3
Продолжительность : 2 ч. 18 м.
Вид битрейта : Постоянный
Битрейт : 448 Кбит/сек
Каналы : 6 каналов
Расположение каналов : Front: L C R, Side: L R, LFE
Частота : 48,0 КГц
Частота кадров : 31,250 кадров/сек (1536 SPF)
Битовая глубина : 16 бит
Метод сжатия : С потерями
Размер потока : 443 Мбайт (15%)
Язык : English
ServiceKind/String : Complete Main
Default : Нет
Forced : Нет

Текст #1
Идентификатор : 4
Формат : UTF-8
Идентификатор кодека : S_TEXT/UTF8
Идентификатор кодека/Информация : UTF-8 Plain Text
Продолжительность : 13 м. 58 с.
Битрейт : 2 бит/сек
ElementCount : 7
Размер потока : 314 байт (0%)
Заголовок : Форсированные
Язык : Russian
Default : Да
Forced : Да

Текст #2
Идентификатор : 5
Формат : UTF-8
Идентификатор кодека : S_TEXT/UTF8
Идентификатор кодека/Информация : UTF-8 Plain Text
Продолжительность : 2 ч. 0 м.
Битрейт : 67 бит/сек
ElementCount : 1291
Размер потока : 59,4 Кбайт (0%)
Язык : Russian
Default : Нет
Forced : Нет

Текст #3
Идентификатор : 6
Формат : UTF-8
Идентификатор кодека : S_TEXT/UTF8
Идентификатор кодека/Информация : UTF-8 Plain Text
Продолжительность : 2 ч. 0 м.
Битрейт : 40 бит/сек
ElementCount : 1403
Размер потока : 35,9 Кбайт (0%)
Язык : English
Default : Нет
Forced : Нет

Текст #4
Идентификатор : 7
Формат : UTF-8
Идентификатор кодека : S_TEXT/UTF8
Идентификатор кодека/Информация : UTF-8 Plain Text
Продолжительность : 2 ч. 6 м.
Битрейт : 50 бит/сек
ElementCount : 1778
Размер потока : 47,1 Кбайт (0%)
Язык : English
Default : Нет
Forced : Нет






Жанр: фантастика, фэнтези, боевик, приключения
Режиссер: Гарет Эдвардс
В ролях: :Фелисити Джонс, Диего Луна, Алан Тьюдик, Донни Йен, Цзян Вэнь, Бен Мендельсон, Форест Уитакер, Риз Ахмед, Мадс Миккельсен, Джимми Смитс
О фильме: Сопротивление собирает отряд для выполнения особой миссии — надо выкрасть чертежи самого совершенного и смертоносного оружия Империи. Возглавляет бойцов неуправляемая и бесстрашная Джин Эрсо, у которой в этом самоубийственном задании есть и личные мотивы. Не всем суждено вернуться домой, но герои готовы к этому, ведь на кону судьба Галактики.



Выпущено: США
Продолжительность: 02:13:57
Озвучивание: Профессиональный (полное дублирование), Авторский (одноголосый закадровый)
Субтитры: русские, английские

Файл
Формат: MKV
Качество: BDRip 1080р
Видео: 1920x800, MPEG4/AVC, High@L4, 23,976 (24000/1001) кадра/сек, ~3050 Кбит/сек
Аудио: 48,0 КГц, AC3 Dolby Digital, 3/2 (L,C,R,l,r) + LFE ch, 448 kbps Профессиональный (полное дублирование) Blu-ray CEE
Аудио: 48,0 КГц, AC3 Dolby Digital, 3/2 (L,C,R,l,r) + LFE ch, 448 kbps Авторский (одноголосый закадровый) Ю.Сербин
Аудио: 48,0 КГц, AC3 Dolby Digital, 3/2 (L,C,R,l,r) + LFE ch, 448 kbps Оригинальная аудиодорожка: английский
Общее
Уникальный идентификатор : 208281326053854774673737109408512223710 (0x9CB1863695687995B25DC03ECA9C29DE)
Полное имя : D:\Данияр\Раздача\Star Wars Collection.daniyar.esmuhanov\Звёздные войны Изгой-один. Истории (фантастика, боевик, приключения) 2016.mkv
Формат : Matroska
Версия формата : Version 4 / Version 2
Размер файла : 3,18 Гбайт
Продолжительность : 2 ч. 13 м.
Название фильма : Исходник: Blu-ray Disc | Автор рипа: Есмуханов Данияр Исламбекович | daniyar.esmuhanov
Программа кодирования : mkvmerge v8.3.0 ('Over the Horizon') 64bit
Библиотека кодирования : libebml v1.3.1 + libmatroska v1.4.2

Видео
Идентификатор : 1
Формат : AVC
Формат/Информация : Advanced Video Codec
Профиль формата : High@L4.1
Настройки формата : CABAC / 4 Ref Frames
Параметр CABAC формата : Да
Параметр RefFrames формата : 4 кадра
Идентификатор кодека : V_MPEG4/ISO/AVC
Продолжительность : 2 ч. 13 м.
Вид битрейта : Переменный
Переменный битрейт : 62,5 Мбит/сек | 2050 Кбит/сек | 3050 Кбит/сек
Битрейт : 3050 Кбит/сек
Ширина : 1920 пикселей
Высота : 800 пикселей
Соотношение сторон : 2,40:1
Режим частоты кадров : Постоянный
Частота кадров : 23,976 кадра/сек
Цветовое пространство : YUV
Субдискретизация насыщенности : 4:2:0
Битовая глубина : 8 бит
Тип развёртки : Прогрессивная
Бит/(Пиксели*Кадры) : 0.056
Размер потока : 1,92 Гбайт (60%)
Заголовок : Исходник: Blu-ray Disc | Автор рипа: Есмуханов Данияр Исламбекович | daniyar.esmuhanov
Библиотека кодирования : x264 core 148
Настройки программы : cabac=1 / ref=4 / deblock=1:-1:-1 / analyse=0x3:0x133 / me=umh / subme=9 / psy=1 / psy_rd=1.00:0.15 / mixed_ref=1 / me_range=24 / chroma_me=1 / trellis=2 / 8x8dct=1 / cqm=0 / deadzone=21,11 / fast_pskip=0 / chroma_qp_offset=-3 / threads=12 / lookahead_threads=1 / sliced_threads=0 / nr=0 / decimate=1 / interlaced=0 / bluray_compat=0 / constrained_intra=0 / bframes=3 / b_pyramid=2 / b_adapt=2 / b_bias=0 / direct=3 / weightb=1 / open_gop=0 / weightp=2 / keyint=250 / keyint_min=23 / scenecut=40 / intra_refresh=0 / rc_lookahead=60 / rc=2pass / mbtree=1 / bitrate=3050 / ratetol=1.0 / qcomp=0.60 / qpmin=0 / qpmax=69 / qpstep=4 / cplxblur=20.0 / qblur=0.5 / vbv_maxrate=31250 / vbv_bufsize=31250 / nal_hrd=none / filler=0 / ip_ratio=1.40 / aq=1:1.00
Язык : English
Default : Да
Forced : Да

Аудио #1
Идентификатор : 2
Формат : AC-3
Формат/Информация : Audio Coding 3
Идентификатор кодека : A_AC3
Продолжительность : 2 ч. 13 м.
Вид битрейта : Постоянный
Битрейт : 448 Кбит/сек
Каналы : 6 каналов
Расположение каналов : Front: L C R, Side: L R, LFE
Частота : 48,0 КГц
Частота кадров : 31,250 кадров/сек (1536 SPF)
Битовая глубина : 16 бит
Метод сжатия : С потерями
Размер потока : 429 Мбайт (13%)
Заголовок : Профессиональный (полное дублирование) Blu-ray CEE
Язык : Russian
ServiceKind/String : Complete Main
Default : Да
Forced : Да

Аудио #2
Идентификатор : 3
Формат : AC-3
Формат/Информация : Audio Coding 3
Идентификатор кодека : A_AC3
Продолжительность : 2 ч. 13 м.
Вид битрейта : Постоянный
Битрейт : 448 Кбит/сек
Каналы : 6 каналов
Расположение каналов : Front: L C R, Side: L R, LFE
Частота : 48,0 КГц
Частота кадров : 31,250 кадров/сек (1536 SPF)
Битовая глубина : 16 бит
Метод сжатия : С потерями
Размер потока : 429 Мбайт (13%)
Заголовок : Авторский (одноголосый закадровый) Ю.Сербин
Язык : Russian
ServiceKind/String : Complete Main
Default : Нет
Forced : Нет

Аудио #3
Идентификатор : 4
Формат : AC-3
Формат/Информация : Audio Coding 3
Идентификатор кодека : A_AC3
Продолжительность : 2 ч. 13 м.
Вид битрейта : Постоянный
Битрейт : 448 Кбит/сек
Каналы : 6 каналов
Расположение каналов : Front: L C R, Side: L R, LFE
Частота : 48,0 КГц
Частота кадров : 31,250 кадров/сек (1536 SPF)
Битовая глубина : 16 бит
Метод сжатия : С потерями
Размер потока : 429 Мбайт (13%)
Язык : English
ServiceKind/String : Complete Main
Default : Нет
Forced : Нет

Текст #1
Идентификатор : 5
Формат : UTF-8
Идентификатор кодека : S_TEXT/UTF8
Идентификатор кодека/Информация : UTF-8 Plain Text
Продолжительность : 25 м. 37 с.
Битрейт : 1 бит/сек
ElementCount : 9
Размер потока : 318 байт (0%)
Заголовок : Форсированные
Язык : Russian
Default : Да
Forced : Да

Текст #2
Идентификатор : 6
Формат : UTF-8
Идентификатор кодека : S_TEXT/UTF8
Идентификатор кодека/Информация : UTF-8 Plain Text
Продолжительность : 2 ч. 4 м.
Битрейт : 78 бит/сек
ElementCount : 1506
Размер потока : 71,5 Кбайт (0%)
Язык : Russian
Default : Нет
Forced : Нет

Текст #3
Идентификатор : 7
Формат : UTF-8
Идентификатор кодека : S_TEXT/UTF8
Идентификатор кодека/Информация : UTF-8 Plain Text
Продолжительность : 1 ч. 23 м.
Битрейт : 0 бит/сек
ElementCount : 19
Размер потока : 464 байт (0%)
Заголовок : Форсированные
Язык : English
Default : Нет
Forced : Нет

Текст #4
Идентификатор : 8
Формат : UTF-8
Идентификатор кодека : S_TEXT/UTF8
Идентификатор кодека/Информация : UTF-8 Plain Text
Продолжительность : 2 ч. 4 м.
Битрейт : 46 бит/сек
ElementCount : 1562
Размер потока : 42,1 Кбайт (0%)
Язык : English
Default : Нет
Forced : Нет

Текст #5
Идентификатор : 9
Формат : UTF-8
Идентификатор кодека : S_TEXT/UTF8
Идентификатор кодека/Информация : UTF-8 Plain Text
Продолжительность : 2 ч. 5 м.
Битрейт : 53 бит/сек
ElementCount : 1829
Размер потока : 48,7 Кбайт (0%)
Язык : English
Default : Нет
Forced : Нет

Меню
00:00:00.000 : en:"He's Come For Us"
00:02:34.654 : en:Unfinished Business
00:07:46.466 : en:Jyn in Prison
00:08:42.813 : en:Ring of Kafrene
00:11:04.622 : en:An Urgent Message
00:12:21.198 : en:Wobani Prison Break
00:13:41.153 : en:Rebel Interrogation
00:17:19.913 : en:Mission Departure
00:20:09.541 : en:Saw Gerrera
00:21:54.771 : en:Krennic and Tarkin
00:23:47.092 : en:Jyn's Dream
00:24:31.386 : en:Scouting Jedha City
00:26:53.445 : en:Bor Gullet
00:27:46.623 : en:Guardians of The Whills
00:30:37.293 : en:Holy City Ambush
00:33:53.406 : en:"Let them Pass"
00:37:11.270 : en:Saw's Catacombs
00:42:30.089 : en:Galen's Message
00:47:16.124 : en:Jedha Escape
00:51:04.144 : en:Tarkin Commands
00:52:23.723 : en:Race to Eadu
00:55:53.266 : en:Eadu Crash
00:59:48.251 : en:Scouting Eadu
01:02:07.807 : en:Krennic and Galen
01:05:25.504 : en:Attack on Eadu
01:10:24.094 : en:Eadu Aftermath
01:12:49.531 : en:Mustafar
01:16:28.458 : en:Jyn Before the Council
01:19:04.322 : en:"May the Force Be With Us"
01:21:55.160 : en:Rogue One Launches
01:23:25.667 : en:Scarif Gate
01:25:58.987 : en:10 Men Like 100
01:27:34.958 : en:Imperial Inspection
01:29:57.308 : en:Ground Forces
01:31:53.841 : en:The Battle Begins
01:34:18.736 : en:Scrambling the Rebel Fleet
01:36:07.511 : en:Sowing Confusion
01:37:48.237 : en:Rebel Reinforcements
01:40:27.604 : en:Beach Battle
01:42:44.074 : en:Master Switch
01:45:26.778 : en:Stardust
01:47:55.010 : en:Data Vault
01:50:31.416 : en:Sacrifices
01:53:28.885 : en:"We Have the Plans"
01:55:46.272 : en:Final Confrontation
01:59:23.447 : en:Transmission Received
02:01:11.347 : en:Fire When Ready
02:03:15.596 : en:Hope
02:05:42.117 : en:End Credits






Жанр: фантастика, фэнтези, боевик, приключения
Режиссер: Райан Джонсон
В ролях: : Марк Хэмилл, Кэрри Фишер, Адам Драйвер, Дэйзи Ридли, Джон Бойега, Оскар Айзек, Энди Серкис, Лупита Нионго, Донал Глисон, Энтони Дэниелс
О фильме: Новая история о противостоянии света и тьмы, добра и зла начинается после гибели Хана Соло. В Галактике, где Первый Орден и Сопротивление яростно сражаются друг с другом в войне, героиня Рей пробудила в себе Силу. Но что произойдет, когда она встретится с единственным оставшимся в живых рыцарем-джедаем — Люком Скайуокером?

Кайло Рен перешел на Темную сторону Силы и убил собственного отца, заняв высокую позицию в Первом Ордене. Но куда приведут его неуемные амбиции, подаренные по наследству грозным дедом Дартом Вейдером? Ситуация обострится еще больше, когда мать Кайло, лидер Сопротивления Лея, вместе с По, Финном и BB-8 приступит к новой миссии.



Выпущено: США
Продолжительность: 02:31:51
Озвучивание: Профессиональный (полное дублирование)
Субтитры: русские, английские

Файл
Формат: MKV
Качество: BDRip 1080р
Видео: 1920x804, MPEG4/AVC, High@L4, 23,976 (24000/1001) кадра/сек, ~3026 Кбит/сек
Аудио: 48,0 КГц, AC3 Dolby Digital, 3/2 (L,C,R,l,r) + LFE ch, 448 kbps Профессиональный (полное дублирование) Blu-ray CEE
Аудио: 48,0 КГц, AC3 Dolby Digital, 3/2 (L,C,R,l,r) + LFE ch, 448 kbps Оригинальная аудиодорожка: английский
Общее
Уникальный идентификатор : 213608355238936744230284518928770224325 (0xA0B379079FFC6F31BB35F647CE1150C5)
Полное имя : D:\Данияр\Раздача\Star Wars Collection.daniyar.esmuhanov\Звёздные войны Эпизод 8 Последние джедаи (фантастика, фэнтези, боевик, приключения) 2017.mkv
Формат : Matroska
Версия формата : Version 4 / Version 2
Размер файла : 3,10 Гбайт
Продолжительность : 2 ч. 32 м.
Название фильма : Исходник: Blu-ray Disc | Автор рипа: Есмуханов Данияр Исламбекович | daniyar.esmuhanov
Программа кодирования : mkvmerge v8.3.0 ('Over the Horizon') 64bit
Библиотека кодирования : libebml v1.3.1 + libmatroska v1.4.2

Видео
Идентификатор : 1
Формат : AVC
Формат/Информация : Advanced Video Codec
Профиль формата : High@L4.1
Настройки формата : CABAC / 5 Ref Frames
Параметр CABAC формата : Да
Параметр RefFrames формата : 5 кадров
Идентификатор кодека : V_MPEG4/ISO/AVC
Продолжительность : 2 ч. 31 м.
Вид битрейта : Переменный
Переменный битрейт : 62,5 Мбит/сек | 2026 Кбит/сек | 3026 Кбит/сек
Битрейт : 3026 Кбит/сек
Ширина : 1920 пикселей
Высота : 804 пикселя
Соотношение сторон : 2,40:1
Режим частоты кадров : Постоянный
Частота кадров : 23,976 кадра/сек
Цветовое пространство : YUV
Субдискретизация насыщенности : 4:2:0
Битовая глубина : 8 бит
Тип развёртки : Прогрессивная
Бит/(Пиксели*Кадры) : 0.055
Размер потока : 2,15 Гбайт (69%)
Заголовок : Исходник: Blu-ray Disc | Автор рипа: Есмуханов Данияр Исламбекович | daniyar.esmuhanov
Библиотека кодирования : x264 core 148 r2795 aaa9aa8
Настройки программы : cabac=1 / ref=5 / deblock=1:0:0 / analyse=0x3:0x133 / me=umh / subme=10 / psy=1 / psy_rd=1.00:0.00 / mixed_ref=1 / me_range=24 / chroma_me=1 / trellis=2 / 8x8dct=1 / cqm=0 / deadzone=21,11 / fast_pskip=1 / chroma_qp_offset=-2 / threads=96 / lookahead_threads=6 / sliced_threads=0 / nr=0 / decimate=1 / interlaced=0 / bluray_compat=0 / constrained_intra=0 / bframes=8 / b_pyramid=2 / b_adapt=2 / b_bias=0 / direct=3 / weightb=1 / open_gop=0 / weightp=2 / keyint=250 / keyint_min=23 / scenecut=40 / intra_refresh=0 / rc_lookahead=60 / rc=abr / mbtree=1 / bitrate=3026 / ratetol=1.0 / qcomp=0.60 / qpmin=0 / qpmax=69 / qpstep=4 / vbv_maxrate=31250 / vbv_bufsize=4087 / nal_hrd=none / filler=0 / ip_ratio=1.40 / aq=1:1.00
Язык : English
Default : Да
Forced : Да
Цветовой диапазон : Limited
Основные цвета : BT.709
Характеристики трансфера : BT.709
Коэффициенты матрицы : BT.709

Аудио #1
Идентификатор : 2
Формат : AC-3
Формат/Информация : Audio Coding 3
Идентификатор кодека : A_AC3
Продолжительность : 2 ч. 32 м.
Вид битрейта : Постоянный
Битрейт : 448 Кбит/сек
Каналы : 6 каналов
Расположение каналов : Front: L C R, Side: L R, LFE
Частота : 48,0 КГц
Частота кадров : 31,250 кадров/сек (1536 SPF)
Битовая глубина : 16 бит
Метод сжатия : С потерями
Размер потока : 487 Мбайт (15%)
Заголовок : Профессиональный (полное дублирование) Blu-ray CEE
Язык : Russian
ServiceKind/String : Complete Main
Default : Да
Forced : Да

Аудио #2
Идентификатор : 3
Формат : AC-3
Формат/Информация : Audio Coding 3
Идентификатор кодека : A_AC3
Продолжительность : 2 ч. 31 м.
Вид битрейта : Постоянный
Битрейт : 448 Кбит/сек
Каналы : 6 каналов
Расположение каналов : Front: L C R, Side: L R, LFE
Частота : 48,0 КГц
Частота кадров : 31,250 кадров/сек (1536 SPF)
Битовая глубина : 16 бит
Метод сжатия : С потерями
Размер потока : 487 Мбайт (15%)
Язык : English
ServiceKind/String : Complete Main
Default : Нет
Forced : Нет

Текст #1
Идентификатор : 4
Формат : UTF-8
Идентификатор кодека : S_TEXT/UTF8
Идентификатор кодека/Информация : UTF-8 Plain Text
Продолжительность : 1 м. 9 с.
Битрейт : 108 бит/сек
ElementCount : 13
Размер потока : 949 байт (0%)
Заголовок : Форсированные
Язык : Russian
Default : Да
Forced : Да

Текст #2
Идентификатор : 5
Формат : UTF-8
Идентификатор кодека : S_TEXT/UTF8
Идентификатор кодека/Информация : UTF-8 Plain Text
Продолжительность : 2 ч. 23 м.
Битрейт : 74 бит/сек
ElementCount : 1992
Размер потока : 78,3 Кбайт (0%)
Язык : Russian
Default : Нет
Forced : Нет

Текст #3
Идентификатор : 6
Формат : UTF-8
Идентификатор кодека : S_TEXT/UTF8
Идентификатор кодека/Информация : UTF-8 Plain Text
Продолжительность : 2 ч. 22 м.
Битрейт : 64 бит/сек
ElementCount : 1593
Размер потока : 67,8 Кбайт (0%)
Язык : Russian
Default : Нет
Forced : Нет

Текст #4
Идентификатор : 7
Формат : UTF-8
Идентификатор кодека : S_TEXT/UTF8
Идентификатор кодека/Информация : UTF-8 Plain Text
Продолжительность : 2 ч. 23 м.
Битрейт : 45 бит/сек
ElementCount : 1897
Размер потока : 47,9 Кбайт (0%)
Язык : English
Default : Нет
Forced : Нет

Текст #5
Идентификатор : 8
Формат : UTF-8
Идентификатор кодека : S_TEXT/UTF8
Идентификатор кодека/Информация : UTF-8 Plain Text
Продолжительность : 2 ч. 23 м.
Битрейт : 64 бит/сек
ElementCount : 1898
Размер потока : 68,3 Кбайт (0%)
Язык : English
Default : Нет
Forced : Нет

Текст #6
Идентификатор : 9
Формат : UTF-8
Идентификатор кодека : S_TEXT/UTF8
Идентификатор кодека/Информация : UTF-8 Plain Text
Продолжительность : 2 ч. 20 м.
Битрейт : 39 бит/сек
ElementCount : 1569
Размер потока : 40,4 Кбайт (0%)
Язык : English
Default : Нет
Forced : Нет

Меню
00:00:00.000 : en:00:00:00.000
00:00:18.644 : en:00:00:18.644
00:01:45.731 : en:00:01:45.731
00:03:11.817 : en:00:03:11.817
00:07:43.296 : en:00:07:43.296
00:12:48.434 : en:00:12:48.434
00:13:44.574 : en:00:13:44.574
00:16:29.280 : en:00:16:29.280
00:19:59.281 : en:00:19:59.281
00:22:51.370 : en:00:22:51.370
00:26:04.980 : en:00:26:04.980
00:27:22.850 : en:00:27:22.850
00:31:24.758 : en:00:31:24.758
00:32:54.681 : en:00:32:54.681
00:35:27.667 : en:00:35:27.667
00:38:11.498 : en:00:38:11.498
00:41:53.428 : en:00:41:53.428
00:44:29.542 : en:00:44:29.542
00:46:51.475 : en:00:46:51.475
00:51:41.932 : en:00:51:41.932
00:53:50.060 : en:00:53:50.060
00:55:41.505 : en:00:55:41.505
00:57:39.581 : en:00:57:39.581
00:59:16.636 : en:00:59:16.636
01:02:05.847 : en:01:02:05.847
01:03:07.701 : en:01:03:07.701
01:05:41.729 : en:01:05:41.729
01:07:03.478 : en:01:07:03.478
01:10:25.721 : en:01:10:25.721
01:13:30.323 : en:01:13:30.323
01:17:43.450 : en:01:17:43.450
01:20:53.057 : en:01:20:53.057
01:24:17.970 : en:01:24:17.970
01:26:23.220 : en:01:26:23.220
01:27:59.524 : en:01:27:59.524
01:30:49.361 : en:01:30:49.361
01:32:54.569 : en:01:32:54.569
01:35:53.706 : en:01:35:53.706
01:37:10.616 : en:01:37:10.616
01:39:12.864 : en:01:39:12.864
01:42:07.663 : en:01:42:07.663
01:45:03.714 : en:01:45:03.714
01:49:35.694 : en:01:49:35.694
01:52:20.609 : en:01:52:20.609
01:56:04.749 : en:01:56:04.749
01:58:52.083 : en:01:58:52.083
02:03:11.134 : en:02:03:11.134
02:06:39.759 : en:02:06:39.759
02:11:43.604 : en:02:11:43.604
02:15:12.104 : en:02:15:12.104
02:20:16.700 : en:02:20:16.700
02:23:39.694 : en:02:23:39.694






Rip by Есмуханов Данияр Исламбекович | daniyar.esmuhanov
Как качать, Как раздавать - Правила и инструкции
Торрент31 мар 2018, 19:25 [ 31 мар 2018, 19:25 ]

СКАЧАТЬ с просмотром рекламы
СтатусПроверен Download more
.torrent скачан54 раз
Размер28.81 ГБ (30 938 727 498)
Раздаю свой рипы со скоростью отдачи 100 кБ/с - Скачал сам?! Дай скачать другим, не уходи с раздачи!!!


Bleena

Аватара пользователя
Красавица Riper.AM
Красавица Riper.AM
 

Сообщения: 241

Зарегистрирован: 29 ноя 2015, 13:39

Откуда: из города в России

Награды: 5
За 100 сообщений (1) 200 кармы (1) 500 кармы (1) 1000 кармы (1) Халява №3 (1)
Карма: 2956
-2--2--2--2--2--2--2--2--2--2-

Сообщение Bleena» 31 мар 2018, 19:35

очень хорошая подборочка фантастики нескольких десятилетий прошлого и текущего века :-)

Twixik

Аватара пользователя
Старожил
Старожил
 

Сообщения: 1392

Зарегистрирован: 28 май 2011, 17:05

Откуда: Россия, Питер

Награды: 10
За 100 сообщений (1) За 500 сообщений (1) За 1000 сообщений (1) 5 Тб отданного (1) За 1000 сказанных спасибо (1) За 2000 сказанных спасибо (1) 200 кармы (1) 500 кармы (1) 1000 кармы (1) Халява №5 (1)
Карма: 3709
-2--2--2--2--2--2--2--2--2--2-

Сообщение Twixik» 06 апр 2018, 13:16

Bleena писал(а):

очень хорошая подборочка фантастики


согласен полностью *круто


Вернуться в Зарубежные фильмы после 2000го года...



Кто сейчас на конференции

Сейчас этот форум просматривают: нет зарегистрированных пользователей

Ресурс не предоставляет электронные версии произведений, а занимается лишь коллекционированием и каталогизацией ссылок, присылаемых и публикуемых на форуме нашими читателями. Если вы являетесь правообладателем какого-либо представленного материала и не желаете чтобы ссылка на него находилась в нашем каталоге, свяжитесь с нами и мы незамедлительно удалим её. Файлы для обмена на трекере предоставлены пользователями сайта, и администрация не несёт ответственности за их содержание. Просьба не заливать файлы, защищенные авторскими правами, а также файлы нелегального содержания!