На Чесапикских берегах (4 сезон: 1-6 серия из 6) / Chesapeake Shores [2019, Драма, семейный, экранизация, WEB-DL (1080p), Профессиональный (многоголосый, закадровый) - BaibaKo] - Скачать торрент бесплатно

Модераторы: Кандидат в Союз Риперов, Модераторы Сериалы, мультсериалы, Союз Риперов

Поделиться ВКонтакте Поделиться Facebook Поделиться Twitter Поделиться Mail.RU
АвторСообщение
VLAD71
Аватара пользователя
Пользователь
Пользователь
 
Раздал: 147.4 ТБ
Скачал: 40.77 ТБ
Ратио: 623.151
Сообщения: 88
Зарегистрирован: 17 дек 2017, 05:16
Карма: 50

Сообщение VLAD71 » 03 сен 2019, 14:20

На Чесапикских берегах (4 сезон: 1-6 серия из 6) / Chesapeake Shores [2019, Драма, семейный, экранизация, WEB-DL (1080p), Профессиональный (многоголосый, закадровый) - BaibaKo] - Скачать торрент

Название: На Чесапикских берегах
Оригинальное название: Chesapeake Shores
Год выхода: 2019
Жанр: драма, семейный, экранизация
Режиссер: Мартин Вуд

В ролях: Меган Ори, Джесси Меткалф, Барбара Нивен, Дайан Лэдд, Трит Уильямс, Лейси Дж Мейли, Эмили Уллерап, Серж Уд, Вина Суд, Кэйден Магнусон и др.

Описание сериала: Это история многочисленного семейства О'Брайенов. Один из главных персонажей – архитектор и градостроитель Мик О'Брайен. Когда-то он решил создать коммуну на берегу Чесапикского залива, на земле, которой владели ещё его предки. Трудоголик, Мик своей поглощённостью работой и упорством разрушил собственную семью и совсем испортил отношения с братьями. Жена от него ушла, но пятерых детей он ей не отдал, а отправил на воспитание своей матери Нелл.

Прошли годы, дети, уже взрослые, один за другим начали съезжаться в Чизпик, чтобы воссоединить семью, найти понимание с отцом и попытаться примириться с матерью, которая, как они считают, их бросила. Да и братьям Мика нужно забыть былые обиды. Хорошо, что у этого разношерстного семейства есть Нелл, которая скрепляет О'Брайенов в единое целое!


Страна: США
Продолжительность: ~00:45:00
Перевод: Профессиональный (многоголосый, закадровый) BaibaKo
Субтитры: Отсутствуют





Файл
Формат: MKV
Качество: WEB-DL (1080р)

Видео: MPEG-4 AVC, ~ 5173 Кбит/с, 1912x1072
Аудио RUS: AC3, 6 ch, 640 Кбит/с
Аудио ENG: AC3, 6 ch, 384 Кбит/с



Общее
Уникальный идентификатор : 292761483157762026116510049910335578977 (0xDC3FCF89E2027CD5B7750FCDA2D5A361)
Полное имя : Chesapeake.Shores.s04e01.HD1080p.WEB-DL.Rus.Eng.BaibaKo.tv.mkv
Формат : Matroska
Версия формата : Version 4
Размер файла : 1,82 Гбайт
Продолжительность : 42 м. 0 с.
Общий поток : 6199 Кбит/сек
Дата кодирования : UTC 2019-08-27 09:28:56
Программа кодирования : mkvmerge v30.1.0 ('Forever And More') 64-bit
Библиотека кодирования : libebml v1.3.6 + libmatroska v1.4.9

Видео
Идентификатор : 1
Формат : AVC
Формат/Информация : Advanced Video Codec
Профиль формата : High@L4
Настройки формата : CABAC / 4 Ref Frames
Параметр CABAC формата : Да
Параметр RefFrames формата : 4 кадра
Идентификатор кодека : V_MPEG4/ISO/AVC
Продолжительность : 42 м. 0 с.
Битрейт : 5173 Кбит/сек
Ширина : 1912 пикселей
Высота : 1072 пикселя
Соотношение сторон : 16:9
Режим частоты кадров : Постоянный
Частота кадров : 23,976 кадра/сек
Цветовое пространство : YUV
Субдискретизация насыщенности : 4:2:0
Битовая глубина : 8 бит
Тип развёртки : Прогрессивная
Бит/(Пиксели*Кадры) : 0.105
Размер потока : 1,52 Гбайт (83%)
Язык : English
Default : Да
Forced : Нет
Цветовой диапазон : Limited
Основные цвета : BT.709
Характеристики трансфера : BT.709
Коэффициенты матрицы : BT.709

Аудио #1
Идентификатор : 2
Формат : AC-3
Формат/Информация : Audio Coding 3
Коммерческое название : Dolby Digital
Идентификатор кодека : A_AC3
Продолжительность : 42 м. 0 с.
Вид битрейта : Постоянный
Битрейт : 640 Кбит/сек
Каналы : 6 каналов
ChannelLayout : L R C LFE Ls Rs
Частота : 48,0 КГц
Частота кадров : 31,250 кадров/сек (1536 SPF)
Битовая глубина : 16 бит
Метод сжатия : С потерями
Задержка видео : -42 мс.
Размер потока : 192 Мбайт (10%)
Язык : Russian
Default : Да
Forced : Нет

Аудио #2
Идентификатор : 3
Формат : AC-3
Формат/Информация : Audio Coding 3
Коммерческое название : Dolby Digital
Идентификатор кодека : A_AC3
Продолжительность : 42 м. 0 с.
Вид битрейта : Постоянный
Битрейт : 384 Кбит/сек
Каналы : 6 каналов
ChannelLayout : L R C LFE Ls Rs
Частота : 48,0 КГц
Частота кадров : 31,250 кадров/сек (1536 SPF)
Битовая глубина : 16 бит
Метод сжатия : С потерями
Задержка видео : -42 мс.
Размер потока : 115 Мбайт (6%)
Язык : English
Default : Нет
Forced : Нет
Как качать, Как раздавать - Правила и инструкции
Торрент01 окт 2019, 21:25 [ 01 окт 2019, 21:25 ]

СКАЧАТЬ с просмотром рекламы
Статус-
.torrent скачан847 раз
Размер13.64 ГБ (14 645 967 026)

Вернуться в Зарубежные сериалы



Кто сейчас на конференции

Сейчас этот форум просматривают: blw704

Ресурс не предоставляет электронные версии произведений, а занимается лишь коллекционированием и каталогизацией ссылок, присылаемых и публикуемых на форуме нашими читателями. Если вы являетесь правообладателем какого-либо представленного материала и не желаете чтобы ссылка на него находилась в нашем каталоге, свяжитесь с нами и мы незамедлительно удалим её. Файлы для обмена на трекере предоставлены пользователями сайта, и администрация не несёт ответственности за их содержание. Просьба не заливать файлы, защищенные авторскими правами, а также файлы нелегального содержания!