Воображаемые друзья / IF [2024, мультфильм, фэнтези, драма, комедия, семейный, WEB-DLRip 720p | Jaskier] - Скачать торрент бесплатно

BD и HD Фильмы в отличном качестве. Вы можете найти в этом разделе и скачать торрент бесплатно.

Модераторы: Новинки кинематографа, Союз Риперов

BD и HD Фильмы в отличном качестве. Вы можете найти в этом разделе и скачать торрент бесплатно.
Поделиться ВКонтакте Поделиться Facebook Поделиться Twitter Поделиться Mail.RU
АвторСообщение
Konin
Аватара пользователя
Модератор Фильмов
Модератор Фильмов
 
Раздал: 7 ТБ
Скачал: 762.1 ГБ
Ратио: 35.490
Сообщения: 502
Стаж: 11 лет 2 месяца 18 дней
Откуда: Россия, гор. Санкт-Петербург
Награды: 2
Карма: 250
-2--2-

Сообщение Konin » 24 июн 2024, 02:59

Воображаемые друзья / IF [2024, мультфильм, фэнтези, драма, комедия, семейный, WEB-DLRip 720p | Jaskier] - Скачать торрент

Год выхода: 2024
Страна: США, Канада
Студия: Paramount Pictures, Maximum Effort, Platinum Dunes
Жанр: мультфильм, фэнтези, драма, комедия, семейный
Продолжительность: 01:47:25
Перевод: Профессиональный (многоголосый, закадровый) | Jaskier

Режиссер: Джон Красински
В ролях: Кэйли Флеминг, Райан Рейнольдс, Джон Красински, Фиона Шоу, Стив Карелл, Фиби Уоллер-Бридж, Луис Госсет мл., Алан С. Ким, Лиза Колон-Зайас, Бобби Мойнахан

О фильме: Беа заводит знакомства с воображаемыми друзьями, которых бросили их хозяева.



Качество: WEB-DLRip 720p
Формат: MKV
Видео: MPEG-4 AVC, 1280x692 at 23.976 fps, [email protected], ~2672 kbps
Аудио: 48 kHz, AC3, 5.1, 384 Kbps | Многоголосый Закадровый | Jaskier | RUS |
Субтитры: Английские (full)



x264 [info]: frame I:1146 Avg QP:15.68 size: 95021
x264 [info]: frame P:39596 Avg QP:18.12 size: 29445
x264 [info]: frame B:113793 Avg QP:19.99 size: 7714

General
Unique ID : 219624920433976127408790560756241223604 (0xA53A3898AEA656771975342E29DF4FB4)
Complete name : T:IF.2024.P.WEB-DLRip.720p.x264.seleZen.mkv
Format : Matroska
Format version : Version 4
File size : 2.29 GiB
Duration : 1 h 47 min
Overall bit rate : 3 058 kb/s
Frame rate : 23.976 FPS
Movie name : IF.2024.P.WEB-DLRip.720p.x264.seleZen
Encoded date : 2024-06-21 07:05:39 UTC
Writing application : mkvmerge v85.0 ('Shame For You') 64-bit
Writing library : libebml v1.4.5 + libmatroska v1.7.1
Cover : Yes
Attachments : cover.jpg / small_cover.jpg

Video
ID : 1
Format : AVC
Format/Info : Advanced Video Codec
Format profile : [email protected]
Format settings : CABAC / 5 Ref Frames
Format settings, CABAC : Yes
Format settings, Reference : 5 frames
Codec ID : V_MPEG4/ISO/AVC
Duration : 1 h 47 min
Bit rate : 2 672 kb/s
Width : 1 280 pixels
Height : 692 pixels
Display aspect ratio : 1.85:1
Frame rate mode : Constant
Frame rate : 23.976 (24000/1001) FPS
Color space : YUV
Chroma subsampling : 4:2:0
Bit depth : 8 bits
Scan type : Progressive
Bits/(Pixel*Frame) : 0.126
Stream size : 2.00 GiB (87%)
Title : -=DoMiNo=-
Writing library : x264 core 164 r3191 -DoMiNo
Encoding settings : cabac=1 / ref=5 / deblock=1:-2:-1 / analyse=0x3:0x133 / me=umh / subme=10 / psy=1 / psy_rd=1.00:0.15 / mixed_ref=1 / me_range=32 / chroma_me=1 / trellis=2 / 8x8dct=1 / cqm=0 / deadzone=21,11 / fast_pskip=0 / chroma_qp_offset=-3 / threads=22 / lookahead_threads=5 / sliced_threads=0 / nr=0 / decimate=1 / interlaced=0 / bluray_compat=0 / constrained_intra=0 / bframes=10 / b_pyramid=2 / b_adapt=2 / b_bias=0 / direct=3 / weightb=1 / open_gop=0 / weightp=2 / keyint=240 / keyint_min=23 / scenecut=40 / intra_refresh=0 / rc_lookahead=60 / rc=crf / mbtree=0 / crf=19.3 / qcomp=0.60 / qpmin=0 / qpmax=69 / qpstep=4 / vbv_maxrate=50000 / vbv_bufsize=62500 / crf_max=0.0 / nal_hrd=none / filler=0 / ip_ratio=1.40 / pb_ratio=1.30 / aq=3:0.90
Language : English
Default : Yes
Forced : No
Color range : Limited
Color primaries : BT.709
Transfer characteristics : BT.709
Matrix coefficients : BT.709

Audio
ID : 2
Format : AC-3
Format/Info : Audio Coding 3
Commercial name : Dolby Digital
Codec ID : A_AC3
Duration : 1 h 47 min
Bit rate mode : Constant
Bit rate : 384 kb/s
Channel(s) : 6 channels
Channel layout : L R C LFE Ls Rs
Sampling rate : 48.0 kHz
Frame rate : 31.250 FPS (1536 SPF)
Compression mode : Lossy
Stream size : 295 MiB (13%)
Title : MVO -Jaskier
Language : Russian
Service kind : Complete Main
Default : Yes
Forced : No
Dialog Normalization : -31 dB
cmixlev : -4.5 dB
surmixlev : -6 dB
dialnorm_Average : -31 dB
dialnorm_Minimum : -31 dB
dialnorm_Maximum : -31 dB

Text
ID : 3
Format : UTF-8
Codec ID : S_TEXT/UTF8
Codec ID/Info : UTF-8 Plain Text
Duration : 1 h 37 min
Bit rate : 53 b/s
Frame rate : 0.243 FPS
Count of elements : 1415
Stream size : 37.9 KiB (0%)
Language : English
Default : No
Forced : No

Menu
00:00:00.000 : en:Chapter 01
00:05:50.000 : en:Chapter 02
00:11:40.000 : en:Chapter 03
00:17:30.000 : en:Chapter 04
00:23:20.000 : en:Chapter 05
00:29:10.000 : en:Chapter 06
00:35:00.000 : en:Chapter 07
00:40:50.000 : en:Chapter 08
00:46:40.000 : en:Chapter 09
00:52:30.000 : en:Chapter 10
00:58:20.000 : en:Chapter 11
01:04:10.000 : en:Chapter 12
01:10:00.000 : en:Chapter 13
01:15:50.000 : en:Chapter 14
01:21:40.000 : en:Chapter 15
01:27:30.000 : en:Chapter 16
01:33:20.000 : en:Chapter 17
01:39:10.000 : en:Chapter 18
01:45:00.000 : en:Chapter 19
Как качать, Как раздавать - Правила и инструкции
Торрент24 июн 2024, 02:59 [ 24 июн 2024, 02:59 ]

СКАЧАТЬ с просмотром рекламы
СтатусПроверен
.torrent скачан1697 раз
Размер2.29 ГБ (2 463 604 352)

Вернуться в BD / HD

Кто сейчас на конференции

Сейчас этот форум просматривают: нет зарегистрированных пользователей

Ресурс не предоставляет электронные версии произведений, а занимается лишь коллекционированием и каталогизацией ссылок, присылаемых и публикуемых на форуме нашими читателями. Если вы являетесь правообладателем какого-либо представленного материала и не желаете чтобы ссылка на него находилась в нашем каталоге, свяжитесь с нами и мы незамедлительно удалим её. Файлы для обмена на трекере предоставлены пользователями сайта, и администрация не несёт ответственности за их содержание. Просьба не заливать файлы, защищенные авторскими правами, а также файлы нелегального содержания!