Воображаемые друзья / IF [2024, мультфильм, фэнтези, драма, комедия, семейный, WEB-DL 1080p | Jaskier] - Скачать торрент бесплатно

BD и HD Фильмы в отличном качестве. Вы можете найти в этом разделе и скачать торрент бесплатно.

Модераторы: Новинки кинематографа, Союз Риперов

BD и HD Фильмы в отличном качестве. Вы можете найти в этом разделе и скачать торрент бесплатно.
Поделиться ВКонтакте Поделиться Facebook Поделиться Twitter Поделиться Mail.RU
АвторСообщение
Konin
Аватара пользователя
Модератор Фильмов
Модератор Фильмов
 
Раздал: 7 ТБ
Скачал: 762.1 ГБ
Ратио: 35.490
Сообщения: 502
Стаж: 11 лет 2 месяца 18 дней
Откуда: Россия, гор. Санкт-Петербург
Награды: 2
Карма: 250
-2--2-

Сообщение Konin » 24 июн 2024, 03:00

Воображаемые друзья / IF [2024, мультфильм, фэнтези, драма, комедия, семейный, WEB-DL 1080p | Jaskier] - Скачать торрент

Год выхода: 2024
Страна: США, Канада
Студия: Paramount Pictures, Maximum Effort, Platinum Dunes
Жанр: мультфильм, фэнтези, драма, комедия, семейный
Продолжительность: 01:47:25
Перевод: Профессиональный (многоголосый, закадровый) | Jaskier

Режиссер: Джон Красински
В ролях: Кэйли Флеминг, Райан Рейнольдс, Джон Красински, Фиона Шоу, Стив Карелл, Фиби Уоллер-Бридж, Луис Госсет мл., Алан С. Ким, Лиза Колон-Зайас, Бобби Мойнахан

О фильме: Беа заводит знакомства с воображаемыми друзьями, которых бросили их хозяева.



Качество: WEB-DL 1080p
Формат: MKV
Видео: MPEG-4 AVC, 1920x1040 (1.85:1), 23.976 fps, ~7447 kbps
Аудио #01: 48 kHz, AC3, 5.1, 384 Kbps | Многоголосый Закадровый | Jaskier | RUS |
Аудио #02: 48 kHz, E-AC3, 5.1, 640 Kbps | Оригинал | ENG |
Субтитры: Английские (full)



General
Unique ID : 241987667082200526035316925154708178338 (0xB60D2121B564C326872DC4F9EA3045A2)
Complete name : E:TorrentIf.2024.1080p.web.h264-Jaskier.mkv
Format : Matroska
Format version : Version 4
File size : 6.49 GiB
Duration : 1 h 47 min
Overall bit rate : 8 643 kb/s
Frame rate : 23.976 FPS
Encoded date : 2024-06-20 11:43:24 UTC
Writing application : mkvmerge v6.6.0 ('The Edge Of The In Between') built on Dec 1 2013 17:55:00
Writing library : libebml v1.3.0 + libmatroska v1.4.1

Video
ID : 1
Format : AVC
Format/Info : Advanced Video Codec
Format profile : High@L4
Format settings : CABAC / 4 Ref Frames
Format settings, CABAC : Yes
Format settings, Reference frames : 4 frames
Codec ID : V_MPEG4/ISO/AVC
Duration : 1 h 47 min
Bit rate mode : Constant
Bit rate : 7 447 kb/s
Nominal bit rate : 10 000 kb/s
Width : 1 920 pixels
Height : 1 040 pixels
Display aspect ratio : 1.85:1
Frame rate mode : Constant
Frame rate : 23.976 (24000/1001) FPS
Color space : YUV
Chroma subsampling : 4:2:0
Bit depth : 8 bits
Scan type : Progressive
Bits/(Pixel*Frame) : 0.156
Stream size : 5.59 GiB (86%)
Language : English
Default : Yes
Forced : No
Color range : Limited
Color primaries : BT.709
Transfer characteristics : BT.709
Matrix coefficients : BT.709

Audio #1
ID : 2
Format : AC-3
Format/Info : Audio Coding 3
Commercial name : Dolby Digital
Codec ID : A_AC3
Duration : 1 h 47 min
Bit rate mode : Constant
Bit rate : 384 kb/s
Channel(s) : 6 channels
Channel layout : L R C LFE Ls Rs
Sampling rate : 48.0 kHz
Frame rate : 31.250 FPS (1536 SPF)
Compression mode : Lossy
Stream size : 295 MiB (4%)
Title : Jaskier
Language : Russian
Service kind : Complete Main
Default : Yes
Forced : No
Dialog Normalization : -31 dB
cmixlev : -4.5 dB
surmixlev : -6 dB
dialnorm_Average : -31 dB
dialnorm_Minimum : -31 dB
dialnorm_Maximum : -31 dB

Audio #2
ID : 3
Format : E-AC-3
Format/Info : Enhanced AC-3
Commercial name : Dolby Digital Plus
Codec ID : A_EAC3
Duration : 1 h 47 min
Bit rate mode : Constant
Bit rate : 640 kb/s
Channel(s) : 6 channels
Channel layout : L R C LFE Ls Rs
Sampling rate : 48.0 kHz
Frame rate : 31.250 FPS (1536 SPF)
Compression mode : Lossy
Stream size : 492 MiB (7%)
Title : Original
Language : English
Service kind : Complete Main
Default : No
Forced : No
Dialog Normalization : -31 dB
compr : -0.28 dB
dialnorm_Average : -31 dB
dialnorm_Minimum : -31 dB
dialnorm_Maximum : -31 dB

Text
ID : 4
Format : UTF-8
Codec ID : S_TEXT/UTF8
Codec ID/Info : UTF-8 Plain Text
Language : English
Default : No
Forced : No

Как качать, Как раздавать - Правила и инструкции
Торрент24 июн 2024, 03:00 [ 24 июн 2024, 03:00 ]

СКАЧАТЬ с просмотром рекламы
СтатусПроверен
.torrent скачан5521 раз
Размер6.49 ГБ (6 963 423 918)

osa193

Аватара пользователя
Гуру
Гуру
 

Сообщения: 3650

Стаж: 7 лет 7 месяцев 5 дней

Откуда: Москва

Награды: 7
Карма: 214
-2--2-

Сообщение osa193» 03 июл 2024, 19:56

сказка для детей ясельного возраста..осилил тока половину.. *стена


Вернуться в BD / HD

Кто сейчас на конференции

Сейчас этот форум просматривают: нет зарегистрированных пользователей

Ресурс не предоставляет электронные версии произведений, а занимается лишь коллекционированием и каталогизацией ссылок, присылаемых и публикуемых на форуме нашими читателями. Если вы являетесь правообладателем какого-либо представленного материала и не желаете чтобы ссылка на него находилась в нашем каталоге, свяжитесь с нами и мы незамедлительно удалим её. Файлы для обмена на трекере предоставлены пользователями сайта, и администрация не несёт ответственности за их содержание. Просьба не заливать файлы, защищенные авторскими правами, а также файлы нелегального содержания!