Агент разведки / Agent Recon [2024, фантастика, боевик, WEB-DLRip | ViruseProject] - Скачать торрент бесплатно

Новые фильмы сконверченные с blu-ray дисков. HD Фильмы в отличном качестве. Скачать торрент бесплатно вы можете тут.

Модераторы: Новинки кинематографа, Союз Риперов

Новые фильмы сконверченные с blu-ray дисков.HD Фильмы в отличном качестве. Для того чтобы скачать торрент бесплатно можно обойтись без регистрации.
Поделиться ВКонтакте Поделиться Facebook Поделиться Twitter Поделиться Mail.RU
АвторСообщение
Konin
Аватара пользователя
Модератор Фильмов
Модератор Фильмов
 
Раздал: 7 ТБ
Скачал: 762.1 ГБ
Ратио: 35.490
Сообщения: 502
Стаж: 11 лет 2 месяца 18 дней
Откуда: Россия, гор. Санкт-Петербург
Награды: 2
Карма: 250
-2--2-

Сообщение Konin » 24 июн 2024, 01:23

Агент разведки / Agent Recon [2024, фантастика, боевик, WEB-DLRip | ViruseProject] - Скачать торрент

Год выхода: 2024
Страна: США
Студия: Random Art Workshop, BondIt Media Capital, Quiver Distribution
Жанр: фантастика, боевик
Продолжительность: 01:24:31
Перевод: Любительский (двухголосый, закадровый) | ViruseProject

Режиссер: Дерек Тин
В ролях: Чак Норрис, Дерек Тин, Марк Сингер, Сильвия Кван, Джейсон Скотт Дженкинс, Мэттью Райан Барнетт, Никки Ли, Тео Брионес, Кристофер Шоуэрман, Яретт Харпер

О фильме: Аластер, командир тайной оперативной группы по обеспечению безопасности Земли, призывает суперсильного новичка Джима отправиться на задание под руководством закаленного в боях полковника Грина и его опытных морских пехотинцев, чтобы отследить таинственное энергетическое возмущение на базе в Нью-Мексико, где, как подозревают, проводятся эксперименты с инопланетными технологиями. Когда команда сталкивается с неизвестным существом, обладающим не только необычайной силой и скоростью, но и способностью управлять безмозглыми воинами, троице приходится пробиваться сквозь неудержимые орды, чтобы раскрыть правду о враждебной крепости пришельцев и предотвратить гибель человечества.



Качество: WEB-DLRip
Формат: AVI
Видео: 704x400, 23.976 fps, XviD, ~2079 kbps
Аудио #01: 48 kHz, AC3, 2.0, 192 Kbps | Двухголосый Закадровый | ViruseProject | RUS |
Аудио #02: 48 kHz, AC3, 2.0, 192 Kbps | Оригинал | ENG |
Субтитры: Английские (Full, SDH) - отдельно



General
Complete name: Agent.Recon.2024.AR-Team.avi
Format: AVI
Format/Info: Audio Video Interleave
Format settings: BitmapInfoHeader / WaveFormatEx
File size: 1.46 GiB
Duration: 1 h 24 min
Overall bit rate: 2 478 kb/s
Frame rate: 23.976 FPS
Writing application: VirtualDubModRus 1.5.10.2 (build 2542/release)
Writing library: VirtualDubMod build 2542/release

Video
ID: 0
Format: MPEG-4 Visual
Format profile: Advanced Simple@L5
Format settings: BVOP1 / Custom Matrix
Format settings, BVOP: 1
Format settings, QPel: No
Format settings, GMC: No warppoints
Format settings, Matrix: Custom
Codec ID: XVID
Codec ID/Hint: XviD
Duration: 1 h 24 min
Bit rate: 2 079 kb/s
Width: 704 pixels
Height: 400 pixels
Display aspect ratio: 16:9
Frame rate: 23.976 (24000/1001) FPS
Color space: YUV
Chroma subsampling: 4:2:0
Bit depth: 8 bits
Scan type: Progressive
Compression mode: Lossy
Bits/(Pixel*Frame): 0.308
Stream size: 1.23 GiB (84%)
Writing library: XviD 73

Audio #1
ID: 1
Format: AC-3
Format/Info: Audio Coding 3
Commercial name: Dolby Digital
Codec ID: 2000
Duration: 1 h 24 min
Bit rate mode: Constant
Bit rate: 192 kb/s
Channel(s): 2 channels
Channel layout: L R
Sampling rate: 48.0 kHz
Frame rate: 31.250 FPS (1536 SPF)
Compression mode: Lossy
Stream size: 116 MiB (8%)
Alignment: Split across interleaves
Interleave, duration: 42 ms (1.00 video frame)
Interleave, preload duration: 500 ms
Service kind: Complete Main
Dialog Normalization: -31 dB
dialnorm_Average: -31 dB
dialnorm_Minimum: -31 dB
dialnorm_Maximum: -31 dB

Audio #2
ID: 2
Format: AC-3
Format/Info: Audio Coding 3
Commercial name: Dolby Digital
Codec ID: 2000
Duration: 1 h 24 min
Bit rate mode: Constant
Bit rate: 192 kb/s
Channel(s): 2 channels
Channel layout: L R
Sampling rate: 48.0 kHz
Frame rate: 31.250 FPS (1536 SPF)
Compression mode: Lossy
Stream size: 116 MiB (8%)
Alignment: Split across interleaves
Interleave, duration: 42 ms (1.00 video frame)
Interleave, preload duration: 500 ms
Service kind: Complete Main
Dialog Normalization: -31 dB
dialnorm_Average: -31 dB
dialnorm_Minimum: -31 dB
dialnorm_Maximum: -31 dB
Как качать, Как раздавать - Правила и инструкции
Торрент24 июн 2024, 01:23 [ 24 июн 2024, 01:23 ]

СКАЧАТЬ с просмотром рекламы
СтатусПроверен
.torrent скачан8628 раз
Размер1.46 ГБ (1 570 916 402)

Вернуться в BDRip/HDRip

Кто сейчас на конференции

Сейчас этот форум просматривают: нет зарегистрированных пользователей

Ресурс не предоставляет электронные версии произведений, а занимается лишь коллекционированием и каталогизацией ссылок, присылаемых и публикуемых на форуме нашими читателями. Если вы являетесь правообладателем какого-либо представленного материала и не желаете чтобы ссылка на него находилась в нашем каталоге, свяжитесь с нами и мы незамедлительно удалим её. Файлы для обмена на трекере предоставлены пользователями сайта, и администрация не несёт ответственности за их содержание. Просьба не заливать файлы, защищенные авторскими правами, а также файлы нелегального содержания!