Величайшие природные памятники планеты (1 сезон: 1-6 серии из 6) / World's Greatest Natural Icons [2022, Документальный, природа, WEB-DL 1080p | Pazl Voice] - Скачать торрент бесплатно

Модераторы: Кандидат в Союз Риперов, Модераторы ТВ-Шоу, документальные, спорт, Союз Риперов

Поделиться ВКонтакте Поделиться Facebook Поделиться Twitter Поделиться Mail.RU
АвторСообщение
VLAD71
Аватара пользователя
Модератор Фильмов
Модератор Фильмов
 
Раздал: 154.07 ТБ
Скачал: 40.94 ТБ
Ратио: 630.967
Сообщения: 379
Стаж: 6 лет 6 месяцев 28 дней
Награды: 13
Карма: 65

Сообщение VLAD71 » 27 май 2024, 17:15

Величайшие природные памятники планеты (1 сезон: 1-6 серии из 6) / World's Greatest Natural Icons [2022, Документальный, природа, WEB-DL 1080p | Pazl Voice] - Скачать торрент

Название: Величайшие природные памятники планеты
Оригинальное название: World's Greatest Natural Icons
Год выхода: 2022
Жанр: Документальный, природа
Режиссер: Майк Блютт

В ролях: Питер МакАллум

Описание сериала: Документальный сериал, в котором вы совершите экскурсию по самым знаковым природным достопримечательностям и впечатляющим природным явлениям.

Страна: США
Студия: PBS International
Продолжительность: ~00:50:00
Перевод: Профессиональный (одноголосый) Pazl Voice
Субтитры: Русские (Forced, Full), английские (Full)



Файл
Формат: MKV
Качество: WEB-DL (1080p)

Видео: 1920x1072 (16:9), 25 fps, AVC (х264), High@L4, ~5846 Kbps avg, 0.114 bit/pixel
Аудио RUS: 48 kHz, AC3, 3/2 (L, C, R, l, r) + LFE ch, ~384 kbps avg
Аудио ENG: 48 kHz, E-AC3, 3/2 (L, C, R, l, r) + LFE ch, ~384 kbps avg




Общее
Уникальный идентификатор : 267442113486071420644941173257095699940 (0xC9337A3BD24CE6C168BDCF8BEA595DE4)
Полное имя : World's.Greatest.Natural.Icons.2022.S01E01.WEB-DL.1080p.Pazl.Voice.mkv
Формат : Matroska
Версия формата : Version 4
Размер файла : 2,40 Гбайт
Продолжительность : 52 мин. 1 с.
Общий битрейт : 6 616 Кбит/сек
Частота кадров : 25,000 кадров/сек
Дата кодирования : 2024-05-27 10:49:49 UTC
Программа кодирования : mkvmerge v68.0.0 ('The Curtain') 64-bit
Библиотека кодирования : libebml v1.4.2 + libmatroska v1.6.4

Видео
Идентификатор : 1
Формат : AVC
Формат/Информация : Advanced Video Codec
Профиль формата : Progressive High@L4
Настройки формата : CABAC / 2 Ref Frames
Параметр CABAC формата : Да
Параметр RefFrames формата : 2 кадра
Идентификатор кодека : V_MPEG4/ISO/AVC
Продолжительность : 52 мин. 1 с.
Битрейт : 5 846 Кбит/сек
Ширина : 1 920 пикселей
Высота : 1 072 пикселя
Соотношение сторон дисплея : 16:9
Режим частоты кадров : Постоянный
Частота кадров : 25,000 кадров/сек
Цветовое пространство : YUV
Цветовая субдискретизация : 4:2:0
Битовая глубина : 8 бит
Тип развёртки : Прогрессивная
Бит/(Пиксели*Кадры) : 0.114
Размер потока : 2,12 Гбайт (88%)
По умолчанию : Да
Принудительно : Нет
Цветовой диапазон : Limited
Основные цвета : BT.709
Характеристики трансфера : BT.709
Коэффициенты матрицы : BT.709

Аудио #1
Идентификатор : 2
Формат : AC-3
Формат/Информация : Audio Coding 3
Коммерческое название : Dolby Digital
Идентификатор кодека : A_AC3
Продолжительность : 52 мин. 1 с.
Вид битрейта : Постоянный
Битрейт : 384 Кбит/сек
Канал(-ы) : 6 каналов
Расположение каналов : L R C LFE Ls Rs
Частота дискретизации : 48,0 КГц
Частота кадров : 31,250 кадров/сек (1536 SPF)
Метод сжатия : С потерями
Размер потока : 143 Мбайт (6%)
Язык : Русский
По умолчанию : Да
Принудительно : Нет
Нормализация звука речи : -31 dB
cmixlev : -4.5 dB
surmixlev : -6 dB
dialnorm_Average : -31 dB
dialnorm_Minimum : -31 dB
dialnorm_Maximum : -31 dB

Аудио #2
Идентификатор : 3
Формат : E-AC-3
Формат/Информация : Enhanced AC-3
Коммерческое название : Dolby Digital Plus
Идентификатор кодека : A_EAC3
Продолжительность : 52 мин. 1 с.
Вид битрейта : Постоянный
Битрейт : 384 Кбит/сек
Канал(-ы) : 6 каналов
Расположение каналов : L R C LFE Ls Rs
Частота дискретизации : 48,0 КГц
Частота кадров : 31,250 кадров/сек (1536 SPF)
Метод сжатия : С потерями
Размер потока : 143 Мбайт (6%)
Язык : Английский
По умолчанию : Нет
Принудительно : Нет
Нормализация звука речи : -31 dB
dialnorm_Average : -31 dB
dialnorm_Minimum : -31 dB
dialnorm_Maximum : -31 dB

Текст #1
Идентификатор : 4
Формат : UTF-8
Идентификатор кодека : S_TEXT/UTF8
Идентификатор кодека/Информация : UTF-8 Plain Text
Продолжительность : 50 мин. 30 с.
Битрейт : 4 бит/сек
Частота кадров : 0,014 кадр/сек
Число элементов : 42
Размер потока : 1,76 КиБ (0%)
Заголовок : Forced
Язык : Русский
По умолчанию : Нет
Принудительно : Нет

Текст #2
Идентификатор : 5
Формат : UTF-8
Идентификатор кодека : S_TEXT/UTF8
Идентификатор кодека/Информация : UTF-8 Plain Text
Продолжительность : 51 мин. 17 с.
Битрейт : 136 бит/сек
Частота кадров : 0,142 кадр/сек
Число элементов : 436
Размер потока : 51,3 КиБ (0%)
Язык : Русский
По умолчанию : Нет
Принудительно : Нет

Текст #3
Идентификатор : 6
Формат : UTF-8
Идентификатор кодека : S_TEXT/UTF8
Идентификатор кодека/Информация : UTF-8 Plain Text
Продолжительность : 51 мин. 30 с.
Битрейт : 69 бит/сек
Частота кадров : 0,214 кадр/сек
Число элементов : 661
Размер потока : 26,1 КиБ (0%)
Язык : Английский
По умолчанию : Нет
Принудительно : Нет

Как качать, Как раздавать - Правила и инструкции
Торрент14 июн 2024, 14:23 [ 14 июн 2024, 14:23 ]

СКАЧАТЬ с просмотром рекламы
СтатусПроверен VLAD71
.torrent скачан76 раз
Размер16.65 ГБ (17 878 356 779)

Вернуться в Discovery / NatGeo / BBC / Viasat

Кто сейчас на конференции

Сейчас этот форум просматривают: нет зарегистрированных пользователей

Ресурс не предоставляет электронные версии произведений, а занимается лишь коллекционированием и каталогизацией ссылок, присылаемых и публикуемых на форуме нашими читателями. Если вы являетесь правообладателем какого-либо представленного материала и не желаете чтобы ссылка на него находилась в нашем каталоге, свяжитесь с нами и мы незамедлительно удалим её. Файлы для обмена на трекере предоставлены пользователями сайта, и администрация не несёт ответственности за их содержание. Просьба не заливать файлы, защищенные авторскими правами, а также файлы нелегального содержания!