(Techno, Big Beat, Acid) The Prodigy – Voodoo People - 1995, FLAC, lossless - Скачать торрент бесплатно

Модераторы: Модераторы Музыки, Союз Риперов

Поделиться ВКонтакте Поделиться Facebook Поделиться Twitter Поделиться Mail.RU
АвторСообщение
Doktor_75
Аватара пользователя
Модератор Музыки
Модератор Музыки
 
Раздал: 89.02 ГБ
Скачал: 2.87 ГБ
Ратио: None.
Сообщения: 552
Стаж: 2 года 1 месяц 9 дней
Откуда: Россия, Калининград
Награды: 8
Карма: 5

Сообщение Doktor_75 » 18 сен 2023, 19:43

(Techno, Big Beat, Acid) The Prodigy – Voodoo People - 1995, FLAC, lossless - Скачать торрент

Исполнитель: The Prodigy
Альбом: Voodoo People
Год выхода: 1995
Жанр: Techno, Big Beat, Acid
Cтрана исполнителя: US
Тип рипа: image+.cue
Аудио кодек: FLAC
Битрейт: lossless
Продолжительность: 00:43:05
01. Voodoo People (Edit) - 4:07
02. Voodoo People (Chemical Brothers Remix) - 5:56
03. No Good (Start The Dance) (CJ Bolland Museum Remix) - 5:13
04. Rat Poison - 5:31
05. Speedway (Theme From Fastlane) (Secret Knowledge Remix) - 10:25
06. Voodoo People (Haiti Island Remix) - 5:23
07. Voodoo People (Original Mix) - 6:26
Exact Audio Copy V1.6 from 23. October 2020

Отчёт EAC об извлечении, выполненном 18. сентября 2023, 10:35

The Prodigy / Voodoo People

Дисковод: ASUS DRW-24F1ST a Adapter: 1 ID: 0

Режим чтения : Достоверность
Использование точного потока : Да
Отключение кэша аудио : Да
Использование указателей C2 : Нет

Коррекция смещения при чтении : 6
Способность читать области Lead-in и Lead-out : Нет
Заполнение пропущенных сэмплов тишиной : Да
Удаление блоков с тишиной в начале и конце : Нет
При вычислениях CRC использовались нулевые сэмплы : Да
Интерфейс : Встроенный Win32-интерфейс для Win NT/2000

Выходной формат : Пользовательский кодировщик
Выбранный битрейт : 896 kBit/s
Качество : Высокий
Добавление ID3-тега : Нет
Утилита сжатия : C:\Users\admin\Downloads\flac-1.4.3-win\Win64\flac.exe
Дополнительные параметры : -V -8 -T "Date=%year%" -T "Genre=%genre%" %source%

TOC извлечённого CD

Трек | Старт | Длительность | Начальный сектор | Конечный сектор
---------------------------------------------------------------------
1 | 0:00.32 | 4:07.40 | 32 | 18596
2 | 4:07.72 | 5:56.45 | 18597 | 45341
3 | 10:04.42 | 5:13.30 | 45342 | 68846
4 | 15:17.72 | 5:31.23 | 68847 | 93694
5 | 20:49.20 | 10:25.65 | 93695 | 140634
6 | 31:15.10 | 5:23.22 | 140635 | 164881
7 | 36:38.32 | 6:26.63 | 164882 | 193894

Характеристики диапазона извлечения и сообщения об ошибках

Выбранный диапазон

Имя файла E:\СD\The Prodigy – Voodoo People - 1995\The Prodigy - Voodoo People.wav

Пиковый уровень 99.4 %
Скорость извлечения 2.3 X
Качество диапазона 99.9 %
CRC теста 12394591
CRC копии 12394591
Копирование... OK

Ошибок не произошло

AccurateRip: сводка

Трек 1 : извлечено точно (достоверность 66) [6C4B04EE] (AR v2)
Трек 2 : извлечено точно (достоверность 65) [A3715869] (AR v2)
Трек 3 : извлечено точно (достоверность 64) [EFF66A6D] (AR v2)
Трек 4 : извлечено точно (достоверность 65) [CBF20D24] (AR v2)
Трек 5 : извлечено точно (достоверность 63) [477A687E] (AR v2)
Трек 6 : извлечено точно (достоверность 64) [06D4352B] (AR v2)
Трек 7 : извлечено точно (достоверность 63) [C9061405] (AR v2)

Все треки извлечены точно

Конец отчёта

==== Контрольная сумма отчёта C6DAC68B1C9F06EAE96567EFEEDA63CF141043DF9D0534B134BE80E9C5D11DFC ====
Как качать, Как раздавать - Правила и инструкции
Торрент18 сен 2023, 19:43 [ 18 сен 2023, 19:43 ]

СКАЧАТЬ с просмотром рекламы
СтатусПроверен Doktor_75
.torrent скачан68 раз
Размер305.57 МБ (320 413 024)

Вернуться в Electronic - lossless

Кто сейчас на конференции

Сейчас этот форум просматривают: нет зарегистрированных пользователей

Ресурс не предоставляет электронные версии произведений, а занимается лишь коллекционированием и каталогизацией ссылок, присылаемых и публикуемых на форуме нашими читателями. Если вы являетесь правообладателем какого-либо представленного материала и не желаете чтобы ссылка на него находилась в нашем каталоге, свяжитесь с нами и мы незамедлительно удалим её. Файлы для обмена на трекере предоставлены пользователями сайта, и администрация не несёт ответственности за их содержание. Просьба не заливать файлы, защищенные авторскими правами, а также файлы нелегального содержания!