Демоны старшей школы \ High School DxD (12 серий из 12) (мистика, этти, романтика, школа) (2012) [JAP] [RUS] [SUB] - Скачать торрент бесплатно

Демоны старшей школы все выпуски, все сезоны в этом разделе. Торрент файл можно скачать бесплатно и без регистрации

Модераторы: Модераторы Сериалы, мультсериалы, Союз Риперов

Демоны старшей школы все выпуски, все сезоны в этом разделе. Торрент файл можно скачать бесплатно и без регистрации
Поделиться ВКонтакте Поделиться Facebook Поделиться Twitter Поделиться Mail.RU
АвторСообщение
kavaychik

 
Стаж: 54 года 5 месяцев 24 дня

Сообщение kavaychik » 18 мар 2012, 01:21

Демоны старшей школы \ High School DxD (12 серий из 12) (мистика, этти, романтика, школа) (2012) [JAP] [RUS] [SUB] - Скачать торрент

Страна: Япония.
Язык: Японский.
Год выхода: 2012 г.
Жанр: мистика, этти, романтика, школа.
Тип: ТВ.
Количество серий: 12 серий по 25 мин.
Режиссер: Янагисава Тэцуя.

Описание: Что нужно от жизни простому 17-летнему японскому школьнику? Иссэй Хёдо отлично знает ответ, ведь ради этого он и записался в бывшую женскую академию Комао! Хёдо наивно полагал, что после начала совместного обучения в условиях дефицита парней станет королем и познает весну жизни, однако идет второй год, девушки все так же преследуют немногих красавчиков, а герой с друзьями кусают локти и ищут дыры в женских раздевалках. О таких же, как королева школы Риас Гремори, остается только мечтать. Впрочем, жаркие мольбы Иссэя всем богам юности возымели эффект. Боги решили испытать парня и послали ему подружку, которая на первом же свидании… вонзила герою полметра стали в живот.
Долго ли, коротко, а Иссэй понял, что был спасен той самой Риас Гремори, недосягаемой красавицей и школьным идолом, а на деле – принцессой демонов. Теперь герой сам стал демоном и ее вассалом, а значит, присоединился к боевому отряду семьи Гремори, действующему под прикрытием школьного клуба оккультизма. Враг известен – падшие ангелы, которые желают сами играть первую скрипку в темном мире. Зачем Хёдо понадобился двум столь могущественным силам? Разумеется, дело в некоей сверхспособности, причем парень уверен, что знает истину – он больше всех в Японии достоин высокого звания Короля Гарема! © Hollow, World Art

Тип видео: HDTVRip
Формат видео: mkv
Разрешение: 1280x720

Дополнительная информация

Видео: 1280x720 (16:9), H264/AVC
Аудио #1: JP - AAC, 2 канала, Original (вшитая)
Аудио #2: RUS - AAC, 2 канала, [Zendos & Eladiel &Lupin(02-12) & ITLM(01)] (внешняя)
Субтитры #1: RUS (внешние)
Субтитры #2: RUS - Надписи (внешние)
01. I Made a Girlfriend
02. I Stopped Being a Human
03. I Made a New Friend!
04. Save My Friend!
05. I`m Going to Overthrow my Ex-Girlfriend!
06. My Job as a Devil!
07. I`ll Get a Familiar!
08. I Pick a Fight!
09. My Training Begins!
10. Beginning of the Decisive Battle!
11. High Praises During the Decisive Battle!
12. I Came to Carry Out My Promise!
Общее
Полное имя : High_School_DxD_e01.mkv
Формат : Matroska
Версия формата : Version 2
Размер файла : 286 Мбайт
Продолжительность : 24 м.
Режим общего битрейта : Переменный
Общий поток : 1667 Кбит/сек
Дата кодирования : UTC 2012-03-18 11:45:39
Программа кодирования : mkvmerge v5.4.0 ('Piper') built on Mar 15 2012 19:09:47
Библиотека кодирования : libebml v1.2.3 + libmatroska v1.3.0

Видео
Идентификатор : 1
Формат : AVC
Формат/Информация : Advanced Video Codec
Профиль формата : [email protected]
Параметр CABAC формата : Да
Параметр ReFrames формата : 4 кадра
Идентификатор кодека : V_MPEG4/ISO/AVC
Продолжительность : 24 м.
Вид битрейта : Переменный
Максимальный битрейт : 14,0 Мбит/сек
Ширина : 1280 пикселей
Высота : 720 пикселей
Соотношение сторон : 16:9
Частота кадров : 23,976 кадра/сек
Стандарт вещания : NTSC
Цветовое пространство : YUV
Субдискретизация насыщенности : 4:2:0
Битовая глубина : 8 бит
Тип развёртки : Прогрессивная
Default : Да
Forced : Нет
Основные цвета : BT.709-5, BT.1361, IEC 61966-2-4, SMPTE RP177
Характеристики трансфера : BT.709-5, BT.1361
Коэффициенты матрицы : BT.709-5, BT.1361, IEC 61966-2-4 709, SMPTE RP177

Аудио
Идентификатор : 2
Формат : AAC
Формат/Информация : Advanced Audio Codec
Профиль формата : LC
Идентификатор кодека : A_AAC
Продолжительность : 24 м.
Каналы : 2 канала
Расположение каналов : Front: L R
Частота : 44,1 КГц
Метод сжатия : С потерями
Заголовок : Original
Язык : Japanese
Default : Да
Forced : Нет

Общее
Полное имя : High_School_DxD_e01_Labels.ass
Размер файла : 2,05 Кбайт

Общее
Полное имя : High_School_DxD_e01_subtitles.ass
Размер файла : 49,9 Кбайт

Общее
Полное имя : High_School_DxD_e01_[Zendos & Eladiel & ITLM].aac
Формат : ADTS
Формат/Информация : Audio Data Transport Stream
Размер файла : 22,4 Мбайт
Аудио
Формат : AAC
Формат/Информация : Advanced Audio Codec
Версия формата : Version 4
Профиль формата : LC
Вид битрейта : Переменный / Переменный
Минимальный битрейт : 6375 бит/сек
Максимальный битрейт : 414 Кбит/сек
Каналы : 2 канала
Расположение каналов : Front: L R
Частота : 44,1 КГц
Метод сжатия : С потерями
Размер потока : 22,4 Мбайт (100%)
============================================================================
Общее
Полное имя : High_School_DxD_e02.mkv
Формат : Matroska
Версия формата : Version 2
Размер файла : 375 Мбайт
Продолжительность : 23 м.
Общий поток : 2189 Кбит/сек
Дата кодирования : UTC 2012-03-18 11:45:53
Программа кодирования : mkvmerge v5.4.0 ('Piper') built on Mar 15 2012 19:09:47
Библиотека кодирования : libebml v1.2.3 + libmatroska v1.3.0

Видео
Идентификатор : 1
Формат : AVC
Формат/Информация : Advanced Video Codec
Профиль формата : [email protected]
Параметр CABAC формата : Да
Параметр ReFrames формата : 6 кадров
Идентификатор кодека : V_MPEG4/ISO/AVC
Продолжительность : 23 м.
Ширина : 1280 пикселей
Высота : 720 пикселей
Соотношение сторон : 16:9
Частота кадров : 29,970 кадров/сек
Цветовое пространство : YUV
Субдискретизация насыщенности : 4:2:0
Битовая глубина : 8 бит
Тип развёртки : Прогрессивная
Библиотека кодирования : x264 core 120 r2120 0c7dab9
Настройки программы : cabac=1 / ref=6 / deblock=1:1:1 / analyse=0x3:0x113 / me=hex / subme=7 / psy=1 / psy_rd=0.40:0.00 / mixed_ref=1 / me_range=16 / chroma_me=1 / trellis=1 / 8x8dct=1 / cqm=0 / deadzone=21,11 / fast_pskip=1 / chroma_qp_offset=-2 / threads=18 / sliced_threads=0 / nr=0 / decimate=1 / interlaced=0 / bluray_compat=0 / constrained_intra=0 / bframes=5 / b_pyramid=2 / b_adapt=1 / b_bias=0 / direct=1 / weightb=1 / open_gop=0 / weightp=2 / keyint=250 / keyint_min=25 / scenecut=40 / intra_refresh=0 / rc_lookahead=40 / rc=crf / mbtree=1 / crf=19.0 / qcomp=0.60 / qpmin=0 / qpmax=69 / qpstep=4 / ip_ratio=1.40 / aq=1:0.60
Default : Да
Forced : Нет
Основные цвета : BT.709-5, BT.1361, IEC 61966-2-4, SMPTE RP177
Характеристики трансфера : BT.709-5, BT.1361
Коэффициенты матрицы : BT.709-5, BT.1361, IEC 61966-2-4 709, SMPTE RP177

Аудио
Идентификатор : 2
Формат : AAC
Формат/Информация : Advanced Audio Codec
Профиль формата : LC
Идентификатор кодека : A_AAC
Продолжительность : 23 м.
Каналы : 2 канала
Расположение каналов : Front: L R
Частота : 44,1 КГц
Метод сжатия : С потерями
Заголовок : Original
Язык : Japanese
Default : Да
Forced : Нет

Общее
Полное имя : High_School_DxD_e02_Labels.ass
Размер файла : 2,72 Кбайт

Общее
Полное имя : High_School_DxD_e02_Subtitles.ass
Размер файла : 57,3 Кбайт

Общее
Полное имя : High_School_DxD_e02_[Zendos & Eladiel & Lupin].aac
Формат : ADTS
Формат/Информация : Audio Data Transport Stream
Размер файла : 22,4 Мбайт
Аудио
Формат : AAC
Формат/Информация : Advanced Audio Codec
Версия формата : Version 4
Профиль формата : LC
Вид битрейта : Переменный / Переменный
Минимальный битрейт : 6375 бит/сек
Максимальный битрейт : 224 Кбит/сек
Каналы : 2 канала
Расположение каналов : Front: L R
Частота : 44,1 КГц
Метод сжатия : С потерями
Размер потока : 22,4 Мбайт (100%)
===========================================================================
Общее
Полное имя : High_School_DxD_e03.mkv
Формат : Matroska
Версия формата : Version 2
Размер файла : 359 Мбайт
Продолжительность : 24 м.
Общий поток : 2091 Кбит/сек
Дата кодирования : UTC 2012-03-20 09:01:05
Программа кодирования : mkvmerge v5.4.0 ('Piper') built on Mar 15 2012 19:09:47
Библиотека кодирования : libebml v1.2.3 + libmatroska v1.3.0

Видео
Идентификатор : 1
Формат : AVC
Формат/Информация : Advanced Video Codec
Профиль формата : [email protected]
Параметр CABAC формата : Да
Параметр ReFrames формата : 4 кадра
Идентификатор кодека : V_MPEG4/ISO/AVC
Продолжительность : 24 м.
Ширина : 1280 пикселей
Высота : 720 пикселей
Соотношение сторон : 16:9
Режим частоты кадров : Переменный
Частота кадров : 23,976 кадра/сек
Цветовое пространство : YUV
Субдискретизация насыщенности : 4:2:0
Битовая глубина : 8 бит
Тип развёртки : Прогрессивная
Библиотека кодирования : x264 core 120 r2120 0c7dab9
Настройки программы : cabac=1 / ref=3 / deblock=1:0:0 / analyse=0x3:0x113 / me=umh / subme=9 / psy=1 / psy_rd=1.00:0.00 / mixed_ref=1 / me_range=32 / chroma_me=1 / trellis=2 / 8x8dct=1 / cqm=0 / deadzone=21,11 / fast_pskip=1 / chroma_qp_offset=-2 / threads=12 / sliced_threads=0 / nr=0 / decimate=1 / interlaced=0 / bluray_compat=0 / constrained_intra=0 / bframes=3 / b_pyramid=2 / b_adapt=2 / b_bias=0 / direct=3 / weightb=1 / open_gop=0 / weightp=2 / keyint=240 / keyint_min=1 / scenecut=40 / intra_refresh=0 / rc_lookahead=40 / rc=crf / mbtree=1 / crf=21.0 / qcomp=0.70 / qpmin=10 / qpmax=69 / qpstep=4 / ip_ratio=1.40 / aq=1:1.00
Язык : Japanese
Default : Да
Forced : Нет

Аудио
Идентификатор : 2
Формат : AAC
Формат/Информация : Advanced Audio Codec
Профиль формата : LC
Идентификатор кодека : A_AAC
Продолжительность : 24 м.
Каналы : 2 канала
Расположение каналов : Front: L R
Частота : 48,0 КГц
Метод сжатия : С потерями
Заголовок : Original
Язык : Japanese
Default : Да
Forced : Нет

Общее
Полное имя : High_School_DxD_e03_Subtitles.ass
Размер файла : 61,1 Кбайт

Общее
Полное имя : High_School_DxD_e03_[Zendos & Eladiel & Lupin].aac
Формат : ADTS
Формат/Информация : Audio Data Transport Stream
Размер файла : 27,9 Мбайт
Аудио
Формат : AAC
Формат/Информация : Advanced Audio Codec
Версия формата : Version 4
Профиль формата : LC
Вид битрейта : Переменный / Переменный
Минимальный битрейт : 6375 бит/сек
Максимальный битрейт : 268 Кбит/сек
Каналы : 2 канала
Расположение каналов : Front: L R
Частота : 48,0 КГц
Метод сжатия : С потерями
Размер потока : 27,9 Мбайт (100%)
===========================================================================
Общее
Полное имя : High_School_DxD_e04.mkv
Формат : Matroska
Версия формата : Version 2
Размер файла : 388 Мбайт
Продолжительность : 24 м.
Общий поток : 2260 Кбит/сек
Дата кодирования : UTC 2012-03-18 11:46:40
Программа кодирования : mkvmerge v5.4.0 ('Piper') built on Mar 15 2012 19:09:47
Библиотека кодирования : libebml v1.2.3 + libmatroska v1.3.0

Видео
Идентификатор : 1
Формат : AVC
Формат/Информация : Advanced Video Codec
Профиль формата : [email protected]
Параметр CABAC формата : Да
Параметр ReFrames формата : 4 кадра
Идентификатор кодека : V_MPEG4/ISO/AVC
Продолжительность : 24 м.
Ширина : 1280 пикселей
Высота : 720 пикселей
Соотношение сторон : 16:9
Режим частоты кадров : Переменный
Частота кадров : 23,976 кадра/сек
Цветовое пространство : YUV
Субдискретизация насыщенности : 4:2:0
Битовая глубина : 8 бит
Тип развёртки : Прогрессивная
Библиотека кодирования : x264 core 120 r2146 bcd41db
Настройки программы : cabac=1 / ref=3 / deblock=1:0:0 / analyse=0x3:0x113 / me=umh / subme=9 / psy=1 / psy_rd=1.00:0.00 / mixed_ref=1 / me_range=32 / chroma_me=1 / trellis=2 / 8x8dct=1 / cqm=0 / deadzone=21,11 / fast_pskip=1 / chroma_qp_offset=-2 / threads=12 / sliced_threads=0 / nr=0 / decimate=1 / interlaced=0 / bluray_compat=0 / constrained_intra=0 / bframes=3 / b_pyramid=2 / b_adapt=2 / b_bias=0 / direct=3 / weightb=1 / open_gop=0 / weightp=2 / keyint=240 / keyint_min=1 / scenecut=40 / intra_refresh=0 / rc_lookahead=40 / rc=crf / mbtree=1 / crf=21.0 / qcomp=0.70 / qpmin=10 / qpmax=69 / qpstep=4 / ip_ratio=1.40 / aq=1:1.00
Язык : Japanese
Default : Да
Forced : Нет

Аудио
Идентификатор : 2
Формат : AAC
Формат/Информация : Advanced Audio Codec
Профиль формата : LC
Идентификатор кодека : A_AAC
Продолжительность : 24 м.
Каналы : 2 канала
Расположение каналов : Front: L R
Частота : 48,0 КГц
Метод сжатия : С потерями
Заголовок : Original
Язык : Japanese
Default : Да
Forced : Нет

Общее
Полное имя : High_School_DxD_e04_Labels.ass
Размер файла : 14,7 Кбайт

Общее
Полное имя : High_School_DxD_e04_Subtitles.ass
Размер файла : 60,5 Кбайт

Общее
Полное имя : High_School_DxD_e04_[Zendos & Eladiel & Lupin].aac
Формат : ADTS
Формат/Информация : Audio Data Transport Stream
Размер файла : 27,9 Мбайт
Аудио
Формат : AAC
Формат/Информация : Advanced Audio Codec
Версия формата : Version 4
Профиль формата : LC
Вид битрейта : Переменный / Переменный
Минимальный битрейт : 6375 бит/сек
Максимальный битрейт : 280 Кбит/сек
Каналы : 2 канала
Расположение каналов : Front: L R
Частота : 48,0 КГц
Метод сжатия : С потерями
Размер потока : 27,9 Мбайт (100%)
===========================================================================
Общее
Уникальный идентификатор : 242142048378840974194515322801813134438 (0xB62ADCB79E8689F497DBA49459431C66)
Полное имя : High_School_DxD_e05.mkv
Формат : Matroska
Версия формата : Version 2
Размер файла : 309 Мбайт
Продолжительность : 23 м.
Общий поток : 1799 Кбит/сек
Дата кодирования : UTC 2012-03-18 11:47:05
Программа кодирования : mkvmerge v5.4.0 ('Piper') built on Mar 15 2012 19:09:47
Библиотека кодирования : libebml v1.2.3 + libmatroska v1.3.0

Видео
Идентификатор : 1
Формат : AVC
Формат/Информация : Advanced Video Codec
Профиль формата : [email protected]
Параметр CABAC формата : Да
Параметр ReFrames формата : 4 кадра
Идентификатор кодека : V_MPEG4/ISO/AVC
Продолжительность : 23 м.
Ширина : 1280 пикселей
Высота : 720 пикселей
Соотношение сторон : 16:9
Режим частоты кадров : Переменный
Частота кадров : 23,976 кадра/сек
Цветовое пространство : YUV
Субдискретизация насыщенности : 4:2:0
Битовая глубина : 8 бит
Тип развёртки : Прогрессивная
Библиотека кодирования : x264 core 120 r2146 bcd41db
Настройки программы : cabac=1 / ref=3 / deblock=1:0:0 / analyse=0x3:0x113 / me=umh / subme=9 / psy=1 / psy_rd=1.00:0.00 / mixed_ref=1 / me_range=32 / chroma_me=1 / trellis=2 / 8x8dct=1 / cqm=0 / deadzone=21,11 / fast_pskip=1 / chroma_qp_offset=-2 / threads=12 / sliced_threads=0 / nr=0 / decimate=1 / interlaced=0 / bluray_compat=0 / constrained_intra=0 / bframes=3 / b_pyramid=2 / b_adapt=2 / b_bias=0 / direct=3 / weightb=1 / open_gop=0 / weightp=2 / keyint=240 / keyint_min=1 / scenecut=40 / intra_refresh=0 / rc_lookahead=40 / rc=crf / mbtree=1 / crf=20.0 / qcomp=0.70 / qpmin=10 / qpmax=69 / qpstep=4 / ip_ratio=1.40 / aq=1:1.00
Язык : Japanese
Default : Да
Forced : Нет

Аудио
Идентификатор : 2
Формат : AAC
Формат/Информация : Advanced Audio Codec
Профиль формата : LC
Идентификатор кодека : A_AAC
Продолжительность : 23 м.
Каналы : 2 канала
Расположение каналов : Front: L R
Частота : 48,0 КГц
Метод сжатия : С потерями
Заголовок : Original
Язык : Japanese
Default : Да
Forced : Нет

Общее
Полное имя : High_School_DxD_e05_Labels.ass
Размер файла : 14,3 Кбайт

Общее
Полное имя : High_School_DxD_e05_Subtitles.ass
Размер файла : 65,2 Кбайт

Общее
Полное имя : High_School_DxD_e05_[Zendos & Eladiel & Lupin].aac
Формат : ADTS
Формат/Информация : Audio Data Transport Stream
Размер файла : 33,4 Мбайт
Аудио
Формат : AAC
Формат/Информация : Advanced Audio Codec
Версия формата : Version 4
Профиль формата : LC
Вид битрейта : Переменный / Переменный
Минимальный битрейт : 6375 бит/сек
Максимальный битрейт : 362 Кбит/сек
Каналы : 2 канала
Расположение каналов : Front: L R
Частота : 48,0 КГц
Метод сжатия : С потерями
Размер потока : 33,4 Мбайт (100%)
============================================================================
Общее
Полное имя : High_School_DxD_e06.mkv
Формат : Matroska
Версия формата : Version 2
Размер файла : 338 Мбайт
Продолжительность : 24 м.
Общий поток : 1970 Кбит/сек
Дата кодирования : UTC 2012-03-18 11:47:24
Программа кодирования : mkvmerge v5.4.0 ('Piper') built on Mar 15 2012 19:09:47
Библиотека кодирования : libebml v1.2.3 + libmatroska v1.3.0

Видео
Идентификатор : 1
Формат : AVC
Формат/Информация : Advanced Video Codec
Профиль формата : [email protected]
Параметр CABAC формата : Да
Параметр ReFrames формата : 4 кадра
Идентификатор кодека : V_MPEG4/ISO/AVC
Продолжительность : 24 м.
Ширина : 1280 пикселей
Высота : 720 пикселей
Соотношение сторон : 16:9
Режим частоты кадров : Переменный
Частота кадров : 23,976 кадра/сек
Цветовое пространство : YUV
Субдискретизация насыщенности : 4:2:0
Битовая глубина : 8 бит
Тип развёртки : Прогрессивная
Библиотека кодирования : x264 core 120 r2146_LC87 bcd41db
Настройки программы : cabac=1 / ref=3 / deblock=1:0:0 / analyse=0x3:0x113 / me=umh / subme=9 / psy=1 / psy_rd=1.00:0.00 / mixed_ref=1 / me_range=32 / chroma_me=1 / trellis=2 / 8x8dct=1 / cqm=0 / deadzone=21,11 / fast_pskip=1 / chroma_qp_offset=-2 / threads=12 / sliced_threads=0 / nr=0 / decimate=1 / interlaced=0 / bluray_compat=0 / constrained_intra=0 / bframes=3 / b_pyramid=2 / b_adapt=2 / b_bias=0 / direct=3 / weightb=1 / open_gop=0 / weightp=2 / keyint=240 / keyint_min=1 / scenecut=40 / intra_refresh=0 / rc_lookahead=40 / rc=crf / mbtree=1 / crf=20.0 / qcomp=0.70 / qpmin=10 / qpmax=69 / qpstep=4 / ip_ratio=1.40 / aq=1:1.00
Язык : Japanese
Default : Да
Forced : Нет

Аудио
Идентификатор : 2
Формат : AAC
Формат/Информация : Advanced Audio Codec
Профиль формата : LC
Идентификатор кодека : A_AAC
Продолжительность : 24 м.
Каналы : 2 канала
Расположение каналов : Front: L R
Частота : 48,0 КГц
Метод сжатия : С потерями
Заголовок : Original
Язык : Japanese
Default : Да
Forced : Нет

Общее
Полное имя : High_School_DxD_e06_Labels.ass
Размер файла : 14,5 Кбайт

Общее
Полное имя : High_School_DxD_e06_Subtitles.ass
Размер файла : 62,6 Кбайт

Общее
Полное имя : High_School_DxD_e06_[Zendos & Eladiel & Lupin].aac
Формат : ADTS
Формат/Информация : Audio Data Transport Stream
Размер файла : 27,9 Мбайт
Аудио
Формат : AAC
Формат/Информация : Advanced Audio Codec
Версия формата : Version 4
Профиль формата : LC
Вид битрейта : Переменный / Переменный
Минимальный битрейт : 6375 бит/сек
Максимальный битрейт : 442 Кбит/сек
Каналы : 2 канала
Расположение каналов : Front: L R
Частота : 48,0 КГц
Метод сжатия : С потерями
Размер потока : 27,9 Мбайт (100%)
===========================================================================
Общее
Полное имя : High_School_DxD_e07.mkv
Формат : Matroska
Версия формата : Version 2
Размер файла : 363 Мбайт
Продолжительность : 24 м.
Общий поток : 2112 Кбит/сек
Дата кодирования : UTC 2012-03-18 11:47:46
Программа кодирования : mkvmerge v5.4.0 ('Piper') built on Mar 15 2012 19:09:47
Библиотека кодирования : libebml v1.2.3 + libmatroska v1.3.0

Видео
Идентификатор : 1
Формат : AVC
Формат/Информация : Advanced Video Codec
Профиль формата : [email protected]
Параметр CABAC формата : Да
Параметр ReFrames формата : 4 кадра
Идентификатор кодека : V_MPEG4/ISO/AVC
Продолжительность : 24 м.
Ширина : 1280 пикселей
Высота : 720 пикселей
Соотношение сторон : 16:9
Режим частоты кадров : Переменный
Частота кадров : 23,976 кадра/сек
Цветовое пространство : YUV
Субдискретизация насыщенности : 4:2:0
Битовая глубина : 8 бит
Тип развёртки : Прогрессивная
Библиотека кодирования : x264 core 120 r2146_LC87 bcd41db
Настройки программы : cabac=1 / ref=3 / deblock=1:0:0 / analyse=0x3:0x113 / me=umh / subme=9 / psy=1 / psy_rd=1.00:0.00 / mixed_ref=1 / me_range=32 / chroma_me=1 / trellis=2 / 8x8dct=1 / cqm=0 / deadzone=21,11 / fast_pskip=1 / chroma_qp_offset=-2 / threads=12 / sliced_threads=0 / nr=0 / decimate=1 / interlaced=0 / bluray_compat=0 / constrained_intra=0 / bframes=3 / b_pyramid=2 / b_adapt=2 / b_bias=0 / direct=3 / weightb=1 / open_gop=0 / weightp=2 / keyint=240 / keyint_min=1 / scenecut=40 / intra_refresh=0 / rc_lookahead=40 / rc=crf / mbtree=1 / crf=20.0 / qcomp=0.70 / qpmin=10 / qpmax=69 / qpstep=4 / ip_ratio=1.40 / aq=1:1.00
Язык : Japanese
Default : Да
Forced : Нет

Аудио
Идентификатор : 2
Формат : AAC
Формат/Информация : Advanced Audio Codec
Профиль формата : LC
Идентификатор кодека : A_AAC
Продолжительность : 24 м.
Каналы : 2 канала
Расположение каналов : Front: L R
Частота : 48,0 КГц
Метод сжатия : С потерями
Заголовок : Original
Язык : Japanese
Default : Да
Forced : Нет

Общее
Полное имя : High_School_DxD_e07_Labels.ass
Размер файла : 14,4 Кбайт

Общее
Полное имя : High_School_DxD_e07_Subtitles.ass
Размер файла : 45,4 Кбайт

Общее
Полное имя : High_School_DxD_e07_[Zendos & Eladiel & Lupin].aac
Формат : ADTS
Формат/Информация : Audio Data Transport Stream
Размер файла : 27,9 Мбайт
Аудио
Формат : AAC
Формат/Информация : Advanced Audio Codec
Версия формата : Version 4
Профиль формата : LC
Вид битрейта : Переменный / Переменный
Минимальный битрейт : 6375 бит/сек
Максимальный битрейт : 311 Кбит/сек
Каналы : 2 канала
Расположение каналов : Front: L R
Частота : 48,0 КГц
Метод сжатия : С потерями
Размер потока : 27,9 Мбайт (100%)
===========================================================================
Общее
Полное имя : High_School_DxD_e08.mkv
Формат : Matroska
Версия формата : Version 2
Размер файла : 329 Мбайт
Продолжительность : 24 м.
Общий поток : 1919 Кбит/сек
Дата кодирования : UTC 2012-03-18 11:48:09
Программа кодирования : mkvmerge v5.4.0 ('Piper') built on Mar 15 2012 19:09:47
Библиотека кодирования : libebml v1.2.3 + libmatroska v1.3.0

Видео
Идентификатор : 1
Формат : AVC
Формат/Информация : Advanced Video Codec
Профиль формата : [email protected]
Параметр CABAC формата : Да
Параметр ReFrames формата : 4 кадра
Идентификатор кодека : V_MPEG4/ISO/AVC
Продолжительность : 24 м.
Ширина : 1280 пикселей
Высота : 720 пикселей
Соотношение сторон : 16:9
Режим частоты кадров : Переменный
Частота кадров : 23,976 кадра/сек
Цветовое пространство : YUV
Субдискретизация насыщенности : 4:2:0
Битовая глубина : 8 бит
Тип развёртки : Прогрессивная
Библиотека кодирования : x264 core 120 r2146_LC87 bcd41db
Настройки программы : cabac=1 / ref=3 / deblock=1:0:0 / analyse=0x3:0x113 / me=umh / subme=9 / psy=1 / psy_rd=1.00:0.00 / mixed_ref=1 / me_range=32 / chroma_me=1 / trellis=2 / 8x8dct=1 / cqm=0 / deadzone=21,11 / fast_pskip=1 / chroma_qp_offset=-2 / threads=12 / sliced_threads=0 / nr=0 / decimate=1 / interlaced=0 / bluray_compat=0 / constrained_intra=0 / bframes=3 / b_pyramid=2 / b_adapt=2 / b_bias=0 / direct=3 / weightb=1 / open_gop=0 / weightp=2 / keyint=240 / keyint_min=1 / scenecut=40 / intra_refresh=0 / rc_lookahead=40 / rc=crf / mbtree=1 / crf=20.0 / qcomp=0.70 / qpmin=10 / qpmax=69 / qpstep=4 / ip_ratio=1.40 / aq=1:1.00
Язык : Japanese
Default : Да
Forced : Нет

Аудио
Идентификатор : 2
Формат : AAC
Формат/Информация : Advanced Audio Codec
Профиль формата : LC
Идентификатор кодека : A_AAC
Продолжительность : 24 м.
Каналы : 2 канала
Расположение каналов : Front: L R
Частота : 48,0 КГц
Метод сжатия : С потерями
Заголовок : Original
Язык : Japanese
Default : Да
Forced : Нет

Общее
Полное имя : High_School_DxD_e08_Labels.ass
Размер файла : 14,5 Кбайт

Общее
Полное имя : High_School_DxD_e08_Subtitles.ass
Размер файла : 62,7 Кбайт

Общее
Полное имя : High_School_DxD_e08_[Zendos & Eladiel & Lupin].aac
Формат : ADTS
Формат/Информация : Audio Data Transport Stream
Размер файла : 27,9 Мбайт
Аудио
Формат : AAC
Формат/Информация : Advanced Audio Codec
Версия формата : Version 4
Профиль формата : LC
Вид битрейта : Переменный / Переменный
Минимальный битрейт : 6375 бит/сек
Максимальный битрейт : 534 Кбит/сек
Каналы : 2 канала
Расположение каналов : Front: L R
Частота : 48,0 КГц
Метод сжатия : С потерями
Размер потока : 27,9 Мбайт (100%)
===========================================================================
Общее
Полное имя : High_School_DxD_e09.mkv
Формат : Matroska
Версия формата : Version 2
Размер файла : 348 Мбайт
Продолжительность : 24 м.
Общий поток : 2027 Кбит/сек
Дата кодирования : UTC 2012-03-18 11:48:28
Программа кодирования : mkvmerge v5.4.0 ('Piper') built on Mar 15 2012 19:09:47
Библиотека кодирования : libebml v1.2.3 + libmatroska v1.3.0

Видео
Идентификатор : 1
Формат : AVC
Формат/Информация : Advanced Video Codec
Профиль формата : [email protected]
Параметр CABAC формата : Да
Параметр ReFrames формата : 4 кадра
Идентификатор кодека : V_MPEG4/ISO/AVC
Продолжительность : 24 м.
Ширина : 1280 пикселей
Высота : 720 пикселей
Соотношение сторон : 16:9
Режим частоты кадров : Переменный
Частота кадров : 23,976 кадра/сек
Цветовое пространство : YUV
Субдискретизация насыщенности : 4:2:0
Битовая глубина : 8 бит
Тип развёртки : Прогрессивная
Библиотека кодирования : x264 core 120 r2146_LC87 bcd41db
Настройки программы : cabac=1 / ref=3 / deblock=1:0:0 / analyse=0x3:0x113 / me=umh / subme=9 / psy=1 / psy_rd=1.00:0.00 / mixed_ref=1 / me_range=32 / chroma_me=1 / trellis=2 / 8x8dct=1 / cqm=0 / deadzone=21,11 / fast_pskip=1 / chroma_qp_offset=-2 / threads=12 / sliced_threads=0 / nr=0 / decimate=1 / interlaced=0 / bluray_compat=0 / constrained_intra=0 / bframes=3 / b_pyramid=2 / b_adapt=2 / b_bias=0 / direct=3 / weightb=1 / open_gop=0 / weightp=2 / keyint=240 / keyint_min=1 / scenecut=40 / intra_refresh=0 / rc_lookahead=40 / rc=crf / mbtree=1 / crf=20.0 / qcomp=0.70 / qpmin=10 / qpmax=69 / qpstep=4 / ip_ratio=1.40 / aq=1:1.00
Язык : Japanese
Default : Да
Forced : Нет

Аудио
Идентификатор : 2
Формат : AAC
Формат/Информация : Advanced Audio Codec
Профиль формата : LC
Идентификатор кодека : A_AAC
Продолжительность : 24 м.
Каналы : 2 канала
Расположение каналов : Front: L R
Частота : 48,0 КГц
Метод сжатия : С потерями
Заголовок : Original
Язык : Japanese
Default : Да
Forced : Нет

Общее
Полное имя : High_School_DxD_e09_Labels.ass
Размер файла : 14,4 Кбайт

Общее
Полное имя : High_School_DxD_e09_Subtitles.ass
Размер файла : 61,4 Кбайт

Общее
Полное имя : High_School_DxD_e09_[Zendos & Eladiel & Lupin].aac
Формат : ADTS
Формат/Информация : Audio Data Transport Stream
Размер файла : 27,9 Мбайт

Аудио
Формат : AAC
Формат/Информация : Advanced Audio Codec
Версия формата : Version 4
Профиль формата : LC
Вид битрейта : Переменный / Переменный
Минимальный битрейт : 6375 бит/сек
Максимальный битрейт : 514 Кбит/сек
Каналы : 2 канала
Расположение каналов : Front: L R
Частота : 48,0 КГц
Метод сжатия : С потерями
Размер потока : 27,9 Мбайт (100%)
============================================================================
Общее
Полное имя : High_School_DxD_e10.mkv
Формат : Matroska
Версия формата : Version 2
Размер файла : 357 Мбайт
Продолжительность : 24 м.
Общий поток : 2082 Кбит/сек
Дата кодирования : UTC 2012-03-18 11:48:49
Программа кодирования : mkvmerge v5.4.0 ('Piper') built on Mar 15 2012 19:09:47
Библиотека кодирования : libebml v1.2.3 + libmatroska v1.3.0

Видео
Идентификатор : 1
Формат : AVC
Формат/Информация : Advanced Video Codec
Профиль формата : [email protected]
Параметр CABAC формата : Да
Параметр ReFrames формата : 4 кадра
Идентификатор кодека : V_MPEG4/ISO/AVC
Продолжительность : 24 м.
Ширина : 1280 пикселей
Высота : 720 пикселей
Соотношение сторон : 16:9
Режим частоты кадров : Переменный
Частота кадров : 23,976 кадра/сек
Цветовое пространство : YUV
Субдискретизация насыщенности : 4:2:0
Битовая глубина : 8 бит
Тип развёртки : Прогрессивная
Библиотека кодирования : x264 core 120 r2146_LC87 bcd41db
Настройки программы : cabac=1 / ref=3 / deblock=1:0:0 / analyse=0x3:0x113 / me=umh / subme=9 / psy=1 / psy_rd=1.00:0.00 / mixed_ref=1 / me_range=32 / chroma_me=1 / trellis=2 / 8x8dct=1 / cqm=0 / deadzone=21,11 / fast_pskip=1 / chroma_qp_offset=-2 / threads=12 / sliced_threads=0 / nr=0 / decimate=1 / interlaced=0 / bluray_compat=0 / constrained_intra=0 / bframes=3 / b_pyramid=2 / b_adapt=2 / b_bias=0 / direct=3 / weightb=1 / open_gop=0 / weightp=2 / keyint=240 / keyint_min=1 / scenecut=40 / intra_refresh=0 / rc_lookahead=40 / rc=crf / mbtree=1 / crf=20.0 / qcomp=0.70 / qpmin=10 / qpmax=69 / qpstep=4 / ip_ratio=1.40 / aq=1:1.00
Язык : Japanese
Default : Да
Forced : Нет

Аудио
Идентификатор : 2
Формат : AAC
Формат/Информация : Advanced Audio Codec
Профиль формата : LC
Идентификатор кодека : A_AAC
Продолжительность : 24 м.
Каналы : 2 канала
Расположение каналов : Front: L R
Частота : 48,0 КГц
Метод сжатия : С потерями
Заголовок : Original
Язык : Japanese
Default : Да
Forced : Нет

Общее
Полное имя : High_School_DxD_e10_Labels.ass
Размер файла : 14,3 Кбайт

Общее
Полное имя : High_School_DxD_e10_Subtitles.ass
Размер файла : 42,1 Кбайт

Общее
Полное имя : High_School_DxD_e10_[Zendos & Eladiel & Lupin].aac
Формат : ADTS
Формат/Информация : Audio Data Transport Stream
Размер файла : 27,9 Мбайт
Аудио
Формат : AAC
Формат/Информация : Advanced Audio Codec
Версия формата : Version 4
Профиль формата : LC
Вид битрейта : Переменный / Переменный
Минимальный битрейт : 6375 бит/сек
Максимальный битрейт : 355 Кбит/сек
Каналы : 2 канала
Расположение каналов : Front: L R
Частота : 48,0 КГц
Метод сжатия : С потерями
Размер потока : 27,9 Мбайт (100%)
============================================================================
Общее
Полное имя : High_School_DxD_e11.mkv
Формат : Matroska
Версия формата : Version 2
Размер файла : 396 Мбайт
Продолжительность : 24 м.
Общий поток : 2306 Кбит/сек
Дата кодирования : UTC 2012-03-21 15:50:12
Программа кодирования : mkvmerge v5.4.0 ('Piper') built on Mar 15 2012 19:09:47
Библиотека кодирования : libebml v1.2.3 + libmatroska v1.3.0
Attachment : Yes / Yes

Видео
Идентификатор : 1
Формат : AVC
Формат/Информация : Advanced Video Codec
Профиль формата : [email protected]
Параметр CABAC формата : Да
Параметр ReFrames формата : 9 кадров
Идентификатор кодека : V_MPEG4/ISO/AVC
Продолжительность : 24 м.
Ширина : 1280 пикселей
Высота : 720 пикселей
Соотношение сторон : 16:9
Режим частоты кадров : Переменный
Частота кадров : 23,976 кадра/сек
Цветовое пространство : YUV
Субдискретизация насыщенности : 4:2:0
Битовая глубина : 8 бит
Тип развёртки : Прогрессивная
Библиотека кодирования : x264 core 115
Настройки программы : cabac=1 / ref=9 / deblock=1:-2:-2 / analyse=0x3:0x113 / me=umh / subme=7 / psy=1 / psy_rd=1.00:0.00 / mixed_ref=1 / me_range=16 / chroma_me=1 / trellis=0 / 8x8dct=1 / cqm=0 / deadzone=21,11 / fast_pskip=1 / chroma_qp_offset=-2 / threads=6 / sliced_threads=0 / nr=0 / decimate=1 / interlaced=0 / bluray_compat=0 / constrained_intra=0 / bframes=3 / b_pyramid=0 / b_adapt=1 / b_bias=0 / direct=1 / weightb=0 / open_gop=0 / weightp=0 / keyint=250 / keyint_min=25 / scenecut=0 / intra_refresh=0 / rc_lookahead=40 / rc=crf / mbtree=1 / crf=20.0 / qcomp=0.60 / qpmin=10 / qpmax=51 / qpstep=4 / ip_ratio=1.40 / aq=1:1.00
Язык : Japanese
Default : Да
Forced : Нет

Аудио
Идентификатор : 2
Формат : AAC
Формат/Информация : Advanced Audio Codec
Профиль формата : LC
Идентификатор кодека : A_AAC
Продолжительность : 24 м.
Каналы : 2 канала
Расположение каналов : Front: L R
Частота : 48,0 КГц
Метод сжатия : С потерями
Заголовок : Original
Язык : Japanese
Default : Нет
Forced : Нет

Общее
Полное имя : High_School_DxD_e11_Labels.ass
Размер файла : 14,6 Кбайт

Общее
Полное имя : High_School_DxD_e11_Subtitles.ass
Размер файла : 63,8 Кбайт

Общее
Полное имя : High_School_DxD_e11_[Zendos & Eladiel & Lupin].aac
Формат : ADTS
Формат/Информация : Audio Data Transport Stream
Размер файла : 38,9 Мбайт
Аудио
Формат : AAC
Формат/Информация : Advanced Audio Codec
Версия формата : Version 4
Профиль формата : LC
Вид битрейта : Переменный / Переменный
Минимальный битрейт : 81,0 Кбит/сек
Максимальный битрейт : 463 Кбит/сек
Каналы : 2 канала
Расположение каналов : Front: L R
Частота : 48,0 КГц
Метод сжатия : С потерями
Размер потока : 38,9 Мбайт (100%)
============================================================================
Общее
Полное имя : High_School_DxD_e12.mkv
Формат : Matroska
Версия формата : Version 2
Размер файла : 337 Мбайт
Продолжительность : 24 м.
Общий поток : 1960 Кбит/сек
Дата кодирования : UTC 2012-03-26 09:51:08
Программа кодирования : mkvmerge v5.4.0 ('Piper') built on Mar 15 2012 19:09:47
Библиотека кодирования : libebml v1.2.3 + libmatroska v1.3.0
Attachment : Yes / Yes

Видео
Идентификатор : 1
Формат : AVC
Формат/Информация : Advanced Video Codec
Профиль формата : [email protected]
Параметр CABAC формата : Да
Параметр ReFrames формата : 9 кадров
Идентификатор кодека : V_MPEG4/ISO/AVC
Продолжительность : 24 м.
Ширина : 1280 пикселей
Высота : 720 пикселей
Соотношение сторон : 16:9
Режим частоты кадров : Переменный
Частота кадров : 26,483 кадров/сек
Цветовое пространство : YUV
Субдискретизация насыщенности : 4:2:0
Битовая глубина : 8 бит
Тип развёртки : Прогрессивная
Библиотека кодирования : x264 core 115
Настройки программы : cabac=1 / ref=9 / deblock=1:-2:-2 / analyse=0x3:0x113 / me=umh / subme=7 / psy=1 / psy_rd=1.00:0.00 / mixed_ref=1 / me_range=16 / chroma_me=1 / trellis=0 / 8x8dct=1 / cqm=0 / deadzone=21,11 / fast_pskip=1 / chroma_qp_offset=-2 / threads=6 / sliced_threads=0 / nr=0 / decimate=1 / interlaced=0 / bluray_compat=0 / constrained_intra=0 / bframes=3 / b_pyramid=0 / b_adapt=1 / b_bias=0 / direct=1 / weightb=0 / open_gop=0 / weightp=0 / keyint=250 / keyint_min=25 / scenecut=0 / intra_refresh=0 / rc_lookahead=40 / rc=crf / mbtree=1 / crf=20.0 / qcomp=0.60 / qpmin=10 / qpmax=51 / qpstep=4 / ip_ratio=1.40 / aq=1:1.00
Язык : Japanese
Default : Да
Forced : Нет

Аудио
Идентификатор : 2
Формат : AAC
Формат/Информация : Advanced Audio Codec
Профиль формата : LC
Идентификатор кодека : A_AAC
Продолжительность : 24 м.
Каналы : 2 канала
Расположение каналов : Front: L R
Частота : 48,0 КГц
Метод сжатия : С потерями
Заголовок : Original
Язык : Japanese
Default : Нет
Forced : Нет

Общее
Полное имя : High_School_DxD_e12_Labels.ass
Размер файла : 2,16 Кбайт

Общее
Полное имя : High_School_DxD_e12_Subtitles.ass
Размер файла : 51,0 Кбайт

Общее
Полное имя : High_School_DxD_e12_[Zendos & Eladiel & Lupin].aac
Формат : ADTS
Формат/Информация : Audio Data Transport Stream
Размер файла : 38,9 Мбайт
Аудио
Формат : AAC
Формат/Информация : Advanced Audio Codec
Версия формата : Version 4
Профиль формата : LC
Вид битрейта : Переменный / Переменный
Минимальный битрейт : 10,5 Кбит/сек
Максимальный битрейт : 578 Кбит/сек
Каналы : 2 канала
Расположение каналов : Front: L R
Частота : 48,0 КГц
Метод сжатия : С потерями
Размер потока : 38,9 Мбайт (100%)









В связи с тем, что внешние аудиодорожки(кроме [Zendos & Eladiel & Lupin]) не синхронны с видео, то из раздачи я их убираю. Тем, кто скачал торрент до 26 марта 22-00, нужно выполнить следующий код, перехешировать торрент и запустить скачку. Для выполнения кода (в Windows), нужно скопировать его из-под спойлера, создать текстовой документ, вставить скопированный код, сохранить файл с расширением .bat и запустить. Так как у всех торренты качаются в разные места, первую строчку кода нужно отредактировать(например если торрент скачан в C:\torrent\High_School_DxD, то первая строчка будет иметь вид "cd c:\torrent\High_School_DxD", без кавычек).
ps.Также заменен видеофайл 3 серии. Это учтено в коде.

cd c:\High_School_DxD
del /Q .. High_School_DxD_01\High_School_DxD_e01_[Lord_Alukart***.aac
del /Q .. High_School_DxD_01\High_School_DxD_e01_[Vina].aac

del /Q .. High_School_DxD_02\High_School_DxD_e02_[Lord_Alukart***.aac
del /Q .. High_School_DxD_02\High_School_DxD_e02_[Vina].aac

del /Q .. High_School_DxD_03\High_School_DxD_e03.mkv
del /Q .. High_School_DxD_03\High_School_DxD_e03_[Zendos***.aac
del /Q .. High_School_DxD_03\High_School_DxD_e03_[Lord_Alukart***.aac
del /Q .. High_School_DxD_03\High_School_DxD_e03_[Vina].aac

del /Q .. High_School_DxD_04\High_School_DxD_e04_[Lord_Alukart***.aac
del /Q .. High_School_DxD_04\High_School_DxD_e04_[Vina].aac

del /Q .. High_School_DxD_05\High_School_DxD_e05_[Lord_Alukart***.aac
del /Q .. High_School_DxD_05\High_School_DxD_e05_[Vina].aac

del /Q .. High_School_DxD_06\High_School_DxD_e06_[Lord_Alukart***.aac
del /Q .. High_School_DxD_06\High_School_DxD_e06_[Vina].aac

del /Q .. High_School_DxD_07\High_School_DxD_e07_[Lord_Alukart***.aac
del /Q .. High_School_DxD_07\High_School_DxD_e07_[Vina].aac

del /Q .. High_School_DxD_08\High_School_DxD_e08_[Lord_Alukart***.aac
del /Q .. High_School_DxD_08\High_School_DxD_e08_[Vina].aac

del /Q .. High_School_DxD_09\High_School_DxD_e09_[Lord_Alukart***.aac
del /Q .. High_School_DxD_09\High_School_DxD_e09_[Vina].aac

del /Q .. High_School_DxD_10\High_School_DxD_e10_[Lord_Alukart***.aac
del /Q .. High_School_DxD_10\High_School_DxD_e10_[Vina].aac
Как качать, Как раздавать - Правила и инструкции
Торрент26 мар 2012, 19:48 [ 26 мар 2012, 19:48 ]

СКАЧАТЬ с просмотром рекламы
Статус-
.torrent скачан16 раз
Размер4.43 ГБ (4 757 531 477)

kavaychik


 
Стаж: 54 года 5 месяцев 24 дня

Сообщение kavaychik» 19 мар 2012, 11:41

Отписывайтесь о выявленных недочетах, буду их учитывать в следующих раздачах.

kavaychik


 
Стаж: 54 года 5 месяцев 24 дня

Сообщение kavaychik» 26 мар 2012, 18:57

KeeperRus писал(а):

просили - пишу.
1) в этой раздаче каждая серия в отдельной папке. это страшный сон анимешника, переделайте всё, чтоб в одной было.
2) во всех ваших раздачах не указано качество. мне нужно догадываться, что это DVDRip, HDTVRip или еще что?
3) во всех ваших раздачах постеры уменьшите, чтобы в ширине было меньше 500 пикселей, и в высоте меньше 500 пикселей, при этом они должны оставаться прямоугольными.
пока всё. исправьте Пожалуйста, пока статусы раздач менять не буду.

1) Сначала планировалась, что буду выкладывать несколько озвучек отдельными файлами, в этом случае делать все в одной папке неразумно, так как будет бардак в самой папке. Так как сериал уже скачало какое-то кол-во человек, все переделывать смысла нет, потому что придется перекачивать все. Торрент я исправлю чуть позже, из-за того, что оставлю одну озвучку, структура папок пусть останется как есть. В следующих раздачах учту ваше пожелание.
2) Учту.
3) Учту.

2garin_95


Новичок
Новичок
 

Сообщения: 7

Стаж: 12 лет 8 месяцев 24 дня

Откуда: Украина, г. Черновцы

Карма: 0

Сообщение 2garin_95» 26 мар 2012, 23:50

Встаньте на раздачу, Пожалуйста, 12 серия, я не могу до качать с нее 60 МБ. *стена
И да вы писали о недочетах, вот мой совет: "А не проще ли было бы сшить видео и озвучку с анимеленда в один файл, тогда можно было б выложить все серии в одной папке". Ну как то так... :-[

kavaychik


 
Стаж: 54 года 5 месяцев 24 дня

Сообщение kavaychik» 27 мар 2012, 01:08

2garin_95 писал(а):

Встаньте на раздачу, Пожалуйста, 12 серия, я не могу до качать с нее 60 МБ. *стена
И да вы писали о недочетах, вот мой совет: "А не проще ли было бы сшить видео и озвучку с анимеленда в один файл, тогда можно было б выложить все серии в одной папке". Ну как то так... :-[

На раздаче стою, докачаете точно. А по поводу сшитых видео и озвучки - просто какое-то кол-во людей скачало в том виде, в котором было, и чтобы людям не перекачивать все заново, я так и оставил.

2garin_95


Новичок
Новичок
 

Сообщения: 7

Стаж: 12 лет 8 месяцев 24 дня

Откуда: Украина, г. Черновцы

Карма: 0

Сообщение 2garin_95» 27 мар 2012, 10:35

kavaychik писал(а):

2garin_95 писал(а):

Встаньте на раздачу, Пожалуйста, 12 серия, я не могу до качать с нее 60 МБ. *стена
И да вы писали о недочетах, вот мой совет: "А не проще ли было бы сшить видео и озвучку с анимеленда в один файл, тогда можно было б выложить все серии в одной папке". Ну как то так... :-[

На раздаче стою, докачаете точно. А по поводу сшитых видео и озвучки - просто какое-то кол-во людей скачало в том виде, в котором было, и чтобы людям не перекачивать все заново, я так и оставил.

Я понимаю, но потом когда несколько человек на раздаче стоять будут на этом торренте вы просто создайте еще одну раздачу уже с сшитым звуком.
А так спасибо за отличную анимэшку *бухать , и вопрос, А второй сезон будет?????


Вернуться в High School DxD / Демоны старшей школы

Кто сейчас на конференции

Сейчас этот форум просматривают: нет зарегистрированных пользователей

Ресурс не предоставляет электронные версии произведений, а занимается лишь коллекционированием и каталогизацией ссылок, присылаемых и публикуемых на форуме нашими читателями. Если вы являетесь правообладателем какого-либо представленного материала и не желаете чтобы ссылка на него находилась в нашем каталоге, свяжитесь с нами и мы незамедлительно удалим её. Файлы для обмена на трекере предоставлены пользователями сайта, и администрация не несёт ответственности за их содержание. Просьба не заливать файлы, защищенные авторскими правами, а также файлы нелегального содержания!