Агентство «Локвуд и компания» (1 сезон: 1-8 серии из 8) / Lockwood & Co [2023, Ужасы, боевик, триллер, драма, детектив, приключения, WEB-DL (1080p), Профессиональный (многоголосый закадровый) - HDRezka Studio] - Скачать торрент бесплатно

Модераторы: Кандидат в Союз Риперов, Модераторы Сериалы, мультсериалы, Союз Риперов

Поделиться ВКонтакте Поделиться Facebook Поделиться Twitter Поделиться Mail.RU
АвторСообщение
VLAD71
Аватара пользователя
Модератор Фильмов
Модератор Фильмов
 
Раздал: 154.07 ТБ
Скачал: 40.94 ТБ
Ратио: 630.967
Сообщения: 379
Стаж: 6 лет 6 месяцев 28 дней
Награды: 13
Карма: 65

Сообщение VLAD71 » 28 янв 2023, 09:34

Агентство «Локвуд и компания» (1 сезон: 1-8 серии из 8) / Lockwood & Co [2023, Ужасы, боевик, триллер, драма, детектив, приключения, WEB-DL (1080p), Профессиональный (многоголосый закадровый) - HDRezka Studio] - Скачать торрент

Название: Агентство «Локвуд и компания»
Оригинальное название: Lockwood & Co
Год выхода: 2023
Жанр: Ужасы, боевик, триллер, драма, детектив, приключения
Режиссер: Уильям МакГрегор, Катрин Морсхэд, Джо Корниш

В ролях: Руби Стоукс, Кэмерон Чэпмен, Али Хаджи-Хешмати, Иванно Джеремайя, Джек Бандейра, Люк Тредуэй, Морвен Кристи, Сандра Хаггетт, Бен Кромптон, Хейли Конаду, Пэдди Холланд, Рианна Доррис, Джемма Мур и др.

Описание сериала: Фантастический приключенческий сериал об альтернативном Лондоне. Призраки и другие сверхъестественные твари здесь не легенда и не сказка для малышей, а вполне реальная проблема, заполоняющая улицы города. Бороться с ними могут только подростки, которые из-за своего еще юного возраста способны смотреть на мир по-детски и видеть его изнанку. Однако руководят этими охотниками всегда взрослые. Пока мальчишка-отступник Локвуд со своими друзьями не открывает собственное агентство.

Страна: Великобритания
Студия: Complete Fiction
Продолжительность: ~00:45:00
Перевод: Профессиональный (многоголосый, закадровый) HDRezka Studio
Субтитры: Русские (Forced, Full), английские (Full, SDH)



Файл
Формат: MKV
Качество: WEB-DL (1080p)

Видео: 1920x1080 (16:9), 24 fps, AVC (х264), High@L4, ~4958 kbps avg, 0.100 bit/pixel
Аудио RUS: 48 kHz, AC3, 3/2 (L, C, R, l, r) + LFE ch, ~448 kbps avg
Аудио ENG: 48 kHz, E-AC-3 JOC+Atmos, 3/2 (L, C, R, l, r) + LFE ch, ~768 kbps avg




Общее
Уникальный идентификатор : 220589368794382422856315712096824723008 (0xA5F3F7926366FAFD336DAF5B36A80640)
Полное имя : Lockwood.and.Co.2023.S01E01.WEB-DL.1080p.NF.HDREZKA.STUDIO.mkv
Формат : Matroska
Версия формата : Version 4
Размер файла : 2,13 Гбайт
Продолжительность : 49 м. 20 с.
Режим общего битрейта : Переменный
Общий поток : 6 174 Кбит/сек
Дата кодирования : UTC 2023-01-28 03:39:38
Программа кодирования : mkvmerge v68.0.0 ('The Curtain') 64-bit
Библиотека кодирования : libebml v1.4.2 + libmatroska v1.6.4

Видео
Идентификатор : 1
Формат : AVC
Формат/Информация : Advanced Video Codec
Профиль формата : High@L4
Настройки формата : CABAC / 4 Ref Frames
Параметр CABAC формата : Да
Параметр RefFrames формата : 4 кадра
Идентификатор кодека : V_MPEG4/ISO/AVC
Продолжительность : 49 м. 19 с.
Вид битрейта : Переменный
Битрейт : 4 958 Кбит/сек
Максимальный битрейт : 20,0 Мбит/сек
Ширина : 1 920 пикселей
Высота : 1 080 пикселей
Соотношение сторон : 16:9
Режим частоты кадров : Постоянный
Частота кадров : 24,000 кадра/сек
Цветовое пространство : YUV
Субдискретизация насыщенности : 4:2:0
Битовая глубина : 8 бит
Тип развёртки : Прогрессивная
Бит/(Пиксели*Кадры) : 0.100
Размер потока : 1,71 Гбайт (80%)
Библиотека кодирования : x264 core 148 r2727 7d026e8
Настройки программы : cabac=1 / ref=4 / deblock=1:0:0 / analyse=0x3:0x111 / me=umh / subme=10 / psy=1 / psy_rd=1.00:0.00 / mixed_ref=1 / me_range=120 / chroma_me=1 / trellis=2 / 8x8dct=1 / cqm=0 / deadzone=21,11 / fast_pskip=1 / chroma_qp_offset=-2 / threads=8 / lookahead_threads=2 / sliced_threads=0 / nr=0 / decimate=1 / interlaced=0 / bluray_compat=0 / stitchable=1 / constrained_intra=0 / bframes=16 / b_pyramid=2 / b_adapt=2 / b_bias=0 / direct=3 / weightb=1 / open_gop=0 / weightp=2 / keyint=240 / keyint_min=121 / scenecut=0 / intra_refresh=0 / rc_lookahead=240 / rc=crf / mbtree=1 / crf=16.0 / qcomp=0.50 / qpmin=6 / qpmax=51 / qpstep=4 / vbv_maxrate=20000 / vbv_bufsize=25000 / crf_max=0.0 / nal_hrd=vbr / filler=0 / ip_ratio=1.40 / aq=1:0.80
Язык : English
Default : Да
Forced : Нет

Аудио #1
Идентификатор : 2
Формат : AC-3
Формат/Информация : Audio Coding 3
Коммерческое название : Dolby Digital
Идентификатор кодека : A_AC3
Продолжительность : 49 м. 20 с.
Вид битрейта : Постоянный
Битрейт : 448 Кбит/сек
Каналы : 6 каналов
Channel layout : L R C LFE Ls Rs
Частота : 48,0 КГц
Частота кадров : 31,250 кадров/сек (1536 SPF)
Метод сжатия : С потерями
Размер потока : 158 Мбайт (7%)
Язык : Russian
Default : Да
Forced : Нет

Аудио #2
Идентификатор : 3
Формат : E-AC-3 JOC
Формат/Информация : Enhanced AC-3 with Joint Object Coding
Коммерческое название : Dolby Digital Plus with Dolby Atmos
Идентификатор кодека : A_EAC3
Продолжительность : 49 м. 20 с.
Вид битрейта : Постоянный
Битрейт : 768 Кбит/сек
Каналы : 6 каналов
Channel layout : L R C LFE Ls Rs
Частота : 48,0 КГц
Частота кадров : 31,250 кадров/сек (1536 SPF)
Метод сжатия : С потерями
Размер потока : 271 Мбайт (12%)
Язык : English
Default : Нет
Forced : Нет
Complexity index : 16
Number of dynamic objects : 15
Bed channel count : 1 канал
Bed channel configuration : LFE

Текст #1
Идентификатор : 4
Формат : UTF-8
Идентификатор кодека : S_TEXT/UTF8
Идентификатор кодека/Информация : UTF-8 Plain Text
Продолжительность : 29 м. 12 с.
Битрейт : 3 бит/сек
Частота кадров : 0,009 кадр/сек
Count of elements : 15
Размер потока : 716 байт (0%)
Заголовок : Forced
Язык : Russian
Default : Нет
Forced : Нет

Текст #2
Идентификатор : 5
Формат : UTF-8
Идентификатор кодека : S_TEXT/UTF8
Идентификатор кодека/Информация : UTF-8 Plain Text
Продолжительность : 47 м. 15 с.
Битрейт : 104 бит/сек
Частота кадров : 0,226 кадр/сек
Count of elements : 642
Размер потока : 36,2 Кбайт (0%)
Язык : Russian
Default : Нет
Forced : Нет

Текст #3
Идентификатор : 6
Формат : UTF-8
Идентификатор кодека : S_TEXT/UTF8
Идентификатор кодека/Информация : UTF-8 Plain Text
Продолжительность : 45 м. 45 с.
Битрейт : 73 бит/сек
Частота кадров : 0,237 кадр/сек
Count of elements : 650
Размер потока : 24,8 Кбайт (0%)
Язык : English
Default : Нет
Forced : Нет

Текст #4
Идентификатор : 7
Формат : UTF-8
Идентификатор кодека : S_TEXT/UTF8
Идентификатор кодека/Информация : UTF-8 Plain Text
Продолжительность : 46 м. 2 с.
Битрейт : 85 бит/сек
Частота кадров : 0,288 кадр/сек
Count of elements : 797
Размер потока : 29,0 Кбайт (0%)
Заголовок : SDH
Язык : English
Default : Нет
Forced : Нет

Меню
00:48:09.000 : en:End Credits

Как качать, Как раздавать - Правила и инструкции
Торрент30 янв 2023, 13:04 [ 30 янв 2023, 13:04 ]

СКАЧАТЬ с просмотром рекламы
СтатусПроверен VLAD71
.torrent скачан894 раз
Размер14.67 ГБ (15 748 474 016)

efim319

Аватара пользователя
Мастер
Мастер
 

Сообщения: 495

Стаж: 5 лет 4 месяца 13 дней

Откуда: СССР

Награды: 13
Карма: 9

Сообщение efim319» 30 янв 2023, 14:53

Можно посмотреть.


Вернуться в !!! Полные завершенные сезоны !!!

Кто сейчас на конференции

Сейчас этот форум просматривают: алешенька, Bulochka

Ресурс не предоставляет электронные версии произведений, а занимается лишь коллекционированием и каталогизацией ссылок, присылаемых и публикуемых на форуме нашими читателями. Если вы являетесь правообладателем какого-либо представленного материала и не желаете чтобы ссылка на него находилась в нашем каталоге, свяжитесь с нами и мы незамедлительно удалим её. Файлы для обмена на трекере предоставлены пользователями сайта, и администрация не несёт ответственности за их содержание. Просьба не заливать файлы, защищенные авторскими правами, а также файлы нелегального содержания!