Аляска Дэйли (1 сезон: 1-11 серии из 11) / Alaska Daily [2022, Драма, WEB-DL (1080p), Профессиональный (многоголосый, закадровый) - TVShows] - Скачать торрент бесплатно

Модераторы: Кандидат в Союз Риперов, Модераторы Сериалы, мультсериалы, Союз Риперов

Поделиться ВКонтакте Поделиться Facebook Поделиться Twitter Поделиться Mail.RU
АвторСообщение
VLAD71
Аватара пользователя
Модератор Фильмов
Модератор Фильмов
 
Раздал: 151.85 ТБ
Скачал: 40.94 ТБ
Ратио: 628.619
Сообщения: 368
Стаж: 6 лет 5 месяцев 13 дней
Награды: 13
Карма: 50

Сообщение VLAD71 » 10 окт 2022, 09:16

Аляска Дэйли (1 сезон: 1-11 серии из 11) / Alaska Daily [2022, Драма, WEB-DL (1080p), Профессиональный (многоголосый, закадровый) - TVShows] - Скачать торрент

Название: Аляска Дэйли
Оригинальное название: Alaska Daily
Год выхода: 2022
Жанр: Драма
Режиссер: Том Маккарти

В ролях:
Хилари Суэнк, Джефф Перри, Грэйс Дав, Мередит Холцман, Мэтт Мэллой, Пабло Кастельбланко, Эми Пак, Крэйг Фрэнк, Джо Типпетт, Ирен Бедард и др.

Описание сериала:
Журналистка Эйлин переезжает на Аляску в надежде начать новую жизнь. Там она берется расследовать многочисленные исчезновения местных женщин.

Страна: США, Канада
Студия: 20th Television, Anchorage Daily News, Canadian Film or Video Production Tax Credit, Province of British Columbia Film Incentive BC, Slow Pony
Продолжительность: ~0:45:00
Перевод: Профессиональный (многоголосый, закадровый) TVShows
Субтитры: Английские



Файл
Формат: MKV
Качество: WEB-DL (1080p)

Видео: 1920x1080 (16:9), 23,976 fps, AVC (х264), High@L4, ~7644 Kbps avg, 0.154 bit/pixel
Аудио RUS: 48 kHz, AC3, 2/0 (L,R), ~384 kbps avg
Аудио ENG: 48 kHz, E-AC3, 3/2 (L,C,R,l,r) + LFE ch, ~640 kbps avg




Общее
Уникальный идентификатор : 88934870775039154310022358657366855654 (0x42E83BAAA51D3F2D5B46045094598FE6)
Полное имя : Alaska.Daily.2022.S01E01.WEB-DL.1080p.AMZN.TVShows.mkv
Формат : Matroska
Версия формата : Version 4
Размер файла : 2,84 Гбайт
Продолжительность : 46 м. 50 с.
Общий поток : 8 670 Кбит/сек
Дата кодирования : UTC 2022-10-10 03:06:39
Программа кодирования : mkvmerge v68.0.0 ('The Curtain') 64-bit
Библиотека кодирования : libebml v1.4.2 + libmatroska v1.6.4

Видео
Идентификатор : 1
Формат : AVC
Формат/Информация : Advanced Video Codec
Профиль формата : High@L4
Настройки формата : CABAC / 4 Ref Frames
Параметр CABAC формата : Да
Параметр RefFrames формата : 4 кадра
Идентификатор кодека : V_MPEG4/ISO/AVC
Продолжительность : 46 м. 50 с.
Вид битрейта : Постоянный
Битрейт : 7 644 Кбит/сек
Номинальный битрейт : 10 000 Кбит/сек
Ширина : 1 920 пикселей
Высота : 1 080 пикселей
Соотношение сторон : 16:9
Режим частоты кадров : Постоянный
Частота кадров : 23,976 (24000/1001) кадра/сек
Цветовое пространство : YUV
Субдискретизация насыщенности : 4:2:0
Битовая глубина : 8 бит
Тип развёртки : Прогрессивная
Бит/(Пиксели*Кадры) : 0.154
Размер потока : 2,50 Гбайт (88%)
Default : Да
Forced : Нет
Цветовой диапазон : Limited
Основные цвета : BT.709
Характеристики трансфера : BT.709
Коэффициенты матрицы : BT.709

Аудио #1
Идентификатор : 2
Формат : AC-3
Формат/Информация : Audio Coding 3
Коммерческое название : Dolby Digital
Идентификатор кодека : A_AC3
Продолжительность : 46 м. 50 с.
Вид битрейта : Постоянный
Битрейт : 384 Кбит/сек
Каналы : 2 канала
Channel layout : L R
Частота : 48,0 КГц
Частота кадров : 31,250 кадров/сек (1536 SPF)
Метод сжатия : С потерями
Размер потока : 129 Мбайт (4%)
Язык : Russian
Default : Да
Forced : Нет

Аудио #2
Идентификатор : 3
Формат : E-AC-3
Формат/Информация : Enhanced AC-3
Коммерческое название : Dolby Digital Plus
Идентификатор кодека : A_EAC3
Продолжительность : 46 м. 50 с.
Вид битрейта : Постоянный
Битрейт : 640 Кбит/сек
Каналы : 6 каналов
Channel layout : L R C LFE Ls Rs
Частота : 48,0 КГц
Частота кадров : 31,250 кадров/сек (1536 SPF)
Метод сжатия : С потерями
Размер потока : 214 Мбайт (7%)
Язык : English
Default : Нет
Forced : Нет

Текст #1
Идентификатор : 4
Формат : UTF-8
Идентификатор кодека : S_TEXT/UTF8
Идентификатор кодека/Информация : UTF-8 Plain Text
Продолжительность : 46 м. 8 с.
Битрейт : 96 бит/сек
Частота кадров : 0,366 кадр/сек
Count of elements : 1014
Размер потока : 32,7 Кбайт (0%)
Язык : English
Default : Нет
Forced : Нет

Текст #2
Идентификатор : 5
Формат : UTF-8
Идентификатор кодека : S_TEXT/UTF8
Идентификатор кодека/Информация : UTF-8 Plain Text
Продолжительность : 46 м. 36 с.
Битрейт : 98 бит/сек
Частота кадров : 0,390 кадр/сек
Count of elements : 1090
Размер потока : 33,7 Кбайт (0%)
Заголовок : SDH
Язык : English
Default : Нет
Forced : Нет

Как качать, Как раздавать - Правила и инструкции
Торрент03 апр 2023, 19:55 [ 03 апр 2023, 19:55 ]

СКАЧАТЬ с просмотром рекламы
Статус-
.torrent скачан1969 раз
Размер26.72 ГБ (28 687 280 880)

vinodel


Опытный пользователь
Опытный пользователь
 

Сообщения: 114

Стаж: 4 года 3 месяца 9 дней
Карма: 0

Сообщение vinodel» 12 ноя 2022, 18:12

VLAD71 писал(а):

Re: Аляска Дэйли (1 сезон: 1-5 серии из 10) / Alaska Daily [2022, Драма, WEB-DL (1080p), Профессиональный (многоголосый, закадровый) - TVShows]

выложите плиз не столь крутого размера.

VLAD71

Аватара пользователя
Модератор Фильмов
Модератор Фильмов
 

Сообщения: 368

Стаж: 6 лет 5 месяцев 13 дней
Награды: 13
Карма: 50

Сообщение VLAD71» 21 ноя 2022, 09:00

В этом году 6 серий. Episode #1.7 - 23 Feb. 2023:
https://www.imdb.com/title/tt15421858/episodes/?ref_=tt_ep_epl


Вернуться в !!! Полные завершенные сезоны !!!

Кто сейчас на конференции

Сейчас этот форум просматривают: нет зарегистрированных пользователей

Ресурс не предоставляет электронные версии произведений, а занимается лишь коллекционированием и каталогизацией ссылок, присылаемых и публикуемых на форуме нашими читателями. Если вы являетесь правообладателем какого-либо представленного материала и не желаете чтобы ссылка на него находилась в нашем каталоге, свяжитесь с нами и мы незамедлительно удалим её. Файлы для обмена на трекере предоставлены пользователями сайта, и администрация не несёт ответственности за их содержание. Просьба не заливать файлы, защищенные авторскими правами, а также файлы нелегального содержания!