Догоняя смерть / День, когда земля содрогнулась / The Grave (1 сезон: 1-8 серии из 8) [2019, триллер, драма, криминал, детектив, WEB-DL 1080p | Мобильное телевидение] - Скачать торрент бесплатно

Модераторы: Кандидат в Союз Риперов, Модераторы Сериалы, мультсериалы, Союз Риперов

Поделиться ВКонтакте Поделиться Facebook Поделиться Twitter Поделиться Mail.RU
АвторСообщение
FiNikola
Аватара пользователя
Заслуженный
Заслуженный
 
Раздал: 15.77 ТБ
Скачал: 688.82 ГБ
Ратио: 78.233
Сообщения: 1748
Стаж: 2 года 9 месяцев 16 дней
Откуда: РОССИЯ
Награды: 35
Карма: 65

Сообщение FiNikola » 04 фев 2023, 09:46

Догоняя смерть / День, когда земля содрогнулась / The Grave (1 сезон: 1-8 серии из 8) [2019, триллер, драма, криминал, детектив, WEB-DL 1080p | Мобильное телевидение] - Скачать торрент

Название: Догоняя смерть / День, когда земля содрогнулась
Оригинальное название: The Grave
Выпущено: Израиль, Drama-Team, Federation Entertainment
Год выпуска: 2019
Жанр: триллер, драма, криминал, детектив
Продолжительность: 8-х ~ 00:50:00 серия

Перевод: Профессиональный (многоголосый закадровый) | Мобильное телевидение

Режиссёр: Омри Гивон
В ролях: Лиана Айюн, Наддав Нец, Шалом Михаэльшвилли, Цахи Алеви, Михал Кальман, Даниэль Швабе, Авигайль Харари, Орталь Бен-Шошан, Тамир Гинсбург, Одед Лэпард, Том Грациани, Даниель Галь, Дор Харари, Адам Карст, Рэймонд Амсалем

Описание: В результате землетрясения на поверхности обнаружены скелеты 3 человек. Результаты тестов ДНК показывают, что эти останки принадлежат людям, которые еще живы. Так начинается захватывающее расследование, которое ведут двое полицейских детективов. Кто эти жертвы? Как они могут быть и живы, и мертвы одновременно? Ответы окажутся далеко за рамками человеческого воображения.

У каждого из главных героев есть свой «скелет в шкафу», который пытается вырваться оттуда и заставить посмотреть в лицо своим страхам.



Качество: WEB-DL 1080p
Контейнер: MKV
Видео: AVC, 1920x1080 (16:9), 25 fps, ~5000 kbps
Аудио №1 Русский: AAC, 48 kHz, 2 ch, 192 kbps
Аудио №2 Иврит: AAC, 48 kHz, 2 ch, 192 kbps
Субтитры: Русские (Кинопоиск)
Реклама: Отсутствует

General
Unique ID : 237375628590196291426177800879628269897 (0xB294E213F3FE8EB7D29AEE3ECF46B949)
Complete name : The.Grave.S01E01.1080p.WEB-DL-EniaHD.mkv
Format : Matroska
Format version : Version 4
File size : 1.95 GiB
Duration : 52 min 2 s
Overall bit rate : 5 378 kb/s
Writing application : mkvmerge v57.0.0 ('Till The End') 64-bit
Writing library : libebml v1.4.2 + libmatroska v1.6.4

Video
ID : 1
Format : AVC
Format/Info : Advanced Video Codec
Format profile : High@L4
Format settings : CABAC / 3 Ref Frames
Format settings, CABAC : Yes
Format settings, Reference fra : 3 frames
Codec ID : V_MPEG4/ISO/AVC
Duration : 52 min 2 s
Bit rate : 5 000 kb/s
Width : 1 920 pixels
Height : 1 080 pixels
Display aspect ratio : 16:9
Frame rate mode : Constant
Frame rate : 25.000 FPS
Color space : YUV
Chroma subsampling : 4:2:0
Bit depth : 8 bits
Scan type : Progressive
Bits/(Pixel*Frame) : 0.096
Stream size : 1.81 GiB (93%)
Writing library : x264 core 161 r3048 b86ae3c
Encoding settings : cabac=1 / ref=4 / deblock=1:1:1 / analyse=0x3:0x133 / me=umh / subme=9 / psy=1 / psy_rd=0.40:1.00 / mixed_ref=1 / me_range=24 / chroma_me=1 / trellis=0 / 8x8dct=1 / cqm=0 / deadzone=21,11 / fast_pskip=1 / chroma_qp_offset=-2 / threads=34 / lookahead_threads=2 / sliced_threads=0 / nr=0 / decimate=1 / interlaced=0 / bluray_compat=0 / constrained_intra=0 / bframes=8 / b_pyramid=1 / b_adapt=1 / b_bias=0 / direct=3 / weightb=1 / open_gop=0 / weightp=2 / keyint=75 / keyint_min=38 / scenecut=0 / intra_refresh=0 / rc_lookahead=30 / rc=2pass / mbtree=1 / bitrate=5000 / ratetol=1.0 / qcomp=0.80 / qpmin=1 / qpmax=69 / qpstep=4 / cplxblur=20.0 / qblur=0.5 / vbv_maxrate=7500 / vbv_bufsize=10000 / nal_hrd=none / filler=0 / ip_ratio=1.40 / aq=1:1.00
Default : Yes
Forced : No
Color range : Limited
Matrix coefficients : BT.709

Audio #1
ID : 2
Format : AAC LC
Format/Info : Advanced Audio Codec Low Complexity
Codec ID : A_AAC-2
Duration : 52 min 2 s
Bit rate : 192 kb/s
Channel(s) : 2 channels
Channel layout : L R
Sampling rate : 48.0 kHz
Frame rate : 46.875 FPS (1024 SPF)
Compression mode : Lossy
Stream size : 71.7 MiB (4%)
Language : Russian
Default : Yes
Forced : No

Audio #2
ID : 3
Format : AAC LC
Format/Info : Advanced Audio Codec Low Complexity
Codec ID : A_AAC-2
Duration : 52 min 2 s
Bit rate : 192 kb/s
Channel(s) : 2 channels
Channel layout : L R
Sampling rate : 48.0 kHz
Frame rate : 46.875 FPS (1024 SPF)
Compression mode : Lossy
Stream size : 71.7 MiB (4%)
Language : Hebrew
Default : No
Forced : No

Text
ID : 4
Format : UTF-8
Codec ID : S_TEXT/UTF8
Codec ID/Info : UTF-8 Plain Text
Duration : 47 min 53 s
Bit rate : 78 b/s
Count of elements : 552
Stream size : 27.6 KiB (0%)
Language : Russian
Default : No
Forced : No

Как качать, Как раздавать - Правила и инструкции
Торрент04 фев 2023, 09:46 [ 04 фев 2023, 09:46 ]

СКАЧАТЬ с просмотром рекламы
СтатусПроверен
.torrent скачан34 раз
Размер14.36 ГБ (15 422 162 791)

Вернуться в !!! Полные завершенные сезоны !!!

Кто сейчас на конференции

Сейчас этот форум просматривают: нет зарегистрированных пользователей

Ресурс не предоставляет электронные версии произведений, а занимается лишь коллекционированием и каталогизацией ссылок, присылаемых и публикуемых на форуме нашими читателями. Если вы являетесь правообладателем какого-либо представленного материала и не желаете чтобы ссылка на него находилась в нашем каталоге, свяжитесь с нами и мы незамедлительно удалим её. Файлы для обмена на трекере предоставлены пользователями сайта, и администрация не несёт ответственности за их содержание. Просьба не заливать файлы, защищенные авторскими правами, а также файлы нелегального содержания!