Догоняя смерть / День, когда земля содрогнулась / The Grave (1 сезон: 1-8 серии из 8) [2019, триллер, драма, криминал, детектив, WEB-DLRip | Мобильное телевидение] - Скачать торрент бесплатно

Модераторы: Кандидат в Союз Риперов, Модераторы Сериалы, мультсериалы, Союз Риперов

Поделиться ВКонтакте Поделиться Facebook Поделиться Twitter Поделиться Mail.RU
АвторСообщение
FiNikola
Аватара пользователя
Заслуженный
Заслуженный
 
Раздал: 15.77 ТБ
Скачал: 688.82 ГБ
Ратио: 78.107
Сообщения: 1757
Стаж: 2 года 9 месяцев 5 дней
Откуда: РОССИЯ
Награды: 35
Карма: 65

Сообщение FiNikola » 04 фев 2023, 09:54

Догоняя смерть / День, когда земля содрогнулась / The Grave (1 сезон: 1-8 серии из 8) [2019, триллер, драма, криминал, детектив, WEB-DLRip | Мобильное телевидение] - Скачать торрент

Название: Догоняя смерть / День, когда земля содрогнулась
Оригинальное название: The Grave
Выпущено: Израиль, Drama-Team, Federation Entertainment
Год выпуска: 2019
Жанр: триллер, драма, криминал, детектив
Продолжительность: ~00:50:00 серия

Перевод: Профессиональный (многоголосый закадровый) | Мобильное телевидение

Режиссёр: Омри Гивон
В ролях: Лиана Айюн, Наддав Нец, Шалом Михаэльшвилли, Цахи Алеви, Михал Кальман, Даниэль Швабе, Авигайль Харари, Орталь Бен-Шошан, Тамир Гинсбург, Одед Лэпард, Том Грациани, Даниель Галь, Дор Харари, Адам Карст, Рэймонд Амсалем

Описание: В результате землетрясения на поверхности обнаружены скелеты 3 человек. Результаты тестов ДНК показывают, что эти останки принадлежат людям, которые еще живы. Так начинается захватывающее расследование, которое ведут двое полицейских детективов. Кто эти жертвы? Как они могут быть и живы, и мертвы одновременно? Ответы окажутся далеко за рамками человеческого воображения.
У каждого из главных героев есть свой «скелет в шкафу», который пытается вырваться оттуда и заставить посмотреть в лицо своим страхам.



Качество: WEB-DLRip
Формат: AVI
Видео: 720x400 (1.80:1), 25 fps, XviD build 50 ~1793 kbps avg, 0.25 bit/pixel
Аудио: 48 kHz, MPEG Layer 3, 2 ch, 192.00 kbps avg [Russian]
Субтитры: Отсутствуют
Реклама: Отсутствует

Общее
Полное имя : The Grave (2019)_S01_WEB-DLRip_LenapeThe Grave_S01E01_WEB-DLRip_Lenape.avi
Формат : AVI
Формат/Информация : Audio Video Interleave
Размер файла : 743 Мбайт
Продолжительность : 52 м. 2 с.
Общий поток : 1996 Кбит/сек
Программа кодирования : VirtualDubMod 1.5.10.3 | www.virtualdub-fr.org || (build 2550/release)
Библиотека кодирования : VirtualDubMod build 2550/release

Видео
Идентификатор : 0
Формат : MPEG-4 Visual
Профиль формата : Advanced Simple@L5
Настройки формата : BVOP1 / Custom Matrix
Параметр BVOP формата : 1
Параметр QPel формата : Нет
Параметр GMC формата : Без точки перехода
Параметр матрицы формата : Выборочная
Идентификатор кодека : XVID
Идентификатор кодека/Подсказка : XviD
Продолжительность : 52 м. 2 с.
Битрейт : 1794 Кбит/сек
Ширина : 720 пикселей
Высота : 400 пикселей
Соотношение сторон : 16:9
Частота кадров : 25,000 кадров/сек
Цветовое пространство : YUV
Субдискретизация насыщенности : 4:2:0
Битовая глубина : 8 бит
Тип развёртки : Прогрессивная
Метод сжатия : С потерями
Бит/(Пиксели*Кадры) : 0.249
Размер потока : 668 Мбайт (90%)
Библиотека кодирования : XviD 1.2.1 (UTC 2008-12-04)

Аудио
Идентификатор : 1
Формат : MPEG Audio
Версия формата : Version 1
Профиль формата : Layer 3
Настройки формата : Joint stereo / MS Stereo
Идентификатор кодека : 55
Идентификатор кодека/Подсказка : MP3
Продолжительность : 52 м. 2 с.
Вид битрейта : Постоянный
Битрейт : 192 Кбит/сек
Каналы : 2 канала
Частота : 48,0 КГц
Метод сжатия : С потерями
Размер потока : 71,5 Мбайт (10%)
Выравнивание : Соединение по промежуткам
Продолжительность промежутка : 40 мс. (1,00 видеокадр)
Время предзагрузки промежутка : 504 мс.
Библиотека кодирования : LAME3.90.3

Как качать, Как раздавать - Правила и инструкции
Торрент04 фев 2023, 09:54 [ 04 фев 2023, 09:54 ]

СКАЧАТЬ с просмотром рекламы
СтатусПроверен
.torrent скачан367 раз
Размер5.79 ГБ (6 220 339 200)

Вернуться в !!! Полные завершенные сезоны !!!

Кто сейчас на конференции

Сейчас этот форум просматривают: нет зарегистрированных пользователей

Ресурс не предоставляет электронные версии произведений, а занимается лишь коллекционированием и каталогизацией ссылок, присылаемых и публикуемых на форуме нашими читателями. Если вы являетесь правообладателем какого-либо представленного материала и не желаете чтобы ссылка на него находилась в нашем каталоге, свяжитесь с нами и мы незамедлительно удалим её. Файлы для обмена на трекере предоставлены пользователями сайта, и администрация не несёт ответственности за их содержание. Просьба не заливать файлы, защищенные авторскими правами, а также файлы нелегального содержания!