ФБР: За границей (2 сезон: 1-22 серии из 22) / FBI: International [2022, Драма, криминал, WEB-DL 1080p, Профессиональный (многоголосый, закадровый) - TVShows] - Скачать торрент бесплатно

Модераторы: Кандидат в Союз Риперов, Модераторы Сериалы, мультсериалы, Союз Риперов

Поделиться ВКонтакте Поделиться Facebook Поделиться Twitter Поделиться Mail.RU
АвторСообщение
VLAD71
Аватара пользователя
Модератор Фильмов
Модератор Фильмов
 
Раздал: 149.22 ТБ
Скачал: 40.94 ТБ
Ратио: 626.596
Сообщения: 359
Стаж: 6 лет 2 месяца 9 дней
Награды: 13

Сообщение VLAD71 » 05 дек 2022, 07:25

ФБР: За границей (2 сезон: 1-22 серии из 22) / FBI: International [2022, Драма, криминал, WEB-DL 1080p, Профессиональный (многоголосый, закадровый) - TVShows] - Скачать торрент

Название: ФБР: За границей
Оригинальное название: FBI: International
Год выхода: 2022
Жанр: Драма, криминал
Режиссер: Майкл Кэтлман

В ролях:
Джордан Бэлфи, Алекс Брок, Саманта Блэйр Катлер, Алана Де Ла Гарза, Куштрим Ходжа, Люк Клеинтенк, Олег Крикунов, Аннемари Лоулесс, Ивица Ковачевич, Кристиана Пауль и др.

Описание сериала:
Федеральное Бюро Расследований известно, как одно из самых главных подразделений национальной безопасности, которое работает на территории страны. Однако нередко бывает так, что и ФБР берётся за дела, связанные с преступниками, которые находятся не на территории родной страны. Проект "ФБР: За границей" - это сборник рассказов о расследованиях, которые проводят агенты федерального бюро вне территории родных штатов. Им предстоит не только отыскать преступника, но и понять, что происходит в другой стране, дабы не быть раскрытыми и подвергнутыми гонению. Спин-офф ФБР.

Страна: США
Студия: CBS Studios, Pioneer Stillking Films, Universal TV, Wolf Entertainment
Продолжительность: ~0:45:00
Перевод: Профессиональный (многоголосый, закадровый) TVShows
Субтитры: Английские



Файл
Формат: MKV
Качество: WEB-DL (1080p)

Видео: 1920x1080 (16:9), 24 fps, AVC (х264), High@L4, ~8321 Kbps avg, 0.167 bit/pixel
Аудио RUS: 48 kHz, AC3, 2/0 (L,R), ~224 kbps avg
Аудио ENG: 48 kHz, E-AC3, 3/2 (L,C,R,l,r) + LFE ch, ~640 kbps avg




Общее
Уникальный идентификатор : 193457931869590672191171528781711721887 (0x918AA4741BF9E81ADC3D2130444AC59F)
Полное имя : FBI.International.S02E01.Unburdened.1080p.AMZN.WEB-DL.DDP5.1.H.264.Rus.Eng.mkv
Формат : Matroska
Версия формата : Version 4
Размер файла : 2,54 Гбайт
Продолжительность : 39 м. 34 с.
Общий поток : 9 187 Кбит/сек
Дата кодирования : UTC 2022-09-24 13:06:21
Программа кодирования : mkvmerge v70.0.0 ('Caught A Lite Sneeze') 64-bit
Библиотека кодирования : libebml v1.4.2 + libmatroska v1.6.4

Видео
Идентификатор : 1
Формат : AVC
Формат/Информация : Advanced Video Codec
Профиль формата : High@L4
Настройки формата : CABAC / 4 Ref Frames
Параметр CABAC формата : Да
Параметр RefFrames формата : 4 кадра
Идентификатор кодека : V_MPEG4/ISO/AVC
Продолжительность : 39 м. 34 с.
Вид битрейта : Постоянный
Битрейт : 8 321 Кбит/сек
Номинальный битрейт : 10 000 Кбит/сек
Ширина : 1 920 пикселей
Высота : 1 080 пикселей
Соотношение сторон : 16:9
Режим частоты кадров : Постоянный
Частота кадров : 24,000 кадра/сек
Цветовое пространство : YUV
Субдискретизация насыщенности : 4:2:0
Битовая глубина : 8 бит
Тип развёртки : Прогрессивная
Бит/(Пиксели*Кадры) : 0.167
Размер потока : 2,30 Гбайт (91%)
Default : Да
Forced : Нет
Цветовой диапазон : Limited
Основные цвета : BT.709
Характеристики трансфера : BT.709
Коэффициенты матрицы : BT.709

Аудио #1
Идентификатор : 2
Формат : AC-3
Формат/Информация : Audio Coding 3
Коммерческое название : Dolby Digital
Идентификатор кодека : A_AC3
Продолжительность : 39 м. 34 с.
Вид битрейта : Постоянный
Битрейт : 224 Кбит/сек
Каналы : 2 канала
Channel layout : L R
Частота : 48,0 КГц
Частота кадров : 31,250 кадров/сек (1536 SPF)
Метод сжатия : С потерями
Задержка видео : 27 мс.
Размер потока : 63,4 Мбайт (2%)
Заголовок : TVShows
Язык : Russian
Default : Да
Forced : Нет

Аудио #2
Идентификатор : 3
Формат : E-AC-3
Формат/Информация : Enhanced AC-3
Коммерческое название : Dolby Digital Plus
Идентификатор кодека : A_EAC3
Продолжительность : 39 м. 34 с.
Вид битрейта : Постоянный
Битрейт : 640 Кбит/сек
Каналы : 6 каналов
Channel layout : L R C LFE Ls Rs
Частота : 48,0 КГц
Частота кадров : 31,250 кадров/сек (1536 SPF)
Метод сжатия : С потерями
Размер потока : 181 Мбайт (7%)
Язык : English
Default : Да
Forced : Нет

Текст #1
Идентификатор : 4
Формат : UTF-8
Идентификатор кодека : S_TEXT/UTF8
Идентификатор кодека/Информация : UTF-8 Plain Text
Продолжительность : 38 м. 40 с.
Битрейт : 71 бит/сек
Частота кадров : 0,257 кадр/сек
Count of elements : 596
Размер потока : 20,1 Кбайт (0%)
Язык : English
Default : Нет
Forced : Нет

Текст #2
Идентификатор : 5
Формат : UTF-8
Идентификатор кодека : S_TEXT/UTF8
Идентификатор кодека/Информация : UTF-8 Plain Text
Продолжительность : 39 м. 27 с.
Битрейт : 74 бит/сек
Частота кадров : 0,287 кадр/сек
Count of elements : 679
Размер потока : 21,5 Кбайт (0%)
Заголовок : SDH
Язык : English
Default : Нет
Forced : Нет

Как качать, Как раздавать - Правила и инструкции
Торрент28 май 2023, 19:35 [ 28 май 2023, 19:35 ]

СКАЧАТЬ с просмотром рекламы
Статус-
.torrent скачан1 раз
Размер55.99 ГБ (60 114 369 730)

WildCatII

Аватара пользователя
Опытный пользователь
Опытный пользователь
 

Сообщения: 154

Стаж: 10 лет 8 месяцев 11 дней

Откуда: СССР

Награды: 4

Сообщение WildCatII» 28 май 2023, 23:32

Блин *спать а поменьше размером можно эти 2а сериала про фбр сделать? *бухать


Вернуться в !!! Полные завершенные сезоны !!!

Кто сейчас на конференции

Сейчас этот форум просматривают: нет зарегистрированных пользователей

Ресурс не предоставляет электронные версии произведений, а занимается лишь коллекционированием и каталогизацией ссылок, присылаемых и публикуемых на форуме нашими читателями. Если вы являетесь правообладателем какого-либо представленного материала и не желаете чтобы ссылка на него находилась в нашем каталоге, свяжитесь с нами и мы незамедлительно удалим её. Файлы для обмена на трекере предоставлены пользователями сайта, и администрация не несёт ответственности за их содержание. Просьба не заливать файлы, защищенные авторскими правами, а также файлы нелегального содержания!