Крёстный отец Гарлема (3 сезон: 1-10 серии из 10) / Godfather of Harlem [2023, Криминальная драма, WEB-DL (1080p), Профессиональный (многоголосый, закадровый) - HDRezka Studio] - Скачать торрент бесплатно

Модераторы: Кандидат в Союз Риперов, Модераторы Сериалы, мультсериалы, Союз Риперов

Поделиться ВКонтакте Поделиться Facebook Поделиться Twitter Поделиться Mail.RU
АвторСообщение
VLAD71
Аватара пользователя
Модератор Фильмов
Модератор Фильмов
 
Раздал: 152.7 ТБ
Скачал: 40.94 ТБ
Ратио: 629.206
Сообщения: 370
Стаж: 6 лет 5 месяцев 27 дней
Награды: 13
Карма: 55

Сообщение VLAD71 » 17 янв 2023, 09:48

Крёстный отец Гарлема (3 сезон: 1-10 серии из 10) / Godfather of Harlem [2023, Криминальная драма, WEB-DL (1080p), Профессиональный (многоголосый, закадровый) - HDRezka Studio] - Скачать торрент

Название: Крёстный отец Гарлема
Оригинальное название: Godfather of Harlem
Год выхода: 2023
Жанр: Криминальная драма
Режиссер: Джон Ридли

В ролях:
Люси Фрай, Форест Уитакер, Деми Синглтон, Серин Браун, Джамал Бёрчер, Антуанетта Кроу-Легаси, Винсент Д`Онофрио, Джанкарло Эспозито, Ильфенеш Хадера, Келвин Харрисон мл. и др.

Описание сериала:
История одного из самых влиятельных гангстеров в Нью-Йорке 1960-х, афроамериканца Бампи Джонсона. После одиннадцати лет тюрьмы «король» преступного мира Бампи Джонсон возвращается в Гарлем. Родной район сильно изменился за эти годы: на улицах установилась жестокая власть генуэзской мафии, быстро набирающей силу. На первый план выходит преступная Семья Дженовезе, в которой никто не рад возвращению Бампи. Свергнутому королю не справиться в одиночестве со всеми врагами, и он заручается поддержкой своего старого знакомого – знаменитого исламского активиста и радикального борца за права афроамериканцев Малкольма Икса.

Страна: США
Студия: ABC Signature Studios
Продолжительность: ~00:55:00
Перевод: Профессиональный (многоголосый, закадровый) HDRezka Studio
Субтитры: Русские (Forced), английские (Full, SDH)



Файл
Формат: MKV
Качество: WEB-DL (1080p)

Видео: 1920x1080 (16:9), 23,976 fps, AVC (х264), High@L4, ~9405 kbps avg, 0.189 bit/pixel
Аудио RUS: 48 kHz, AC3, 3/2 (L,C,R,l,r) + LFE ch, ~448 kbps avg
Аудио ENG: 48 kHz, E-AC3, 3/2 (L,C,R,l,r) + LFE ch, ~640 kbps avg




Общее
Уникальный идентификатор : 44440113144118992191890300135305723813 (0x216EDABE20BE34610210162B11FD3FA5)
Полное имя : Godfather.of.Harlem.2023.S03E01.WEB-DL.1080p.AMZN.HDREZKA.STUDIO.mkv
Формат : Matroska
Версия формата : Version 4
Размер файла : 3,81 Гбайт
Продолжительность : 52 м. 0 с.
Общий поток : 10,5 Мбит/сек
Дата кодирования : UTC 2023-01-17 03:46:05
Программа кодирования : mkvmerge v68.0.0 ('The Curtain') 64-bit
Библиотека кодирования : libebml v1.4.2 + libmatroska v1.6.4

Видео
Идентификатор : 1
Формат : AVC
Формат/Информация : Advanced Video Codec
Профиль формата : High@L4
Настройки формата : CABAC / 4 Ref Frames
Параметр CABAC формата : Да
Параметр RefFrames формата : 4 кадра
Идентификатор кодека : V_MPEG4/ISO/AVC
Продолжительность : 52 м. 0 с.
Вид битрейта : Постоянный
Битрейт : 9 405 Кбит/сек
Номинальный битрейт : 10 000 Кбит/сек
Ширина : 1 920 пикселей
Высота : 1 080 пикселей
Соотношение сторон : 16:9
Режим частоты кадров : Постоянный
Частота кадров : 23,976 (24000/1001) кадра/сек
Цветовое пространство : YUV
Субдискретизация насыщенности : 4:2:0
Битовая глубина : 8 бит
Тип развёртки : Прогрессивная
Бит/(Пиксели*Кадры) : 0.189
Размер потока : 3,42 Гбайт (90%)
Default : Да
Forced : Нет
Цветовой диапазон : Limited
Основные цвета : BT.709
Характеристики трансфера : BT.709
Коэффициенты матрицы : BT.709

Аудио #1
Идентификатор : 2
Формат : AC-3
Формат/Информация : Audio Coding 3
Коммерческое название : Dolby Digital
Идентификатор кодека : A_AC3
Продолжительность : 52 м. 0 с.
Вид битрейта : Постоянный
Битрейт : 448 Кбит/сек
Каналы : 6 каналов
Channel layout : L R C LFE Ls Rs
Частота : 48,0 КГц
Частота кадров : 31,250 кадров/сек (1536 SPF)
Метод сжатия : С потерями
Размер потока : 167 Мбайт (4%)
Язык : Russian
Default : Да
Forced : Нет

Аудио #2
Идентификатор : 3
Формат : E-AC-3
Формат/Информация : Enhanced AC-3
Коммерческое название : Dolby Digital Plus
Идентификатор кодека : A_EAC3
Продолжительность : 52 м. 0 с.
Вид битрейта : Постоянный
Битрейт : 640 Кбит/сек
Каналы : 6 каналов
Channel layout : L R C LFE Ls Rs
Частота : 48,0 КГц
Частота кадров : 31,250 кадров/сек (1536 SPF)
Метод сжатия : С потерями
Размер потока : 238 Мбайт (6%)
Язык : English (US)
Default : Нет
Forced : Нет

Текст #1
Идентификатор : 4
Формат : UTF-8
Идентификатор кодека : S_TEXT/UTF8
Идентификатор кодека/Информация : UTF-8 Plain Text
Продолжительность : 46 м. 44 с.
Битрейт : 2 бит/сек
Частота кадров : 0,006 кадр/сек
Count of elements : 17
Размер потока : 859 байт (0%)
Заголовок : Forced
Язык : Russian
Default : Нет
Forced : Нет

Текст #2
Идентификатор : 5
Формат : UTF-8
Идентификатор кодека : S_TEXT/UTF8
Идентификатор кодека/Информация : UTF-8 Plain Text
Продолжительность : 50 м. 18 с.
Битрейт : 79 бит/сек
Частота кадров : 0,301 кадр/сек
Count of elements : 910
Размер потока : 29,5 Кбайт (0%)
Язык : English (US)
Default : Нет
Forced : Нет

Текст #3
Идентификатор : 6
Формат : UTF-8
Идентификатор кодека : S_TEXT/UTF8
Идентификатор кодека/Информация : UTF-8 Plain Text
Продолжительность : 51 м. 23 с.
Битрейт : 81 бит/сек
Частота кадров : 0,319 кадр/сек
Count of elements : 984
Размер потока : 30,5 Кбайт (0%)
Заголовок : SDH
Язык : English (US)
Default : Нет
Forced : Нет

Как качать, Как раздавать - Правила и инструкции
Торрент28 мар 2023, 09:19 [ 28 мар 2023, 09:19 ]

СКАЧАТЬ с просмотром рекламы
СтатусПроверен VLAD71
.torrent скачан4845 раз
Размер37.48 ГБ (40 249 198 395)

Вернуться в !!! Полные завершенные сезоны !!!

Кто сейчас на конференции

Сейчас этот форум просматривают: Perucho1981

Ресурс не предоставляет электронные версии произведений, а занимается лишь коллекционированием и каталогизацией ссылок, присылаемых и публикуемых на форуме нашими читателями. Если вы являетесь правообладателем какого-либо представленного материала и не желаете чтобы ссылка на него находилась в нашем каталоге, свяжитесь с нами и мы незамедлительно удалим её. Файлы для обмена на трекере предоставлены пользователями сайта, и администрация не несёт ответственности за их содержание. Просьба не заливать файлы, защищенные авторскими правами, а также файлы нелегального содержания!