Мальчик поглощает Вселенную (Мальчик глотает Вселенную) (1 сезон: 1-7 серии из 7) / Boy Swallows Universe [2024, Драма, криминал, детектив, WEB-DL (1080p), Любительский двухголосый - Pazl Voice] - Скачать торрент бесплатно

Модераторы: Кандидат в Союз Риперов, Модераторы Сериалы, мультсериалы, Союз Риперов

Поделиться ВКонтакте Поделиться Facebook Поделиться Twitter Поделиться Mail.RU
АвторСообщение
VLAD71
Аватара пользователя
Модератор Фильмов
Модератор Фильмов
 
Раздал: 150.11 ТБ
Скачал: 40.94 ТБ
Ратио: 627.187
Сообщения: 359
Стаж: 6 лет 4 месяца 2 дня
Награды: 13
Карма: 50

Сообщение VLAD71 » 21 янв 2024, 13:32

Мальчик поглощает Вселенную (Мальчик глотает Вселенную) (1 сезон: 1-7 серии из 7) / Boy Swallows Universe [2024, Драма, криминал, детектив, WEB-DL (1080p), Любительский двухголосый - Pazl Voice] - Скачать торрент

Название: Мальчик поглощает Вселенную (Мальчик глотает Вселенную)
Оригинальное название: Boy Swallows Universe
Год выхода: 2024
Жанр: Драма, криминал, детектив
Режиссер: Бхарат Наллури, Джослин Мурхаус, Ким Мордонт

В ролях: Трэвис Фиммел, Кристофер Джеймс Бэйкер, Ли Тайгер Хэлли, Фиби Тонкин, Феликс Кэмерон, Хэйайя Ле, Джорди Кэмпбелл, Зак Бёрджесс, Элуиз Ротфилд, Захари Ван и др.

Описание сериала:
Действие происходит в 1980-х годах. События разворачиваются в Брисбене. В центре сюжета оказывается не по годам развитый мальчишка по имени Илай, у которого есть немой брат. Однажды в их жизнь вмешивается наркобарон, который разлучает их семью. Главные герои отправляются в путешествие, которое наполнено любовью, искуплениями и возмездиями. Мальчик твердо намерен выбраться из привычных условий, стать хорошим человеком и талантливым журналистом, но реализовать задуманное будет нелегко.

Страна: Австралия
Студия: Anonymous Content, Chapter One Films, Brouhaha Entertainment
Продолжительность: ~00:55:00
Перевод: Любительский (двухголосый) Pazl Voice
Субтитры: Русские (Full), английские (SDH)



Файл
Формат: MKV
Качество: WEB-DL (1080p)

Видео: 1920x1080 (16:9), 24 fps, AVC (х264), High@L4, ~4698 kbps avg, 0.094 bit/pixel
Аудио RUS: 48 kHz, AC3, 3/2 (L, C, R, l, r) + LFE ch, ~384 kbps avg
Аудио ENG: 48 kHz, E-AC3+Atmos, 3/2 (L, C, R, l, r) + LFE ch, ~768 kbps avg




01. Мальчик берёт след
02. Мальчик теряет удачу
03. Беги, мальчик, беги
04. Мальчик теряет отца
05. Мальчик отправляется в полёт
06. Мальчик ищет работу
07. Мальчик встречает конец
Общее
Уникальный идентификатор : 133273986120175876840019128736270035177 (0x6443A2D554AECA3E8EAC58415500A8E9)
Полное имя : Boy.Swallows.Universe.2023.S01E01.WEB-DL.1080p.Pazl.Voice.mkv
Формат : Matroska
Версия формата : Version 4
Размер файла : 2,29 Гбайт
Продолжительность : 55 м. 59 с.
Режим общего битрейта : Переменный
Общий поток : 5 852 Кбит/сек
Частота кадров : 24,000 кадра/сек
Дата кодирования : 2024-01-21 05:42:35 UTC
Программа кодирования : mkvmerge v68.0.0 ('The Curtain') 64-bit
Библиотека кодирования : libebml v1.4.2 + libmatroska v1.6.4

Видео
Идентификатор : 1
Формат : AVC
Формат/Информация : Advanced Video Codec
Профиль формата : Main@L4
Настройки формата : CABAC / 3 Ref Frames
Параметр CABAC формата : Да
Параметр RefFrames формата : 3 кадра
Идентификатор кодека : V_MPEG4/ISO/AVC
Продолжительность : 55 м. 59 с.
Вид битрейта : Переменный
Битрейт : 4 698 Кбит/сек
Номинальный битрейт : 5 000 Кбит/сек
Максимальный битрейт : 7 500 Кбит/сек
Ширина : 1 920 пикселей
Высота : 1 080 пикселей
Соотношение сторон : 16:9
Режим частоты кадров : Постоянный
Частота кадров : 24,000 кадра/сек
Цветовое пространство : YUV
Субдискретизация насыщенности : 4:2:0
Битовая глубина : 8 бит
Тип развёртки : Прогрессивная
Бит/(Пиксели*Кадры) : 0.094
Размер потока : 1,84 Гбайт (80%)
Библиотека кодирования : x264 core 148 r2727 7d026e8
Настройки программы : cabac=1 / ref=3 / deblock=1:0:0 / analyse=0x1:0x111 / me=umh / subme=10 / psy=1 / psy_rd=1.00:0.00 / mixed_ref=1 / me_range=24 / chroma_me=1 / trellis=2 / 8x8dct=0 / cqm=0 / deadzone=21,11 / fast_pskip=1 / chroma_qp_offset=-2 / threads=6 / lookahead_threads=1 / sliced_threads=0 / nr=0 / decimate=1 / interlaced=0 / bluray_compat=0 / stitchable=1 / constrained_intra=0 / bframes=2 / b_pyramid=0 / b_adapt=2 / b_bias=0 / direct=3 / weightb=1 / open_gop=0 / weightp=2 / keyint=240 / keyint_min=121 / scenecut=0 / intra_refresh=0 / rc_lookahead=48 / rc=2pass / mbtree=1 / bitrate=5000 / ratetol=1.0 / qcomp=0.50 / qpmin=6 / qpmax=51 / qpstep=4 / cplxblur=20.0 / qblur=0.5 / vbv_maxrate=7500 / vbv_bufsize=10000 / nal_hrd=vbr / filler=0 / ip_ratio=1.40 / aq=1:1.00
Default : Да
Forced : Нет

Аудио #1
Идентификатор : 2
Формат : AC-3
Формат/Информация : Audio Coding 3
Коммерческое название : Dolby Digital
Идентификатор кодека : A_AC3
Продолжительность : 55 м. 59 с.
Вид битрейта : Постоянный
Битрейт : 384 Кбит/сек
Каналы : 6 каналов
Channel layout : L R C LFE Ls Rs
Частота : 48,0 КГц
Частота кадров : 31,250 кадров/сек (1536 SPF)
Метод сжатия : С потерями
Размер потока : 154 Мбайт (7%)
Язык : Russian
Default : Да
Forced : Нет

Аудио #2
Идентификатор : 3
Формат : E-AC-3 JOC
Формат/Информация : Enhanced AC-3 with Joint Object Coding
Коммерческое название : Dolby Digital Plus with Dolby Atmos
Идентификатор кодека : A_EAC3
Продолжительность : 55 м. 59 с.
Вид битрейта : Постоянный
Битрейт : 768 Кбит/сек
Каналы : 6 каналов
Channel layout : L R C LFE Ls Rs
Частота : 48,0 КГц
Частота кадров : 31,250 кадров/сек (1536 SPF)
Метод сжатия : С потерями
Размер потока : 308 Мбайт (13%)
Язык : English
Default : Нет
Forced : Нет
Complexity index : 16
Number of dynamic objects : 15
Bed channel count : 1 канал
Bed channel configuration : LFE

Текст #1
Идентификатор : 4
Формат : UTF-8
Идентификатор кодека : S_TEXT/UTF8
Идентификатор кодека/Информация : UTF-8 Plain Text
Продолжительность : 54 м. 14 с.
Битрейт : 76 бит/сек
Частота кадров : 0,195 кадр/сек
Count of elements : 633
Размер потока : 30,3 Кбайт (0%)
Заголовок : Russian
Язык : Russian
Default : Нет
Forced : Нет

Текст #2
Идентификатор : 5
Формат : UTF-8
Идентификатор кодека : S_TEXT/UTF8
Идентификатор кодека/Информация : UTF-8 Plain Text
Продолжительность : 52 м. 10 с.
Битрейт : 66 бит/сек
Частота кадров : 0,264 кадр/сек
Count of elements : 826
Размер потока : 25,4 Кбайт (0%)
Заголовок : English (SDH)
Язык : English
Default : Нет
Forced : Нет

Как качать, Как раздавать - Правила и инструкции
Торрент21 янв 2024, 13:32 [ 21 янв 2024, 13:32 ]

СКАЧАТЬ с просмотром рекламы
СтатусПроверен
.torrent скачан215 раз
Размер16.54 ГБ (17 762 917 032)

Вернуться в !!! Полные завершенные сезоны !!!

Кто сейчас на конференции

Сейчас этот форум просматривают: нет зарегистрированных пользователей

Ресурс не предоставляет электронные версии произведений, а занимается лишь коллекционированием и каталогизацией ссылок, присылаемых и публикуемых на форуме нашими читателями. Если вы являетесь правообладателем какого-либо представленного материала и не желаете чтобы ссылка на него находилась в нашем каталоге, свяжитесь с нами и мы незамедлительно удалим её. Файлы для обмена на трекере предоставлены пользователями сайта, и администрация не несёт ответственности за их содержание. Просьба не заливать файлы, защищенные авторскими правами, а также файлы нелегального содержания!