Морская Полиция: Сидней (1 сезон: 1-8 серии из 8) / NCIS: Sydney [2023, Драма, криминал, WEB-DL (1080p), Любительский двухголосый - Pazl Voice] - Скачать торрент бесплатно

Модераторы: Кандидат в Союз Риперов, Модераторы Сериалы, мультсериалы, Союз Риперов

Поделиться ВКонтакте Поделиться Facebook Поделиться Twitter Поделиться Mail.RU
АвторСообщение
VLAD71
Аватара пользователя
Модератор Фильмов
Модератор Фильмов
 
Раздал: 150.11 ТБ
Скачал: 40.94 ТБ
Ратио: 627.187
Сообщения: 359
Стаж: 6 лет 4 месяца 2 дня
Награды: 13
Карма: 50

Сообщение VLAD71 » 24 ноя 2023, 17:46

Морская Полиция: Сидней (1 сезон: 1-8 серии из 8) / NCIS: Sydney [2023, Драма, криминал, WEB-DL (1080p), Любительский двухголосый - Pazl Voice] - Скачать торрент

Название: Морская Полиция: Сидней
Оригинальное название: NCIS: Sydney
Год выхода: 2023
Жанр: Драма, криминал
Режиссер: Шон Сит

В ролях: Кейт Дженкинсон, Оливия Суонн, Тодд Ласанс, Уильям МакАйннс, Туули Наркл, Мэворни Хейзел, Шон Сагар, Нэйтан Бейтс, Николас Браун, Даниэла Фариначчи, Дешан Джексон, Джеймс Макалинтал, Надим Аккари, Роберто Зенка, Джошуа МакЭлрой и др.

Описание сериала:
Блестящая и эклектичная команда агентов американской морской полиции и австралийской федеральной полиции (AFP) неустанно борется с этой проблемой. Теперь эти две сильные силы объединяются в многонациональную оперативную группу для более эффективной борьбы с преступностью в этом регионе. Во главе этой команды стоит выдающийся специальный агент NCIS Мишель Маки, которая обладает глубокими знаниями и опытом в борьбе с морской преступностью. Ее энтузиазм и профессионализм вдохновляют всю команду и делают ее непобедимой силой в мире правоохранительных органов.

Страна: Австралия, США
Студия: CBS Studios, Endemol Shine Australia, Network Ten, Paramount Australia Productions
Продолжительность: ~00:45:00
Перевод: Любительский (двухголосый) Pazl Voice
Субтитры: Русские (Forced, Full), английские (Full, SDH)



Файл
Формат: MKV
Качество: WEB-DL (1080p)

Видео: 1920x1080 (16:9), 25 fps, AVC (х264), High@L4, ~9341 kbps avg, 0.180 bit/pixel
Аудио RUS: 48 kHz, AC3, 2/0 (L, R) ch, ~384 kbps avg
Аудио ENG: 48 kHz, E-AC3, 3/2 (L, C, R, l, r) + LFE ch, ~640 kbps avg




Общее
Уникальный идентификатор : 121821638413447961091164228712777008732 (0x5BA5FE7F44F954B796F48366052A465C)
Полное имя : NCIS.Sydney.2023.S01E01.WEB-DL.1080p.AMZN.Pazl.Voice.mkv
Формат : Matroska
Версия формата : Version 4
Размер файла : 3,13 Гбайт
Продолжительность : 43 м. 16 с.
Общий поток : 10,4 Мбит/сек
Частота кадров : 25,000 кадров/сек
Дата кодирования : 2023-11-24 10:54:01 UTC
Программа кодирования : mkvmerge v68.0.0 ('The Curtain') 64-bit
Библиотека кодирования : libebml v1.4.2 + libmatroska v1.6.4

Видео
Идентификатор : 1
Формат : AVC
Формат/Информация : Advanced Video Codec
Профиль формата : High@L4
Настройки формата : CABAC / 4 Ref Frames
Параметр CABAC формата : Да
Параметр RefFrames формата : 4 кадра
Идентификатор кодека : V_MPEG4/ISO/AVC
Продолжительность : 43 м. 16 с.
Вид битрейта : Постоянный
Битрейт : 9 341 Кбит/сек
Номинальный битрейт : 10 000 Кбит/сек
Ширина : 1 920 пикселей
Высота : 1 080 пикселей
Соотношение сторон : 16:9
Режим частоты кадров : Постоянный
Частота кадров : 25,000 кадров/сек
Цветовое пространство : YUV
Субдискретизация насыщенности : 4:2:0
Битовая глубина : 8 бит
Тип развёртки : Прогрессивная
Бит/(Пиксели*Кадры) : 0.180
Размер потока : 2,82 Гбайт (90%)
Default : Да
Forced : Нет
Цветовой диапазон : Limited
Основные цвета : BT.709
Характеристики трансфера : BT.709
Коэффициенты матрицы : BT.709

Аудио #1
Идентификатор : 2
Формат : AC-3
Формат/Информация : Audio Coding 3
Коммерческое название : Dolby Digital
Идентификатор кодека : A_AC3
Продолжительность : 43 м. 16 с.
Вид битрейта : Постоянный
Битрейт : 384 Кбит/сек
Каналы : 2 канала
Channel layout : L R
Частота : 48,0 КГц
Частота кадров : 31,250 кадров/сек (1536 SPF)
Метод сжатия : С потерями
Размер потока : 119 Мбайт (4%)
Язык : Russian
Default : Да
Forced : Нет

Аудио #2
Идентификатор : 3
Формат : E-AC-3
Формат/Информация : Enhanced AC-3
Коммерческое название : Dolby Digital Plus
Идентификатор кодека : A_EAC3
Продолжительность : 43 м. 16 с.
Вид битрейта : Постоянный
Битрейт : 640 Кбит/сек
Каналы : 6 каналов
Channel layout : L R C LFE Ls Rs
Частота : 48,0 КГц
Частота кадров : 31,250 кадров/сек (1536 SPF)
Метод сжатия : С потерями
Размер потока : 198 Мбайт (6%)
Язык : English (US)
Default : Нет
Forced : Нет

Текст #1
Идентификатор : 4
Формат : UTF-8
Идентификатор кодека : S_TEXT/UTF8
Идентификатор кодека/Информация : UTF-8 Plain Text
Продолжительность : 39 м. 4 с.
Битрейт : 2 бит/сек
Частота кадров : 0,009 кадр/сек
Count of elements : 22
Размер потока : 851 байт (0%)
Заголовок : Forced
Язык : Russian
Default : Нет
Forced : Нет

Текст #2
Идентификатор : 5
Формат : UTF-8
Идентификатор кодека : S_TEXT/UTF8
Идентификатор кодека/Информация : UTF-8 Plain Text
Продолжительность : 42 м. 40 с.
Битрейт : 136 бит/сек
Частота кадров : 0,330 кадр/сек
Count of elements : 844
Размер потока : 42,7 Кбайт (0%)
Язык : Russian
Default : Нет
Forced : Нет

Текст #3
Идентификатор : 6
Формат : UTF-8
Идентификатор кодека : S_TEXT/UTF8
Идентификатор кодека/Информация : UTF-8 Plain Text
Продолжительность : 42 м. 14 с.
Битрейт : 94 бит/сек
Частота кадров : 0,343 кадр/сек
Count of elements : 868
Размер потока : 29,2 Кбайт (0%)
Язык : English (AU)
Default : Нет
Forced : Нет

Текст #4
Идентификатор : 7
Формат : UTF-8
Идентификатор кодека : S_TEXT/UTF8
Идентификатор кодека/Информация : UTF-8 Plain Text
Продолжительность : 42 м. 39 с.
Битрейт : 100 бит/сек
Частота кадров : 0,367 кадр/сек
Count of elements : 939
Размер потока : 31,4 Кбайт (0%)
Заголовок : SDH
Язык : English (AU)
Default : Нет
Forced : Нет

Как качать, Как раздавать - Правила и инструкции
Торрент14 янв 2024, 11:36 [ 14 янв 2024, 11:36 ]

СКАЧАТЬ с просмотром рекламы
Статус-
.torrent скачан4243 раз
Размер21.89 ГБ (23 501 636 661)

Вернуться в !!! Полные завершенные сезоны !!!

Кто сейчас на конференции

Сейчас этот форум просматривают: Google [Bot]

Ресурс не предоставляет электронные версии произведений, а занимается лишь коллекционированием и каталогизацией ссылок, присылаемых и публикуемых на форуме нашими читателями. Если вы являетесь правообладателем какого-либо представленного материала и не желаете чтобы ссылка на него находилась в нашем каталоге, свяжитесь с нами и мы незамедлительно удалим её. Файлы для обмена на трекере предоставлены пользователями сайта, и администрация не несёт ответственности за их содержание. Просьба не заливать файлы, защищенные авторскими правами, а также файлы нелегального содержания!