Наша Девочка / Our Girl (Сезон: 1-4 / Серии: 1-28 из 28) [2013-2020, Боевик, драма, военный, HDTVRip | ColdFilm] - Скачать торрент бесплатно

Модераторы: Кандидат в Союз Риперов, Модераторы Сериалы, мультсериалы, Союз Риперов

Поделиться ВКонтакте Поделиться Facebook Поделиться Twitter Поделиться Mail.RU
АвторСообщение
FiNikola
Аватара пользователя
Заслуженный
Заслуженный
 
Раздал: 15.77 ТБ
Скачал: 698.33 ГБ
Ратио: 78.153
Сообщения: 1748
Стаж: 2 года 10 месяцев 6 дней
Откуда: РОССИЯ
Награды: 35
Карма: 65

Сообщение FiNikola » 13 фев 2023, 10:37

Наша Девочка / Our Girl (Сезон: 1-4 / Серии: 1-28 из 28) [2013-2020, Боевик, драма, военный, HDTVRip | ColdFilm] - Скачать торрент

Год выпуска: 2013-2020
Страна: Великобритания
Жанр: боевик, драма, военный
Продолжительность: 28 х ~ 00:59:00
Перевод: Любительский (многоголосый закадровый) ColdFilm

Режиссёр: Дэвид Друри
В ролях: Мишель Киган, Люк Паскуалино, Лэйси Тернер, Саймон Леннон, Ник Престон, Чарли Палмер Ротуэлл, Бен Элдридж, Шон Уорд, Лоуренс Уокер, Адэ Ойефесо



Описание: Это история Молли Доус, родившейся и выросшей в лондонском районе Ньюхэм. Молли - старшая из пяти детей с плачевными перспективами на будущее, проблемным отцом и матерью, которая всегда хочет от нее большего. Окончив школу без аттестата, Молли работает на неполную ставку в местном баре. Пьяная и подавленная вечером своего 18-летия, она вваливается в двери армейский офис по набору новобранцев. Она не осознает этого в тот момент, но этот поступок изменит её жизнь навсегда...

Качество: HDTVRip
Формат: AVI
Видео: XviD, 720x400, 16:9, 25.000 fps, ~ 1470 kbps, 0.204 bits/pixel
Аудио: Russian MP3 2.0, 48.0 КГц, 192 kbps | MVO ColdFilm
Субтитры: Отсутствуют

Реклама: В каждой серии в начале (видео, аудио, субтитры), и в конце (аудио)

Общее
Полное имя : Our.Girl.S01-04.2013-2020.400p.HDTVRip.ColdFilm\\Our.Girl.S01.2013.400p.HDTVRip.ColdFilm\\Our.Girl.S01E01.400p.ColdFilm.avi
Формат : AVI
Формат/Информация : Audio Video Interleave
Размер файла : 704 Мбайт
Продолжительность : 58 м. 44 с.
Общий поток : 1 675 Кбит/сек
Программа кодирования : Lavf54.63.104

Видео
Идентификатор : 0
Формат : xvid
Идентификатор кодека : xvid
Продолжительность : 58 м. 44 с.
Битрейт : 1 470 Кбит/сек
Ширина : 720 пикселей
Высота : 400 пикселей
Соотношение сторон : 16:9
Частота кадров : 25,000 кадров/сек
Тип развёртки : Прогрессивная
Бит/(Пиксели*Кадры) : 0.204
Размер потока : 618 Мбайт (88%)

Аудио
Идентификатор : 1
Формат : MPEG Audio
Версия формата : Version 1
Профиль формата : Layer 3
Настройки формата : Joint stereo
Идентификатор кодека : 55
Идентификатор кодека/Подсказка : MP3
Продолжительность : 58 м. 44 с.
Вид битрейта : Постоянный
Битрейт : 192 Кбит/сек
Каналы : 2 канала
Частота : 48,0 КГц
Метод сжатия : С потерями
Размер потока : 80,7 Мбайт (11%)
Выравнивание : Соединение по промежуткам
Продолжительность промежутка : 24 мс. (0,60 видеокадр)
Библиотека кодирования : LAME3.99.5

Как качать, Как раздавать - Правила и инструкции
Торрент13 фев 2023, 10:37 [ 13 фев 2023, 10:37 ]

СКАЧАТЬ с просмотром рекламы
СтатусПроверен
.torrent скачан0 раз
Размер18.42 ГБ (19 778 777 676)

Вернуться в !!! Полные завершенные сезоны !!!

Кто сейчас на конференции

Сейчас этот форум просматривают: roser69

Ресурс не предоставляет электронные версии произведений, а занимается лишь коллекционированием и каталогизацией ссылок, присылаемых и публикуемых на форуме нашими читателями. Если вы являетесь правообладателем какого-либо представленного материала и не желаете чтобы ссылка на него находилась в нашем каталоге, свяжитесь с нами и мы незамедлительно удалим её. Файлы для обмена на трекере предоставлены пользователями сайта, и администрация не несёт ответственности за их содержание. Просьба не заливать файлы, защищенные авторскими правами, а также файлы нелегального содержания!