Ночной суд (2 сезон: 1-13 серии из 13) / Night Court [2023, Комедия, ситком, WEB-DL 1080p, Профессиональный (многоголосый, закадровый) | HDRezka Studio] - Скачать торрент бесплатно

Модераторы: Кандидат в Союз Риперов, Модераторы Сериалы, мультсериалы, Союз Риперов

Поделиться ВКонтакте Поделиться Facebook Поделиться Twitter Поделиться Mail.RU
АвторСообщение
VLAD71
Аватара пользователя
Модератор Фильмов
Модератор Фильмов
 
Раздал: 150.11 ТБ
Скачал: 40.94 ТБ
Ратио: 627.187
Сообщения: 359
Стаж: 6 лет 4 месяца 2 дня
Награды: 13
Карма: 50

Сообщение VLAD71 » 18 янв 2024, 11:20

Ночной суд (2 сезон: 1-13 серии из 13) / Night Court [2023, Комедия, ситком, WEB-DL 1080p, Профессиональный (многоголосый, закадровый) | HDRezka Studio] - Скачать торрент

Название: Ночной суд
Оригинальное название: Night Court
Год выхода: 2023
Жанр: Комедия, ситком
Режиссер: Энтони Рич, Памела Фрайман, Марк Сендроуски

В ролях: Мелисса Рауш, Индия де Бефорт, Джон Ларрокетт, Капиль Талвакар, Димитар Маринов, Уэнди Мэлик, Гэри Энтони Уильямс, Антонио Рауль Корбо и др.

Описание сериала: Действие развивается вокруг сотрудников муниципального суда Манхэттена. Яркая, решительная и страстная Эбби Стоун — новая судья манхэттенского суда, которая работает исключительно в ночные смены. Будучи опытным сотрудником судебной системы, Эбби приступает к работе с наведения порядка в команде, чьи работники привыкли работать расслабленно и лениво. По мере того как главной героине удается создать правильную рабочую атмосферу, она занимается своими непосредственными обязанностями, стремясь добиться эффективного рассмотрения дел, а также найти человечность в подсудимых, которые предстанут перед ней.

Страна: США
Студия: After January Productions, Secret Bird, Universal TV, Warner Bros. Television
Продолжительность: ~00:20:00
Перевод: Профессиональный (многоголосый, закадровый) HDRezka Studio
Субтитры: Английские



Файл
Формат: MKV
Качество: WEB-DL (1080p)

Видео: 1920x1080 (16:9), 23,976 fps, AVC (х264), High@L4, ~7814 kbps avg, 0.157 bit/pixel
Аудио RUS: 48 kHz, AC3, 2/0 (L, R,) ch, ~384 kbps avg
Аудио ENG: 48 kHz, E-AC3, 3/2 (L, C, R, l, r) + LFE ch, ~192 kbps avg




Общее
Уникальный идентификатор : 195992081208948335251793996743515576252 (0x9372B3A99408A0F8A753A86B407C17BC)
Полное имя : Night.Court.2023.S02E01.WEB-DL.1080p.HDREZKA.STUDIO.mkv
Формат : Matroska
Версия формата : Version 4
Размер файла : 1,27 Гбайт
Продолжительность : 21 м. 36 с.
Общий поток : 8 391 Кбит/сек
Частота кадров : 23,976 кадра/сек
Дата кодирования : 2024-01-17 13:31:58 UTC
Программа кодирования : mkvmerge v68.0.0 ('The Curtain') 64-bit
Библиотека кодирования : libebml v1.4.2 + libmatroska v1.6.4

Видео
Идентификатор : 1
Формат : AVC
Формат/Информация : Advanced Video Codec
Профиль формата : High@L4
Настройки формата : CABAC / 3 Ref Frames
Параметр CABAC формата : Да
Параметр RefFrames формата : 3 кадра
Идентификатор кодека : V_MPEG4/ISO/AVC
Продолжительность : 21 м. 36 с.
Битрейт : 7 814 Кбит/сек
Ширина : 1 920 пикселей
Высота : 1 080 пикселей
Соотношение сторон : 16:9
Режим частоты кадров : Постоянный
Частота кадров : 23,976 (24000/1001) кадра/сек
Цветовое пространство : YUV
Субдискретизация насыщенности : 4:2:0
Битовая глубина : 8 бит
Тип развёртки : Прогрессивная
Бит/(Пиксели*Кадры) : 0.157
Размер потока : 1,18 Гбайт (93%)
Библиотека кодирования : x264 core 164 r3095 baee400
Настройки программы : cabac=1 / ref=3 / deblock=1:0:0 / analyse=0x3:0x113 / me=umh / subme=7 / psy=1 / psy_rd=0.00:0.00 / mixed_ref=1 / me_range=16 / chroma_me=1 / trellis=1 / 8x8dct=1 / cqm=0 / deadzone=21,11 / fast_pskip=1 / chroma_qp_offset=0 / threads=34 / lookahead_threads=5 / sliced_threads=0 / nr=0 / decimate=1 / interlaced=0 / bluray_compat=0 / constrained_intra=0 / bframes=2 / b_pyramid=0 / b_adapt=1 / b_bias=0 / direct=1 / weightb=1 / open_gop=0 / weightp=2 / keyint=48 / keyint_min=4 / scenecut=0 / intra_refresh=0 / rc_lookahead=48 / rc=2pass / mbtree=1 / bitrate=7814 / ratetol=1.0 / qcomp=0.60 / qpmin=10 / qpmax=51 / qpstep=4 / cplxblur=20.0 / qblur=0.5 / vbv_maxrate=11729 / vbv_bufsize=11729 / nal_hrd=none / filler=0 / ip_ratio=1.41 / aq=1:1.00
Default : Да
Forced : Нет
Цветовой диапазон : Limited
Основные цвета : BT.709
Характеристики трансфера : BT.709
Коэффициенты матрицы : BT.709

Аудио #1
Идентификатор : 2
Формат : AC-3
Формат/Информация : Audio Coding 3
Коммерческое название : Dolby Digital
Идентификатор кодека : A_AC3
Продолжительность : 21 м. 36 с.
Вид битрейта : Постоянный
Битрейт : 384 Кбит/сек
Каналы : 2 канала
Channel layout : L R
Частота : 48,0 КГц
Частота кадров : 31,250 кадров/сек (1536 SPF)
Метод сжатия : С потерями
Размер потока : 59,4 Мбайт (5%)
Язык : Russian
Default : Да
Forced : Нет

Аудио #2
Идентификатор : 3
Формат : E-AC-3
Формат/Информация : Enhanced AC-3
Коммерческое название : Dolby Digital Plus
Идентификатор кодека : A_EAC3
Продолжительность : 21 м. 36 с.
Вид битрейта : Постоянный
Битрейт : 192 Кбит/сек
Каналы : 6 каналов
Channel layout : L R C LFE Ls Rs
Частота : 48,0 КГц
Частота кадров : 31,250 кадров/сек (1536 SPF)
Метод сжатия : С потерями
Размер потока : 29,7 Мбайт (2%)
Язык : English
Default : Нет
Forced : Нет

Текст
Идентификатор : 4
Формат : UTF-8
Идентификатор кодека : S_TEXT/UTF8
Идентификатор кодека/Информация : UTF-8 Plain Text
Продолжительность : 21 м. 22 с.
Битрейт : 101 бит/сек
Частота кадров : 0,353 кадр/сек
Count of elements : 453
Размер потока : 15,9 Кбайт (0%)
Заголовок : English
Язык : English
Default : Нет
Forced : Нет

Как качать, Как раздавать - Правила и инструкции
Торрент14 апр 2024, 15:20 [ 14 апр 2024, 15:20 ]

СКАЧАТЬ с просмотром рекламы
Статус-
.torrent скачан175 раз
Размер16.5 ГБ (17 721 978 821)

shiga


Новичок
Новичок
 

Сообщения: 6

Стаж: 13 лет 10 месяцев 30 дней
Карма: 0

Сообщение shiga» 01 фев 2024, 22:50

Где-то есть первый сезон?


Вернуться в !!! Полные завершенные сезоны !!!

Кто сейчас на конференции

Сейчас этот форум просматривают: нет зарегистрированных пользователей

Ресурс не предоставляет электронные версии произведений, а занимается лишь коллекционированием и каталогизацией ссылок, присылаемых и публикуемых на форуме нашими читателями. Если вы являетесь правообладателем какого-либо представленного материала и не желаете чтобы ссылка на него находилась в нашем каталоге, свяжитесь с нами и мы незамедлительно удалим её. Файлы для обмена на трекере предоставлены пользователями сайта, и администрация не несёт ответственности за их содержание. Просьба не заливать файлы, защищенные авторскими правами, а также файлы нелегального содержания!