Позолоченный век (2 сезон: 1-6 серии из 8) / The Gilded Age [2023, Драма, WEB-DLRip (1080p), Профессиональный (многоголосый, закадровый) - HDRezka Studio] - Скачать торрент бесплатно

Модераторы: Кандидат в Союз Риперов, Модераторы Сериалы, мультсериалы, Союз Риперов

Поделиться ВКонтакте Поделиться Facebook Поделиться Twitter Поделиться Mail.RU
АвторСообщение
VLAD71
Аватара пользователя
Модератор Фильмов
Модератор Фильмов
 
Раздал: 149.18 ТБ
Скачал: 40.94 ТБ
Ратио: 626.535
Сообщения: 359
Стаж: 6 лет 2 месяца 5 дней
Награды: 13

Сообщение VLAD71 » 07 дек 2023, 18:00

Позолоченный век (2 сезон: 1-6 серии из 8) / The Gilded Age [2023, Драма, WEB-DLRip (1080p), Профессиональный (многоголосый, закадровый) - HDRezka Studio] - Скачать торрент

Название: Позолоченный век
Оригинальное название: The Gilded Age
Год выхода: 2023
Жанр: Драма
Режиссер: Майкл Энглер, Салли Ричардсон-Уитфилд

В ролях: Кристин Барански, Синтия Никсон, Таисса Фармига, Джинн Трипплхорн, Донна Мёрфи, Кэти Финнеран, Линда Эмонд, Морган Спектор, Одра МакДональд, Майкл Серверис и др.

Описание сериала: XIX век. Молодая девушка Мариан Брук, осиротевшая дочь генерала-южанина, переезжает в Нью-Йорк в дом своих тётушек-традиционалисток. Там она оказывается втянута в жизни богатых соседей и безжалостного железнодорожного магната, чья жена пытается пробиться в высший свет. Мариан должна понять правила этого общества и проложить себе путь в будущее.

Страна: США
Студия: Home Box Office (HBO), Universal TV
Продолжительность: ~01:00:00
Перевод: Профессиональный (многоголосый, закадровый) HDRezka Studio
Субтитры: Отсутствуют



Файл
Формат: MKV
Качество: WEB-DLRip (1080p)

Видео: 1920х1080 (16:9), 23, 976 fps, AVC (х264), High@L4, ~7743 kbps avg, 0.156 bit/pixel
Аудио RUS: 48 kHz, AC3, 2/0 (L, R), ~384 kbps avg




Общее
Уникальный идентификатор : 310179522450469152809795497839201628707 (0xE95A672DC7E0AC712B7BF7B65C383223)
Полное имя : The.Gilded.Age.2023.S02E01.WEB-DL.1080p.AMZN.HDREZKA.STUDIO.mkv
Формат : Matroska
Версия формата : Version 4
Размер файла : 3, 37 Гбайт
Продолжительность : 59 м. 23 с.
Режим общего битрейта : Постоянный
Общий поток : 8 129 Кбит/сек
Частота кадров : 23, 976 кадра/сек
Дата кодирования : 2023-12-07 07:15:22 UTC
Программа кодирования : mkvmerge v68.0.0 ('The Curtain') 64-bit
Библиотека кодирования : libebml v1.4.2 + libmatroska v1.6.4

Видео
Идентификатор : 1
Формат : AVC
Формат/Информация : Advanced Video Codec
Профиль формата : High@L4
Настройки формата : CABAC / 4 Ref Frames
Параметр CABAC формата : Да
Параметр RefFrames формата : 4 кадра
Идентификатор кодека : V_MPEG4/ISO/AVC
Продолжительность : 59 м. 23 с.
Вид битрейта : Постоянный
Битрейт : 7 743 Кбит/сек
Номинальный битрейт : 10 000 Кбит/сек
Ширина : 1 920 пикселей
Высота : 1 080 пикселей
Соотношение сторон : 16:9
Режим частоты кадров : Постоянный
Частота кадров : 23, 976 (24000/1001) кадра/сек
Цветовое пространство : YUV
Субдискретизация насыщенности : 4:2:0
Битовая глубина : 8 бит
Тип развёртки : Прогрессивная
Бит/(Пиксели*Кадры) : 0.156
Размер потока : 3, 21 Гбайт (95%)
Default : Да
Forced : Нет
Цветовой диапазон : Limited
Основные цвета : BT.709
Характеристики трансфера : BT.709
Коэффициенты матрицы : BT.709

Аудио
Идентификатор : 2
Формат : AC-3
Формат/Информация : Audio Coding 3
Коммерческое название : Dolby Digital
Идентификатор кодека : A_AC3
Продолжительность : 59 м. 23 с.
Вид битрейта : Постоянный
Битрейт : 384 Кбит/сек
Каналы : 2 канала
Channel layout : L R
Частота : 48, 0 КГц
Частота кадров : 31, 250 кадров/сек (1536 SPF)
Метод сжатия : С потерями
Размер потока : 163 Мбайт (5%)
Язык : Russian
Default : Да
Forced : Нет

Меню
00:00:00.000 : en:Chapter 1
00:00:05.004 : en:Intro
00:01:39.058 : en:Chapter 2
00:12:47.433 : en:Chapter 3
00:25:55.303 : en:Chapter 4
00:38:56.751 : en:Chapter 5
00:49:23.502 : en:Chapter 6
00:58:16.326 : en:Credits

Как качать, Как раздавать - Правила и инструкции
Торрент07 дек 2023, 18:00 [ 07 дек 2023, 18:00 ]

СКАЧАТЬ с просмотром рекламы
СтатусПроверен
.torrent скачан126 раз
Размер18.81 ГБ (20 201 489 008)

Вернуться в !!! Полные завершенные сезоны !!!

Кто сейчас на конференции

Сейчас этот форум просматривают: нет зарегистрированных пользователей

Ресурс не предоставляет электронные версии произведений, а занимается лишь коллекционированием и каталогизацией ссылок, присылаемых и публикуемых на форуме нашими читателями. Если вы являетесь правообладателем какого-либо представленного материала и не желаете чтобы ссылка на него находилась в нашем каталоге, свяжитесь с нами и мы незамедлительно удалим её. Файлы для обмена на трекере предоставлены пользователями сайта, и администрация не несёт ответственности за их содержание. Просьба не заливать файлы, защищенные авторскими правами, а также файлы нелегального содержания!