Прослушка (1-5 сезоны: 1-60 серии из 60) / The Wire [2002-2008, Триллер, драма, криминал, BDRip 720p | Юрий Сербин, ПМ (Fox Crime)] - Скачать торрент бесплатно

Модераторы: Кандидат в Союз Риперов, Модераторы Сериалы, мультсериалы, Союз Риперов

Поделиться ВКонтакте Поделиться Facebook Поделиться Twitter Поделиться Mail.RU
АвторСообщение
FiNikola
Аватара пользователя
Заслуженный
Заслуженный
 
Раздал: 15.76 ТБ
Скачал: 684.41 ГБ
Ратио: 78.129
Сообщения: 1757
Стаж: 2 года 8 месяцев 22 дня
Откуда: РОССИЯ
Награды: 35
Карма: 65

Сообщение FiNikola » 19 мар 2023, 17:53

Прослушка (1-5 сезоны: 1-60 серии из 60) / The Wire [2002-2008, Триллер, драма, криминал, BDRip 720p | Юрий Сербин, ПМ (Fox Crime)] - Скачать торрент

Информация о фильме
Название: Прослушка
Оригинальное название: The Wire
Год выпуска: 2002-2008
Жанр: триллер, драма, криминал
Режиссер: Джо Чаппелль, Эрнест Р. Дикерсон, Кларк Джонсон
В ролях: Доминик Уэст (Det. James «Jimmy» McNulty), Лэнс Реддик (Lt. Cedric Daniels), Уенделл Пирс (Det. William «Bunk» Moreland), Кларк Питерс (Det. Lester Freamon), Соня Сон (Det. Shakima «Kima» Greggs), Дирдри Лавджой (Asst. State's Atty. Rhonda Pearlman), Эйдан Гиллен (Councilman Thomas «Tommy» Carcetti), Сет Гиллиам (Sgt. Ellis Carver), Идрис Эльба (Russell «Stringer» Bell), Вуд Харрис (Avon Barksdale), Доменик Ломбардоззи (Det. Thomas «Herc» Hauk), Андре Ройо (Reginald «Bubbles» Cousins)

О фильме: Остросюжетный криминальный телесериала «Прослушка» по большей части основан на личном опыте Эда Бернса, который является одним из авторов сценария, и в свое время работал в отделе по расследованию убийств полиции Балтимора.

Действие сериала разворачивается в Балтиморе, где в последнее время очень сильно вырос оборот наркотиков. Местная полиция прикладывает немало усилий, чтобы повлиять на сложившуюся ситуацию, однако поймать преступников оказывается задачей не из легких. Бандиты мало того что очень тщательно все скрывают, так еще и невероятно быстро проворачивают свои сделки. Когда противостояние между наркоторговцами и полицией достигает своего апогея, и все заканчивается тем, что блюстители закона терпят фиаско, в ситуацию вмешивается опытный детектив Джеймс Макналти. Он прибегает к помощи хитроумной аппаратуры, благодаря которой пытается вычислить всех причастных к наркоторговле людей…



Страна: США
Студия: Blown Deadline Productions, Home Box Office (HBO)
Продолжительность: ~01:00:00 серия
Перевод: Авторский (одноголосый, закадровый), Профессиональный (многоголосый, закадровый)

Файл
Качество: BDRip 720p
Формат: Matroska
Видео: 1280x720 at 23.976 fps, x264, ~8500 kbps avg
Аудио#1: Russian: 48 kHz, AC3, 3/2 (L,C,R,l,r) + LFE ch, ~640 kbps avg |Авторский, Ю.Сербин|
Аудио#2: Russian: 48 kHz, AC3, 2/0 (L,R) ch, ~320 kbps avg |Многоголосый закадровый, FoxCrime|
Аудио#3: English: 48 kHz, AC3, 3/2 (L,C,R,l,r) + LFE ch, ~640 kbps avg
Аудио#4: English: 48 kHz, AC3, 2/0 (L,R) ch, ~320 kbps avg |Commentary|
Субтитры: Russian (FoxCrime), English
***Примечание: Без рекламы.
***Сохранены оригинальные главы как на Blu-ray.
***Исходник: The Wire S01-S05 1080p Blu-ray AVC DTS-HD MA 5.1-DG
***Внимание! В сериале присутствуют сцены сексуального характера, эпизоды с употреблением алкоголя и наркотиков, фрагменты с насилием и т.д.
***Перевод, равно как и оригинал, содержит огромное количество ненормативной лексики.

***Перевод Ю.Сербина доступен благодаря пользователям novafilm (r.i.p.), hdclub (r.i.p.), rutracker и e180. Сборы продолжались без малого 7 лет.
***Смотреть рекомендуется в переводе Ю.Сербина. Равно как и оригинал, перевод содержит огромное количество ненормативной лексики.
***Перевод на FoxCrime и Amediateka один и тот же, русские субтитры также набиты по нему.

S01E01. The Target (Мишень)
S01E02. The Detail (Задание)
S01E03. The Buys (Покупатели)
S01E04. Old Cases (Старые дела)
S01E05. The Pager (Пейджер)
S01E06. The Wire (Прослушка)
S01E07. One Arrest (Арест)
S01E08. Lessons (Уроки)
S01E09. Game Day (День игр)
S01E10. The Cost (Издержки)
S01E11. The Hunt (Охота)
S01E12. Cleaning Up (Чистка)
S01E13. Sentencing (Приговоры)
S02E01. Ebb Tide (Отлив)
S02E02. Collateral Damage (Сопутствующий ущерб)
S02E03. Hot Shots (Горячие уколы)
S02E04. Hard Cases (Тяжёлый случай)
S02E05. Undertow (Глубинное течение)
S02E06. All Prologue (Общий пролог)
S02E07. Backwash (Последствия)
S02E08. Duck and Cover (Объявлена тревога)
S02E09. Stray Rounds (Шальные пули)
S02E10. Storm Warnings (Штормовое предупреждение)
S02E11. Bad Dreams (Дурной сон)
S02E12. Port in a Storm (Порт штормит)
S03E01. Time After Time (Раз за разом)
S03E02. All Due Respect (При всём уважении)
S03E03. Dead Soldiers (Мёртвые солдаты)
S03E04. Hamsterdam (Хамстердам)
S03E05. Straight and True (Выбор)
S03E06. Homecoming (Возвращение домой)
S03E07. Back Burners (Пересмотр приоритетов)
S03E08. Moral Midgetry (Мораль)
S03E09. Slapstick (Пощёчина)
S03E10. Reformation (Преобразование)
S03E11. Middle Ground (Второй план)
S03E12. Mission Accomplished (Миссия достигнута)
S04E01. Boys of Summer (Юноши лета)
S04E02. Soft Eyes (Закройте на это глаза)
S04E03. Home Rooms (Классные комнаты)
S04E04. Refugees (Беглецы)
S04E05. Alliances (Союзы)
S04E06. Margin of Error (Предел погрешности)
S04E07. Unto Others (Быть с другими)
S04E08. Corner Boys (Ребята с улицы)
S04E09. Know Your Place (Знай своё место)
S04E10. Misgivings (Опасения)
S04E11. A New Day (Новый день)
S04E12. That's Got His Own (Каждый получает своё)
S04E13. Final Grades (Итоговые оценки)
S05E01. More with Less (Более менее)
S05E02. Unconfirmed Reports (Неподтверждённые сообщения)
S05E03. Not for Attribution (Непричастность)
S05E04. Transitions (Переходы)
S05E05. React Quotes (Реагируя на цитаты)
S05E06. The Dickensian Aspect (Аспект Диккенса)
S05E07. Took (Принял)
S05E08. Clarifications (Разъяснение)
S05E09. Late Editions (Поздние издания)
S05E10. —30— (—30—)

Общее
Уникальный идентификатор : 148603801145817112307726902587632242959 (0x6FCC0D117571509845E80EAEF60DD10F)
Полное имя : The.Wire.S01E01.720p.BluRay.2xRus.Eng.E180.mkv
Формат : Matroska
Версия формата : Version 4 / Version 2
Размер файла : 4,52 Гбайт
Продолжительность : 1 ч. 2 м.
Общий поток : 10,4 Мбит/сек
Дата кодирования : UTC 2018-01-03 14:55:07
Программа кодирования : mkvmerge v19.0.0 ('Brave Captain') 64-bit
Библиотека кодирования : libebml v1.3.5 + libmatroska v1.4.8

Видео
Идентификатор : 1
Формат : AVC
Формат/Информация : Advanced Video Codec
Профиль формата : [email protected]
Параметр CABAC формата : Да
Параметр ReFrames формата : 9 кадров
Идентификатор кодека : V_MPEG4/ISO/AVC
Продолжительность : 1 ч. 2 м.
Битрейт : 8500 Кбит/сек
Ширина : 1280 пикселей
Высота : 720 пикселей
Соотношение сторон : 16:9
Режим частоты кадров : Постоянный
Частота кадров : 23,976 кадра/сек
Цветовое пространство : YUV
Субдискретизация насыщенности : 4:2:0
Битовая глубина : 8 бит
Тип развёртки : Прогрессивная
Бит/(Пиксели*Кадры) : 0.385
Размер потока : 3,60 Гбайт (80%)
Библиотека кодирования : x264 core 152 r2851kMod ba24899
Настройки программы : cabac=1 / ref=9 / deblock=1:-3:-3 / analyse=0x3:0x113 / me=umh / subme=11 / psy=1 / fade_compensate=0.00 / psy_rd=1.05:0.05 / mixed_ref=1 / me_range=32 / chroma_me=1 / trellis=2 / 8x8dct=1 / cqm=0 / deadzone=21,11 / fast_pskip=0 / chroma_qp_offset=-4 / threads=12 / lookahead_threads=3 / sliced_threads=0 / nr=0 / decimate=1 / interlaced=0 / bluray_compat=0 / constrained_intra=0 / bframes=12 / b_pyramid=2 / b_adapt=2 / b_bias=0 / direct=3 / weightb=1 / open_gop=0 / weightp=2 / keyint=230 / keyint_min=23 / scenecut=40 / intra_refresh=0 / rc_lookahead=40 / rc=2pass / mbtree=0 / bitrate=8500 / ratetol=1.0 / qcomp=0.65 / qpmin=0 / qpmax=69 / qpstep=4 / cplxblur=20.0 / qblur=0.5 / vbv_maxrate=50000 / vbv_bufsize=62500 / nal_hrd=none / filler=0 / ip_ratio=1.40 / pb_ratio=1.30 / aq=3:0.85
Язык : English
Default : Да
Forced : Нет

Аудио #1
Идентификатор : 2
Формат : AC-3
Формат/Информация : Audio Coding 3
Расширение режима : CM (complete main)
Параметр Endianness формата : Big
Идентификатор кодека : A_AC3
Продолжительность : 1 ч. 2 м.
Вид битрейта : Постоянный
Битрейт : 640 Кбит/сек
Каналы : 6 каналов
Расположение каналов : Front: L C R, Side: L R, LFE
Частота : 48,0 КГц
Битовая глубина : 16 бит
Метод сжатия : С потерями
Размер потока : 284 Мбайт (6%)
Заголовок : DD 5.1 @ 640 kbps - Serbin
Язык : Russian
Default : Да
Forced : Нет

Аудио #2
Идентификатор : 3
Формат : AC-3
Формат/Информация : Audio Coding 3
Расширение режима : CM (complete main)
Параметр Endianness формата : Big
Идентификатор кодека : A_AC3
Продолжительность : 1 ч. 2 м.
Вид битрейта : Постоянный
Битрейт : 320 Кбит/сек
Каналы : 2 канала
Расположение каналов : Front: L R
Частота : 48,0 КГц
Битовая глубина : 16 бит
Метод сжатия : С потерями
Размер потока : 142 Мбайт (3%)
Заголовок : DD 2.0 @ 320 kbps - Fox Crime
Язык : Russian
Default : Нет
Forced : Нет

Аудио #3
Идентификатор : 4
Формат : AC-3
Формат/Информация : Audio Coding 3
Расширение режима : CM (complete main)
Параметр Endianness формата : Big
Идентификатор кодека : A_AC3
Продолжительность : 1 ч. 2 м.
Вид битрейта : Постоянный
Битрейт : 640 Кбит/сек
Каналы : 6 каналов
Расположение каналов : Front: L C R, Side: L R, LFE
Частота : 48,0 КГц
Битовая глубина : 16 бит
Метод сжатия : С потерями
Размер потока : 284 Мбайт (6%)
Заголовок : DD 5.1 @ 640 kbps - Original
Язык : English
Default : Нет
Forced : Нет

Аудио #4
Идентификатор : 5
Формат : AC-3
Формат/Информация : Audio Coding 3
Расширение режима : CM (complete main)
Параметр Endianness формата : Big
Идентификатор кодека : A_AC3
Продолжительность : 1 ч. 2 м.
Вид битрейта : Постоянный
Битрейт : 320 Кбит/сек
Каналы : 2 канала
Расположение каналов : Front: L R
Частота : 48,0 КГц
Битовая глубина : 16 бит
Метод сжатия : С потерями
Размер потока : 142 Мбайт (3%)
Заголовок : DD 2.0 @ 320 kbps - Commentary
Язык : English
Default : Нет
Forced : Нет

Текст #1
Идентификатор : 6
Формат : UTF-8
Идентификатор кодека : S_TEXT/UTF8
Идентификатор кодека/Информация : UTF-8 Plain Text
Заголовок : Fox Crime
Язык : Russian
Default : Нет
Forced : Нет

Текст #2
Идентификатор : 7
Формат : UTF-8
Идентификатор кодека : S_TEXT/UTF8
Идентификатор кодека/Информация : UTF-8 Plain Text
Заголовок : Original
Язык : English
Default : Нет
Forced : Нет

Меню
00:00:00.000 : en:00:00:00.000
00:04:27.601 : en:00:04:27.601
00:12:45.807 : en:00:12:45.807
00:21:06.307 : en:00:21:06.307
00:30:24.281 : en:00:30:24.281
00:39:42.380 : en:00:39:42.380
00:48:03.798 : en:00:48:03.798
00:55:16.647 : en:00:55:16.647
01:00:58.154 : en:01:00:58.154


Как качать, Как раздавать - Правила и инструкции
Торрент19 мар 2023, 17:53 [ 19 мар 2023, 17:53 ]

СКАЧАТЬ с просмотром рекламы
СтатусПроверен
.torrent скачан106 раз
Размер254.8 ГБ (273 587 597 792)

Вернуться в !!! Полные завершенные сезоны !!!

Кто сейчас на конференции

Сейчас этот форум просматривают: mashka-from

Ресурс не предоставляет электронные версии произведений, а занимается лишь коллекционированием и каталогизацией ссылок, присылаемых и публикуемых на форуме нашими читателями. Если вы являетесь правообладателем какого-либо представленного материала и не желаете чтобы ссылка на него находилась в нашем каталоге, свяжитесь с нами и мы незамедлительно удалим её. Файлы для обмена на трекере предоставлены пользователями сайта, и администрация не несёт ответственности за их содержание. Просьба не заливать файлы, защищенные авторскими правами, а также файлы нелегального содержания!