Прослушка (1-5 сезоны: 1-60 серии из 60) / The Wire [2002-2008, Триллер, драма, криминал, детектив, BDRip-HEVC 1080p | ПМ (Fox Crime), Юрий Сербин] - Скачать торрент бесплатно

Модераторы: Кандидат в Союз Риперов, Модераторы Сериалы, мультсериалы, Союз Риперов

Поделиться ВКонтакте Поделиться Facebook Поделиться Twitter Поделиться Mail.RU
АвторСообщение
FiNikola
Аватара пользователя
Заслуженный
Заслуженный
 
Раздал: 15.77 ТБ
Скачал: 688.82 ГБ
Ратио: 78.167
Сообщения: 1757
Стаж: 2 года 9 месяцев 10 дней
Откуда: РОССИЯ
Награды: 35
Карма: 65

Сообщение FiNikola » 19 мар 2023, 18:01

Прослушка (1-5 сезоны: 1-60 серии из 60) / The Wire [2002-2008, Триллер, драма, криминал, детектив, BDRip-HEVC 1080p | ПМ (Fox Crime), Юрий Сербин] - Скачать торрент

Год выхода: 2002-2008
Страна: США
Студия: Blown Deadline Productions, Home Box Office (HBO)
Жанр: Триллер, драма, криминал, детектив
Продолжительность: 60 x ~ 00:59:00
Перевод: Профессиональный (многоголосый закадровый), авторский

Режиссер: Джо Чаппелль, Клемент Вирго, Роб Бэйли
В ролях: Доминик Уэст, Джон Доумен, Дирдри Лавджой, Уэнделл Пирс, Лэнс Реддик, Соня Сон, Сет Гиллиам, Доменик Ломбардоззи, Кларк Питерс, Андре Ройо, Майкл Кеннет Уильямс

Описание: Подразделение полицейских в Балтиморе пытается с помощью специальных средств и мероприятий по прослушиванию и скрытой видеосъемке довести до суда расследование преступлений организованных преступных групп, которые занимаются незаконным распространением наркотиков.



Качество: BDRip-HEVC 1080p
Видео: HEVC/x.265, 1920x1080, ~6500 kb/s
Аудио 1: AC3, 2 ch, 320 Kbps - Русский, MVO (FoxCrime)
Аудио 2: AC3, 6 ch, 640 Kbps - Русский, AVO (Ю. Сербин)
Аудио 3: AC3, 6 ch, 640 Kbps - Английский

Субтитры: Русские, английские[/size]


General
Unique ID : 102071360363805995806268407378228287900 (0x4CCA3A9BBD5DDF941437A3F02C1C199C)
Complete name : H:СериалыThe WireSeason_01�1. Мишень.mkv
Format : Matroska
Format version : Version 4
File size : 3.49 GiB
Duration : 1 h 2 min
Overall bit rate : 8 055 kb/s
Movie name : The.Wire S01E01 The Target
Encoded date : UTC 2022-09-05 15:45:10
Writing application : mkvmerge v47.0.0.57 ('Black Flag') 64-bit
Writing library : libebml v1.4.0 + libmatroska v1.6.0
Cover : Yes
Attachments : cover.jpg

Video
ID : 1
Format : HEVC
Format/Info : High Efficiency Video Coding
Format profile : Main [email protected]@High
Codec ID : V_MPEGH/ISO/HEVC
Duration : 1 h 2 min
Bit rate : 6 452 kb/s
Width : 1 920 pixels
Height : 1 080 pixels
Display aspect ratio : 16:9
Frame rate mode : Constant
Frame rate : 23.976 (24000/1001) FPS
Color space : YUV
Chroma subsampling : 4:2:0
Bit depth : 10 bits
Bits/(Pixel*Frame) : 0.130
Stream size : 2.80 GiB (80%)
Title : JS
Writing library : x265 3.5+37+12-4e46995bc:[Windows][MSVC 1931][64 bit] 10bit
Encoding settings : cpuid=1111039 / frame-threads=4 / numa-pools=16 / wpp / no-pmode / no-pme / no-psnr / no-ssim / log-level=2 / input-csp=1 / input-res=1920x1080 / interlace=0 / total-frames=89353 / level-idc=41 / high-tier=1 / uhd-bd=0 / ref=5 / no-allow-non-conformance / no-repeat-headers / annexb / no-aud / no-eob / no-eos / no-hrd / info / hash=0 / no-temporal-layers / open-gop / min-keyint=23 / keyint=250 / gop-lookahead=0 / bframes=16 / b-adapt=2 / b-pyramid / bframe-bias=0 / rc-lookahead=5 / lookahead-slices=6 / scenecut=0 / no-hist-scenecut / radl=0 / no-splice / no-intra-refresh / ctu=32 / min-cu-size=16 / no-rect / no-amp / max-tu-size=32 / tu-inter-depth=4 / tu-intra-depth=4 / limit-tu=1 / rdoq-level=0 / dynamic-rd=0.00 / no-ssim-rd / no-signhide / no-tskip / nr-intra=0 / nr-inter=0 / no-constrained-intra / strong-intra-smoothing / max-merge=5 / limit-refs=3 / no-limit-modes / me=3 / subme=7 / merange=57 / temporal-mvp / no-frame-dup / no-hme / no-weightp / no-weightb / no-analyze-src-pics / deblock=2:2 / no-sao / no-sao-non-deblock / rd=4 / selective-sao=0 / early-skip / rskip / fast-intra / no-tskip-fast / no-cu-lossless / no-b-intra / no-splitrd-skip / rdpenalty=0 / psy-rd=2.00 / psy-rdoq=0.00 / no-rd-refine / no-lossless / cbqpoffs=0 / crqpoffs=0 / rc=crf / crf=21.0 / qcomp=0.60 / qpstep=4 / stats-write=0 / stats-read=0 / vbv-maxrate=50000 / vbv-bufsize=50000 / vbv-init=0.9 / min-vbv-fullness=50.0 / max-vbv-fullness=80.0 / crf-max=0.0 / crf-min=0.0 / ipratio=1.40 / pbratio=1.30 / aq-mode=0 / aq-strength=1.00 / aq-bias-strength=1.00 / no-cutree / zone-count=0 / no-strict-cbr / qg-size=32 / no-rc-grain / qpmax=69 / qpmin=0 / no-const-vbv / sar=0 / overscan=0 / videoformat=5 / range=0 / colorprim=1 / transfer=1 / colormatrix=1 / chromaloc=0 / display-window=0 / cll=0,0 / min-luma=0 / max-luma=1023 / log2-max-poc-lsb=8 / vui-timing-info / vui-hrd-info / slices=1 / no-opt-qp-pps / no-opt-ref-list-length-pps / no-multi-pass-opt-rps / scenecut-bias=0.05 / hist-threshold=0.03 / no-opt-cu-delta-qp / no-aq-motion / no-hdr10 / no-hdr10-opt / no-dhdr10-opt / no-idr-recovery-sei / analysis-reuse-level=0 / analysis-save-reuse-level=0 / analysis-load-reuse-level=0 / scale-factor=0 / refine-intra=0 / refine-inter=0 / refine-mv=1 / refine-ctu-distortion=0 / no-limit-sao / ctu-info=0 / no-lowpass-dct / refine-analysis-type=0 / copy-pic=1 / max-ausize-factor=1.0 / no-dynamic-refine / no-single-sei / no-hevc-aq / no-svt / no-field / qp-adaptation-range=1.00 / scenecut-aware-qp=0conformance-window-offsets / right=0 / bottom=0 / decoder-max-rate=0 / no-vbv-live-multi-pa
Language : Russian
Default : Yes
Forced : No
Color range : Limited
Color primaries : BT.709
Transfer characteristics : BT.709
Matrix coefficients : BT.709

Audio #1
ID : 2
Format : AC-3
Format/Info : Audio Coding 3
Commercial name : Dolby Digital
Codec ID : A_AC3
Duration : 1 h 2 min
Bit rate mode : Constant
Bit rate : 320 kb/s
Channel(s) : 2 channels
Channel layout : L R
Sampling rate : 48.0 kHz
Frame rate : 31.250 FPS (1536 SPF)
Compression mode : Lossy
Stream size : 142 MiB (4%)
Title : Fox Crime
Language : Russian
Service kind : Complete Main
Default : Yes
Forced : No

Audio #2
ID : 3
Format : AC-3
Format/Info : Audio Coding 3
Commercial name : Dolby Digital
Codec ID : A_AC3
Duration : 1 h 2 min
Bit rate mode : Constant
Bit rate : 640 kb/s
Channel(s) : 6 channels
Channel layout : L R C LFE Ls Rs
Sampling rate : 48.0 kHz
Frame rate : 31.250 FPS (1536 SPF)
Compression mode : Lossy
Stream size : 284 MiB (8%)
Title : Ю. Сербин
Language : Russian
Service kind : Complete Main
Default : No
Forced : No

Audio #3
ID : 4
Format : AC-3
Format/Info : Audio Coding 3
Commercial name : Dolby Digital
Codec ID : A_AC3
Duration : 1 h 2 min
Bit rate mode : Constant
Bit rate : 640 kb/s
Channel(s) : 6 channels
Channel layout : L R C LFE Ls Rs
Sampling rate : 48.0 kHz
Frame rate : 31.250 FPS (1536 SPF)
Compression mode : Lossy
Stream size : 284 MiB (8%)
Title : Original
Language : English
Service kind : Complete Main
Default : No
Forced : No

Text #1
ID : 5
Format : UTF-8
Codec ID : S_TEXT/UTF8
Codec ID/Info : UTF-8 Plain Text
Duration : 59 min 51 s
Bit rate : 124 b/s
Count of elements : 934
Stream size : 54.5 KiB (0%)
Title : Full
Language : Russian
Default : No
Forced : No

Text #2
ID : 6
Format : UTF-8
Codec ID : S_TEXT/UTF8
Codec ID/Info : UTF-8 Plain Text
Duration : 1 h 0 min
Bit rate : 76 b/s
Count of elements : 872
Stream size : 33.9 KiB (0%)
Title : Full
Language : English
Default : No
Forced : No

Menu
00:00:00.000 : :00:00:00.000
00:04:27.601 : :00:04:27.601
00:12:45.807 : :00:12:45.807
00:21:06.307 : :00:21:06.307
00:30:24.281 : :00:30:24.281
00:39:42.380 : :00:39:42.380
00:48:03.798 : :00:48:03.798
00:55:16.647 : :00:55:16.647
01:00:58.154 : :01:00:58.154


1-й сезон

01. Мишень
02. Задание
03. Покупатели
04. Старые дела
05. Пейджер
06. Прослушка
07. Арест
08. Уроки
09. День игр
10. Издержки
11. Охота
12. Чистка
13. Приговоры

2-й сезон

01. Отлив
02. Сопутствующий ущерб
03. Горячие уколы
04. Тяжёлый случай
05. Глубинное течение
06. Общий пролог
07. Последствия
08. Объявлена тревога
09. Шальные пули
10. Штормовое предупреждение
11. Дурной сон
12. Порт штормит

3-й сезон

01. Раз за разом
02. При всём уважении
03. Мёртвые солдаты
04. Хамстердам
05. Выбор
06. Возвращение домой
07. Пересмотр приоритетов
08. Мораль
09. Пощёчина
10. Преобразование
11. Второй план
12. Миссия достигнута

4-й сезон

01. Юноши лета
02. Закройте на это глаза
03. лассные комнаты
04. Беглецы
05. Союзы
06. Предел погрешности
07. Быть с другими
08. Ребята с улицы
09. Знай своё место
10. Опасения
11. Новый день
12. Каждый получает своё
13. Итоговые оценки

5-й сезон

01. Более менее
02. Неподтверждённые сообщения
03. Непричастность
04. Переходы
05. Реагируя на цитаты
06. Аспект Диккенса
07. Принял
08. Разъяснение
09. Поздние издания
10. -30-


Как качать, Как раздавать - Правила и инструкции
Торрент19 мар 2023, 18:01 [ 19 мар 2023, 18:01 ]

СКАЧАТЬ с просмотром рекламы
СтатусПроверен
.torrent скачан169 раз
Размер213.63 ГБ (229 381 638 304)

Вернуться в !!! Полные завершенные сезоны !!!

Кто сейчас на конференции

Сейчас этот форум просматривают: svklokov

Ресурс не предоставляет электронные версии произведений, а занимается лишь коллекционированием и каталогизацией ссылок, присылаемых и публикуемых на форуме нашими читателями. Если вы являетесь правообладателем какого-либо представленного материала и не желаете чтобы ссылка на него находилась в нашем каталоге, свяжитесь с нами и мы незамедлительно удалим её. Файлы для обмена на трекере предоставлены пользователями сайта, и администрация не несёт ответственности за их содержание. Просьба не заливать файлы, защищенные авторскими правами, а также файлы нелегального содержания!