Сплетница / Gossip Girl (Сезоны: 1-6, серии 1-121 из 121) [2007-2012, Драма, Молодежная комедия, WEB-DL 1080p | Профессиональный (многоголосый, закадровый) Россия 1, SDI Media] - Скачать торрент бесплатно

Модераторы: Кандидат в Союз Риперов, Модераторы Сериалы, мультсериалы, Союз Риперов

Поделиться ВКонтакте Поделиться Facebook Поделиться Twitter Поделиться Mail.RU
АвторСообщение
FiNikola
Аватара пользователя
Заслуженный
Заслуженный
 
Раздал: 15.77 ТБ
Скачал: 688.82 ГБ
Ратио: 78.233
Сообщения: 1748
Стаж: 2 года 9 месяцев 16 дней
Откуда: РОССИЯ
Награды: 35
Карма: 65

Сообщение FiNikola » 27 янв 2023, 06:00

Сплетница / Gossip Girl (Сезоны: 1-6, серии 1-121 из 121) [2007-2012, Драма, Молодежная комедия, WEB-DL 1080p | Профессиональный (многоголосый, закадровый) Россия 1, SDI Media] - Скачать торрент

Страна: США
Производство: Warner Bros. Television, CBS Television Studios, Alloy Entertainment, 17th Street Productions
Год выпуска: 2007-2012
Жанр: Драма, Молодежная комедия
Продолжительность: 121х ~00:43:00
Режиссеры: Марк Пизнарский, Норман Бакли, Патрик Р. Норрис
Авторы сценария: Стефани Сэвадж, Джош Шварц, Сесили фон Зигесар
В ролях: Блейк Лайвли, Лейтон Мистер, Эд Вествик, Пенн Бэджли, Чейс Кроуфорд, Келли Разерфорд, Мэттью Сеттл, Тейлор Момсен, Джессика Зор
Описание: Студенты престижной частной школы на Манхэттене впервые узнают, что Серена Ван Дер Вудсен вернулась в город, способом, с помощью которого они узнают все важные новости школьной жизни — из всем известного блога Сплетницы. Никто не знает кто она такая, однако все полагаются на публикуемые ею последние сплетни. Лучшая подруга Серены, Блэр, удивлена не меньше остальных, что Серена внезапно переменила свое решение об учебе за границей и вернулась в Манхэттен. Напряжение между ними не осталось незамеченным для Сплетницы, которая раскрывает любую тайну и делает достоянием общественности все скандалы.
Имеет ли это отношение к брату Серены, Эрику, бойфренду Блэйр, Нейту, или другу Нейта, Чаку? Может быть это как-то связано с Дэном и его сестрой Дженни, чье происхождение из среднего класса держит их на расстоянии от привилегированных студентов. Даже родители, начиная от матери Серены, Лили, бывшей фотожурналистки, влиятельного отца Нейта, Хуви, и заканчивая Руфусом, отцом Дэна и Дженни, ныне владельцем картинной галереи, а в прошлом солиста рок-группы, осведомлены о влиянии Сплетницы на жизнь их отпрысков. Однако главная интрига так и остается тайной: кто же такая Сплетница?

Перевод №1: Профессиональный (многоголосый, закадровый) | Россия 1 по заказу Netflix (сезоны 1-4)
Перевод №2: Профессиональный (многоголосый, закадровый) | SDI Media по заказу Netflix (сезоны 5-6)
Субтитры: русские (Netflix), английские (Amazon)

Качество: WEB-DL 1080p
Формат: МКV
Видео кодек: AVC
Аудио кодек: АС3 | E-AC3
Видео: 1920x1080 (16:9), 23.976 fps, MPEG-4 AVC ~14.1 Мbps avg
Аудио №1: 48.0 kHz, AC3 Dolby Digital, 2/0 (L,R) ch, ~192 kbps | RUS / MVO (Россия 1 / SDI Media)
Аудио №2: 48.0 kHz, Enhanced Audio Coding 3, 3/2 (L,C,R,l,r) + LFE ch, ~640 kbps | ENG / Original
Формат субтитров: UTF-8 Plain Text
Дата премьеры (мир): 19 сентября 2007

General
Полное имя : Gossip.Girl.S01E01.1080p.WEB-DL.x264-Kyle.mkv
Формат : Matroska
Версия формата : Version 4
Размер файла : 4,45 Гбайт
Продолжительность : 42 м. 37 с.
Режим общего битрейта : Переменный
Общий поток : 15,0 Мбит/сек
Дата кодирования : UTC 2019-02-23 10:13:10
Программа кодирования : mkvmerge v31.0.0 ('Dolores In A Shoestand') 64-bit
Библиотека кодирования : libebml v1.3.6 + libmatroska v1.4.9
Видео
Идентификатор : 1
Формат : AVC
Формат/Информация : Advanced Video Codec
Профиль формата : High@L4
Настройки формата : CABAC / 4 Ref Frames
Параметр CABAC формата : Да
Параметр RefFrames формата : 4 кадра
Идентификатор кодека : V_MPEG4/ISO/AVC
Продолжительность : 42 м. 37 с.
Вид битрейта : Переменный
Битрейт : 14,1 Мбит/сек
Максимальный битрейт : 15,0 Мбит/сек
Ширина : 1920 пикселей
Высота : 1080 пикселей
Соотношение сторон : 16:9
Режим частоты кадров : Постоянный
Частота кадров : 23,976 (24000/1001) кадра/сек
Цветовое пространство : YUV
Субдискретизация насыщенности : 4:2:0
Битовая глубина : 8 бит
Тип развёртки : Прогрессивная
Бит/(Пиксели*Кадры) : 0.284
Размер потока : 4,20 Гбайт (94%)
Заголовок : English
Библиотека кодирования : x264 core 148 r2623 d5b2374
Настройки программы : cabac=1 / ref=4 / deblock=1:-1:-1 / analyse=0x3:0x133 / me=umh / subme=9 / psy=1 / psy_rd=1.00:0.15 / mixed_ref=1 / me_range=24 / chroma_me=1 / trellis=2 / 8x8dct=1 / cqm=0 / deadzone=21,11 / fast_pskip=1 / chroma_qp_offset=-3 / threads=34 / lookahead_threads=5 / sliced_threads=0 / nr=150 / decimate=1 / interlaced=0 / bluray_compat=0 / constrained_intra=0 / bframes=8 / b_pyramid=2 / b_adapt=2 / b_bias=0 / direct=3 / weightb=1 / open_gop=0 / weightp=2 / keyint=120 / keyint_min=61 / scenecut=0 / intra_refresh=0 / rc_lookahead=120 / rc=crf / mbtree=1 / crf=18.0 / qcomp=0.60 / qpmin=0 / qpmax=69 / qpstep=4 / vbv_maxrate=15000 / vbv_bufsize=31250 / crf_max=0.0 / nal_hrd=vbr / filler=0 / ip_ratio=1.40 / aq=3:1.00
Язык : English
Default : Да
Forced : Нет
Цветовой диапазон : Limited
Основные цвета : BT.709
Характеристики трансфера : BT.709
Коэффициенты матрицы : BT.709
Аудио #1
Идентификатор : 2
Формат : AC-3
Формат/Информация : Audio Coding 3
Коммерческое название : Dolby Digital
Идентификатор кодека : A_AC3
Продолжительность : 42 м. 37 с.
Вид битрейта : Постоянный
Битрейт : 192 Кбит/сек
Каналы : 2 канала
Channel layout : L R
Частота : 48,0 КГц
Частота кадров : 31,250 кадров/сек (1536 SPF)
Битовая глубина : 16 бит
Метод сжатия : С потерями
Размер потока : 58,5 Мбайт (1%)
Заголовок : Russian
Язык : Russian
Default : Да
Forced : Нет
Аудио #2
Идентификатор : 3
Формат : E-AC-3
Формат/Информация : Enhanced AC-3
Коммерческое название : Dolby Digital Plus
Идентификатор кодека : A_EAC3
Продолжительность : 42 м. 37 с.
Вид битрейта : Постоянный
Битрейт : 640 Кбит/сек
Каналы : 6 каналов
Channel layout : L R C LFE Ls Rs
Частота : 48,0 КГц
Частота кадров : 31,250 кадров/сек (1536 SPF)
Метод сжатия : С потерями
Размер потока : 195 Мбайт (4%)
Заголовок : Englush
Язык : English
Default : Нет
Forced : Нет
Текст #1
Идентификатор : 4
Формат : UTF-8
Идентификатор кодека : S_TEXT/UTF8
Идентификатор кодека/Информация : UTF-8 Plain Text
Продолжительность : 41 м. 44 с.
Битрейт : 115 бит/сек
ElementCount : 604
Размер потока : 35,2 Кбайт (0%)
Заголовок : Russian
Язык : Russian
Default : Нет
Forced : Нет
Текст #2
Идентификатор : 5
Формат : UTF-8
Идентификатор кодека : S_TEXT/UTF8
Идентификатор кодека/Информация : UTF-8 Plain Text
Продолжительность : 42 м. 5 с.
Битрейт : 93 бит/сек
ElementCount : 856
Размер потока : 29,0 Кбайт (0%)
Заголовок : English
Язык : English
Default : Нет
Forced : Нет

Как качать, Как раздавать - Правила и инструкции
Торрент27 янв 2023, 06:00 [ 27 янв 2023, 06:00 ]

СКАЧАТЬ с просмотром рекламы
СтатусПроверен
.torrent скачан10 раз
Размер522.89 ГБ (561 450 569 434)

Вернуться в !!! Полные завершенные сезоны !!!

Кто сейчас на конференции

Сейчас этот форум просматривают: нет зарегистрированных пользователей

Ресурс не предоставляет электронные версии произведений, а занимается лишь коллекционированием и каталогизацией ссылок, присылаемых и публикуемых на форуме нашими читателями. Если вы являетесь правообладателем какого-либо представленного материала и не желаете чтобы ссылка на него находилась в нашем каталоге, свяжитесь с нами и мы незамедлительно удалим её. Файлы для обмена на трекере предоставлены пользователями сайта, и администрация не несёт ответственности за их содержание. Просьба не заливать файлы, защищенные авторскими правами, а также файлы нелегального содержания!