Страна пожаров (2 сезон: 1-6 серии из 10) / Fire Country [2024, Драма, WEB-DL 1080p, Профессиональный (многоголосый, закадровый) - TVShows] - Скачать торрент бесплатно

Модераторы: Кандидат в Союз Риперов, Модераторы Сериалы, мультсериалы, Союз Риперов

Поделиться ВКонтакте Поделиться Facebook Поделиться Twitter Поделиться Mail.RU
АвторСообщение
VLAD71
Аватара пользователя
Модератор Фильмов
Модератор Фильмов
 
Раздал: 150.11 ТБ
Скачал: 40.94 ТБ
Ратио: 627.187
Сообщения: 359
Стаж: 6 лет 4 месяца 2 дня
Награды: 13
Карма: 50

Сообщение VLAD71 » 21 фев 2024, 17:44

Страна пожаров (2 сезон: 1-6 серии из 10) / Fire Country [2024, Драма, WEB-DL 1080p, Профессиональный (многоголосый, закадровый) - TVShows] - Скачать торрент

Название: Страна пожаров
Оригинальное название: Fire Country
Год выхода: 2024
Жанр: Драма
Режиссер: Джеймс Стронг, Гонсало Амат, Дермотт Даунс, Эгил Эгилссон, Жаки Гулд, Эрика Уотсон

В ролях:
Макс Тириот, Кевин Алехандро, Билли Бёрк, Дайан Фарр, Джордан Кэллоуэй, Стефани Арсила, Жюль Латимер, Мишель Чхве-Ли, В. Тре Дэвис, Марселло Арройо и др.

Описание сериала:
Молодой парень оказывается в тюрьме. Он знает, что натворил много плохого. Но сидеть за решеткой для него оказывается невыносимо. Именно поэтому он хватается за предложенную ему сделку, как за спасательный круг. Он будет тушить пожары, как и другие профессионалы, которые занимаются этим не первый год. Он не ожидал, но ему, на самом деле, понравилось то, чем он занимается.

Страна: США
Студия: CBS Studios, Jerry Bruckheimer Television
Продолжительность: ~0:45:00
Перевод: Профессиональный (многоголосый, закадровый) TVShows
Субтитры: Английские



Файл
Формат: MKV
Качество: WEB-DL (1080p)

Видео: 1920x1080 (16:9), 23,976 fps, AVC (х264), High@L4, ~9152 Kbps avg, 0.184 bit/pixel
Аудио RUS: 48 kHz, AC3, 2/0 (L,R) ch, ~384 kbps avg
Аудио ENG: 48 kHz, E-AC3, 3/2 (L,C,R,l,r) + LFE ch, ~640 kbps avg




Общее
Уникальный идентификатор : 68766194421312862347153541123177542194 (0x33BBE32613AA2AFD7BFDDC144CB57232)
Полное имя : Fire.Country.2024.S02E01.WEB-DL.1080p.AMZN.TVShows.mkv
Формат : Matroska
Версия формата : Version 4
Размер файла : 3,10 Гбайт
Продолжительность : 43 м. 32 с.
Общий поток : 10,2 Мбит/сек
Частота кадров : 23,976 кадра/сек
Дата кодирования : 2024-02-21 11:27:02 UTC
Программа кодирования : mkvmerge v68.0.0 ('The Curtain') 64-bit
Библиотека кодирования : libebml v1.4.2 + libmatroska v1.6.4

Видео
Идентификатор : 1
Формат : AVC
Формат/Информация : Advanced Video Codec
Профиль формата : High@L4
Настройки формата : CABAC / 4 Ref Frames
Параметр CABAC формата : Да
Параметр RefFrames формата : 4 кадра
Идентификатор кодека : V_MPEG4/ISO/AVC
Продолжительность : 43 м. 32 с.
Вид битрейта : Постоянный
Битрейт : 9 152 Кбит/сек
Номинальный битрейт : 10 000 Кбит/сек
Ширина : 1 920 пикселей
Высота : 1 080 пикселей
Соотношение сторон : 16:9
Режим частоты кадров : Постоянный
Частота кадров : 23,976 (24000/1001) кадра/сек
Цветовое пространство : YUV
Субдискретизация насыщенности : 4:2:0
Битовая глубина : 8 бит
Тип развёртки : Прогрессивная
Бит/(Пиксели*Кадры) : 0.184
Размер потока : 2,78 Гбайт (90%)
Default : Да
Forced : Нет
Цветовой диапазон : Limited
Основные цвета : BT.709
Характеристики трансфера : BT.709
Коэффициенты матрицы : BT.709

Аудио #1
Идентификатор : 2
Формат : AC-3
Формат/Информация : Audio Coding 3
Коммерческое название : Dolby Digital
Идентификатор кодека : A_AC3
Продолжительность : 43 м. 32 с.
Вид битрейта : Постоянный
Битрейт : 384 Кбит/сек
Каналы : 2 канала
Channel layout : L R
Частота : 48,0 КГц
Частота кадров : 31,250 кадров/сек (1536 SPF)
Метод сжатия : С потерями
Размер потока : 120 Мбайт (4%)
Язык : Russian
Default : Да
Forced : Нет

Аудио #2
Идентификатор : 3
Формат : E-AC-3
Формат/Информация : Enhanced AC-3
Коммерческое название : Dolby Digital Plus
Идентификатор кодека : A_EAC3
Продолжительность : 43 м. 32 с.
Вид битрейта : Постоянный
Битрейт : 640 Кбит/сек
Каналы : 6 каналов
Channel layout : L R C LFE Ls Rs
Частота : 48,0 КГц
Частота кадров : 31,250 кадров/сек (1536 SPF)
Метод сжатия : С потерями
Размер потока : 199 Мбайт (6%)
Язык : English (US)
Default : Нет
Forced : Нет

Текст #1
Идентификатор : 4
Формат : UTF-8
Идентификатор кодека : S_TEXT/UTF8
Идентификатор кодека/Информация : UTF-8 Plain Text
Продолжительность : 42 м. 58 с.
Битрейт : 76 бит/сек
Частота кадров : 0,333 кадр/сек
Count of elements : 858
Размер потока : 24,2 Кбайт (0%)
Язык : English (US)
Default : Нет
Forced : Нет

Текст #2
Идентификатор : 5
Формат : UTF-8
Идентификатор кодека : S_TEXT/UTF8
Идентификатор кодека/Информация : UTF-8 Plain Text
Продолжительность : 42 м. 58 с.
Битрейт : 84 бит/сек
Частота кадров : 0,365 кадр/сек
Count of elements : 942
Размер потока : 26,5 Кбайт (0%)
Заголовок : SDH
Язык : English (US)
Default : Нет
Forced : Нет

Как качать, Как раздавать - Правила и инструкции
Торрент16 апр 2024, 20:20 [ 16 апр 2024, 20:20 ]

СКАЧАТЬ с просмотром рекламы
Статус-
.torrent скачан2 раз
Размер17.24 ГБ (18 511 121 061)

Вернуться в !!! Полные завершенные сезоны !!!

Кто сейчас на конференции

Сейчас этот форум просматривают: Google [Bot]

Ресурс не предоставляет электронные версии произведений, а занимается лишь коллекционированием и каталогизацией ссылок, присылаемых и публикуемых на форуме нашими читателями. Если вы являетесь правообладателем какого-либо представленного материала и не желаете чтобы ссылка на него находилась в нашем каталоге, свяжитесь с нами и мы незамедлительно удалим её. Файлы для обмена на трекере предоставлены пользователями сайта, и администрация не несёт ответственности за их содержание. Просьба не заливать файлы, защищенные авторскими правами, а также файлы нелегального содержания!