Тайны Салфер Спрингс (Тайны серных источников) (3 сезон: 1-8 серии из 8) / Secrets of Sulphur Springs [2023, Драма, детектив, приключения, семейный, WEB-DL (1080p), Профессиональный (многоголосый, закадровый) - TVShows] - Скачать торрент бесплатно

Модераторы: Кандидат в Союз Риперов, Модераторы Сериалы, мультсериалы, Союз Риперов

Поделиться ВКонтакте Поделиться Facebook Поделиться Twitter Поделиться Mail.RU
АвторСообщение
VLAD71
Аватара пользователя
Модератор Фильмов
Модератор Фильмов
 
Раздал: 151.85 ТБ
Скачал: 40.94 ТБ
Ратио: 628.619
Сообщения: 368
Стаж: 6 лет 5 месяцев 13 дней
Награды: 13
Карма: 50

Сообщение VLAD71 » 31 мар 2023, 11:07

Тайны Салфер Спрингс (Тайны серных источников) (3 сезон: 1-8 серии из 8) / Secrets of Sulphur Springs [2023, Драма, детектив, приключения, семейный, WEB-DL (1080p), Профессиональный (многоголосый, закадровый) - TVShows] - Скачать торрент

Название: Тайны Салфер Спрингс (Тайны серных источников)
Оригинальное название: Secrets of Sulphur Springs
Год выхода: 2023
Жанр: Драма, детектив, приключения, семейный
Режиссер: Эллен С. Прессман, Дженнифер Фанг

В ролях: Келли Рэй Кодл, Лэндон Гордон, Шерри Марина, Брайант Тарди, Мадлен МакГроу, Натали Дж. Аларкон, Грэйлен Брайант Бэнкс, Джош Браатен, Джованни Кохиа, Кайли Кёрран и др.

Описание сериала: 12-летний Гриффин Кэмпбелл только что переехал с семьёй в новый город, где Кэмпбеллы приобрели заброшенный отель в надежде вернуть ему былой блеск. В свой первый день в новой школе Гриффин узнаёт, что в отеле, в который он только что переехал, по слухам, живет призрак девушки, пропавшей несколько десятилетий назад. Вместе с одноклассниками он обнаруживает секретный портал, который позволяет им путешествовать во времени, где они выясняют, что ключ к разгадке тайны может находиться в семье Гриффина.

Страна: США
Студия: Disney Channel, Disney+, GWave Productions
Продолжительность: ~0:25:00
Перевод: Профессиональный (многоголосый, закадровый) TVShows
Субтитры: Английские



Файл
Формат: MKV
Качество: WEB-DL (1080p)

Видео: 1920x1080 (16:9), 23, 976 fps, AVC (х264), High@L4, ~6027 Kbps avg, 0.121 bit/pixel
Аудио RUS: 48 kHz, AC3, 3/2 (L,C,R,l,r) + LFE ch, ~256 kbps avg
Аудио ENG: 48 kHz, E-AC3, 3/2 (L, C, R, l, r) + LFE ch, ~256 kbps avg




Общее
Уникальный идентификатор : 2408548654257581919149950430611596093 (0x1CFDE9DF2588E9CC4CCF1C7C0A1633D)
Полное имя : Secrets.of.Sulphur.Springs.2023.S03E01.WEB-DL.1080p.TVShows.mkv
Формат : Matroska
Версия формата : Version 4
Размер файла : 1,04 Гбайт
Продолжительность : 22 м. 43 с.
Режим общего битрейта : Переменный
Общий поток : 6 541 Кбит/сек
Частота кадров : 23,976 кадра/сек
Дата кодирования : 2023-04-09 02:39:40 UTC
Программа кодирования : mkvmerge v68.0.0 ('The Curtain') 64-bit
Библиотека кодирования : libebml v1.4.2 + libmatroska v1.6.4

Видео
Идентификатор : 1
Формат : AVC
Формат/Информация : Advanced Video Codec
Профиль формата : High@L4
Настройки формата : CABAC / 4 Ref Frames
Параметр CABAC формата : Да
Параметр RefFrames формата : 4 кадра
Идентификатор кодека : V_MPEG4/ISO/AVC
Продолжительность : 22 м. 43 с.
Вид битрейта : Переменный
Битрейт : 6 027 Кбит/сек
Максимальный битрейт : 12,7 Мбит/сек
Ширина : 1 920 пикселей
Высота : 1 080 пикселей
Соотношение сторон : 16:9
Режим частоты кадров : Постоянный
Частота кадров : 23,976 (24000/1001) кадра/сек
Цветовое пространство : YUV
Субдискретизация насыщенности : 4:2:0
Битовая глубина : 8 бит
Тип развёртки : Прогрессивная
Бит/(Пиксели*Кадры) : 0.121
Размер потока : 979 Мбайт (92%)
Default : Да
Forced : Нет
Цветовой диапазон : Limited
Основные цвета : BT.709
Характеристики трансфера : BT.709
Коэффициенты матрицы : BT.709

Аудио #1
Идентификатор : 2
Формат : AC-3
Формат/Информация : Audio Coding 3
Коммерческое название : Dolby Digital
Идентификатор кодека : A_AC3
Продолжительность : 22 м. 43 с.
Вид битрейта : Постоянный
Битрейт : 256 Кбит/сек
Каналы : 6 каналов
Channel layout : L R C LFE Ls Rs
Частота : 48,0 КГц
Частота кадров : 31,250 кадров/сек (1536 SPF)
Метод сжатия : С потерями
Размер потока : 41,6 Мбайт (4%)
Язык : Russian
Default : Да
Forced : Нет

Аудио #2
Идентификатор : 3
Формат : E-AC-3
Формат/Информация : Enhanced AC-3
Коммерческое название : Dolby Digital Plus
Идентификатор кодека : A_EAC3
Продолжительность : 22 м. 43 с.
Вид битрейта : Постоянный
Битрейт : 256 Кбит/сек
Каналы : 6 каналов
Channel layout : L R C LFE Ls Rs
Частота : 48,0 КГц
Частота кадров : 31,250 кадров/сек (1536 SPF)
Метод сжатия : С потерями
Размер потока : 41,6 Мбайт (4%)
Язык : English
Default : Нет
Forced : Нет

Текст
Идентификатор : 4
Формат : UTF-8
Идентификатор кодека : S_TEXT/UTF8
Идентификатор кодека/Информация : UTF-8 Plain Text
Продолжительность : 22 м. 39 с.
Битрейт : 90 бит/сек
Частота кадров : 0,368 кадр/сек
Count of elements : 501
Размер потока : 15,1 Кбайт (0%)
Заголовок : English (SDH)
Язык : English
Default : Нет
Forced : Нет

Как качать, Как раздавать - Правила и инструкции
Торрент13 апр 2023, 08:48 [ 13 апр 2023, 08:48 ]

СКАЧАТЬ с просмотром рекламы
СтатусПроверен VLAD71
.torrent скачан194 раз
Размер8.29 ГБ (8 896 643 277)

Вернуться в !!! Полные завершенные сезоны !!!

Кто сейчас на конференции

Сейчас этот форум просматривают: нет зарегистрированных пользователей

Ресурс не предоставляет электронные версии произведений, а занимается лишь коллекционированием и каталогизацией ссылок, присылаемых и публикуемых на форуме нашими читателями. Если вы являетесь правообладателем какого-либо представленного материала и не желаете чтобы ссылка на него находилась в нашем каталоге, свяжитесь с нами и мы незамедлительно удалим её. Файлы для обмена на трекере предоставлены пользователями сайта, и администрация не несёт ответственности за их содержание. Просьба не заливать файлы, защищенные авторскими правами, а также файлы нелегального содержания!